  0
SECTION
  2
HEADER
  9
$ACADVER
  1
AC1006
  9
$INSBASE
 10
0.0
 20
0.0
 30
0.0
  9
$EXTMIN
 10
     -135.069351
 20
     -135.069351
  9
$EXTMAX
 10
      178.500244
 20
      178.500244
  9
$LIMMIN
 10
     -135.069351
 20
     -135.069351
  9
$LIMMAX
 10
      178.500244
 20
      178.500244
  9
$VIEWCTR
 10
       21.715446
 20
       21.715446
  9
$ORTHOMODE
 70
     0
  9
$ANGBASE
 50
0.0
  9
$ANGDIR
 70
     0
  9
$SPLINETYPE
 70
     6
  9
$SPLINESEGS
 70
     8
9
$DIMASZ
 40
        3.500000
9
$DIMEXE
 40
        0.933333
9
$DIMEXO
 40
        1.333333
9
$DIMTXT
 40
        4.000000
9
$DIMGAP
 40
        0.933333
9
$DIMTAD
 70
1
9
$DIMTIH
 70
0
9
$DIMTOH
 70
0
  0
ENDSEC
  0
SECTION
  2
TABLES
  0
TABLE
  2
LTYPE
 70
     5
  0
LTYPE
  2
CONTINUOUS
 70
    64
  3
SOLID LINE
 72
    65
 73
     0
 40
0.0
  0
LTYPE
  2
DASHED
 70
    64
  3
-- -- -- -- -- --
 72
    65
 73
     2
 40
  0.75  
 49
  0.50  
 49
 -0.25  
  0
LTYPE
  2
DOT
 70
    64
  3
....................
 72
    65
 73
     2
 40
  0.25  
 49
  0.02  
 49
 -0.23  
  0
LTYPE
  2
CENTER
 70
    64
  3
-- . -- . -- . -- .
 72
    65
 73
    4
 40
  2.00  
 49
  1.25  
 49
 -0.25  
 49
  0.25  
 49
 -0.25  
  0
LTYPE
  2
PHANTOM
 70
    64
  3
-- .. -- .. -- ..
 72
    65
 73
    6
 40
  2.50  
 49
  1.25  
 49
 -0.25  
 49
  0.25  
 49
 -0.25  
 49
  0.25  
 49
 -0.25  
  0
ENDTAB
  0
TABLE
  2
LAYER
 70
     1
  0
LAYER
  2
LVL0000
 70
    64
 62
     2
  6
CONTINUOUS
  0
ENDTAB
  0
TABLE
  2
STYLE
 70
     2
  0
STYLE
  2
STANDARD
 70
    64
 40
0.0
 41
1.0
 50
0.0
 71
     0
 42
5.0
  3
ROMANS
  4
BIGFONT
  0
STYLE
  2
BIGFONT
 70
    64
 40
0.0
 41
1.0
 50
0.0
 71
     0
 42
5.0
  3
ROMANS
  4
BIGFONT
  0
ENDTAB
  0
TABLE
  2
VIEW
 70
     0
  0
ENDTAB
  0
TABLE
  2
UCS
 70
     0
  0
ENDTAB
  0
TABLE
  2
DWGMGR
 70
     0
  0
ENDTAB
  0
ENDSEC
  0
SECTION
  2
BLOCKS
  0
BLOCK
  8
0
  2
BLK0001
 70
    64
 10
        0.000000
 20
        0.000000
  0
TEXT
  8
LVL0000
 10
       -8.518883
 20
     -143.491837
 30
        0.000000
 40
        4.000000
  1
３３．５
 50
        0.000000
 41
        0.835000
 51
        0.000000
  7
BIGFONT
  0
LINE
  8
LVL0000
 10
      -16.750000
 20
     -125.833336
 30
        0.000000
 11
      -16.750000
 21
     -145.358505
 31
        0.000000
  0
LINE
  8
LVL0000
 10
       16.750000
 20
     -125.833336
 30
        0.000000
 11
       16.750000
 21
     -145.358505
 31
        0.000000
  0
LINE
  8
LVL0000
 10
      -13.250000
 20
     -143.508865
 30
        0.000000
 11
      -16.750000
 21
     -144.425171
 31
        0.000000
  0
LINE
  8
LVL0000
 10
      -16.750000
 20
     -144.425171
 30
        0.000000
 11
      -13.250000
 21
     -145.341476
 31
        0.000000
  0
LINE
  8
LVL0000
 10
       13.250000
 20
     -145.341476
 30
        0.000000
 11
       16.750000
 21
     -144.425171
 31
        0.000000
  0
LINE
  8
LVL0000
 10
       16.750000
 20
     -144.425171
 30
        0.000000
 11
       13.250000
 21
     -143.508865
 31
        0.000000
  0
LINE
  8
LVL0000
 10
      -16.750000
 20
     -144.425171
 30
        0.000000
 11
       16.750000
 21
     -144.425171
 31
        0.000000
  0
ENDBLK
  0
BLOCK
  8
0
  2
BLK0002
 70
    64
 10
        0.000000
 20
        0.000000
  0
TEXT
  8
LVL0000
 10
      105.064835
 20
     -149.785919
 30
        0.000000
 40
        4.000000
  1
１２０．６
 50
        0.000000
 41
        0.835000
 51
        0.000000
  7
BIGFONT
  0
LINE
  8
LVL0000
 10
       54.400002
 20
      -67.933334
 30
        0.000000
 11
       54.400002
 21
     -151.652588
 31
        0.000000
  0
LINE
  8
LVL0000
 10
      174.999954
 20
     -124.833336
 30
        0.000000
 11
      174.999954
 21
     -151.652588
 31
        0.000000
  0
LINE
  8
LVL0000
 10
       57.900002
 20
     -149.802948
 30
        0.000000
 11
       54.400002
 21
     -150.719254
 31
        0.000000
  0
LINE
  8
LVL0000
 10
       54.400002
 20
     -150.719254
 30
        0.000000
 11
       57.900002
 21
     -151.635559
 31
        0.000000
  0
LINE
  8
LVL0000
 10
      171.499954
 20
     -151.635559
 30
        0.000000
 11
      174.999954
 21
     -150.719254
 31
        0.000000
  0
LINE
  8
LVL0000
 10
      174.999954
 20
     -150.719254
 30
        0.000000
 11
      171.499954
 21
     -149.802948
 31
        0.000000
  0
LINE
  8
LVL0000
 10
       54.400002
 20
     -150.719254
 30
        0.000000
 11
      174.999954
 21
     -150.719254
 31
        0.000000
  0
ENDBLK
  0
BLOCK
  8
0
  2
BLK0003
 70
    64
 10
        0.000000
 20
        0.000000
  0
TEXT
  8
LVL0000
 10
       27.630344
 20
       -3.541366
 30
        0.000000
 40
        4.000000
  1
２５０
 50
       90.000000
 41
        0.835000
 51
        0.000000
  7
BIGFONT
  0
LINE
  8
LVL0000
 10
       17.583334
 20
     -125.000000
 30
        0.000000
 11
       29.497011
 21
     -125.000000
 31
        0.000000
  0
LINE
  8
LVL0000
 10
       17.583334
 20
      125.000244
 30
        0.000000
 11
       29.497011
 21
      125.000244
 31
        0.000000
  0
LINE
  8
LVL0000
 10
       27.647381
 20
     -121.500000
 30
        0.000000
 11
       28.563679
 21
     -125.000000
 31
        0.000000
  0
LINE
  8
LVL0000
 10
       28.563679
 20
     -125.000000
 30
        0.000000
 11
       29.479977
 21
     -121.500000
 31
        0.000000
  0
LINE
  8
LVL0000
 10
       29.479977
 20
      121.500244
 30
        0.000000
 11
       28.563679
 21
      125.000244
 31
        0.000000
  0
LINE
  8
LVL0000
 10
       28.563679
 20
      125.000244
 30
        0.000000
 11
       27.647381
 21
      121.500244
 31
        0.000000
  0
LINE
  8
LVL0000
 10
       28.563679
 20
     -125.000000
 30
        0.000000
 11
       28.563679
 21
      125.000244
 31
        0.000000
  0
ENDBLK
  0
BLOCK
  8
0
  2
BLK0004
 70
    64
 10
        0.000000
 20
        0.000000
  0
TEXT
  8
LVL0000
 10
       27.630344
 20
       -3.541366
 30
        0.000000
 40
        4.000000
  1
２５０
 50
       90.000000
 41
        0.835000
 51
        0.000000
  7
BIGFONT
  0
LINE
  8
LVL0000
 10
       17.583334
 20
     -125.000000
 30
        0.000000
 11
       29.497011
 21
     -125.000000
 31
        0.000000
  0
LINE
  8
LVL0000
 10
       17.583334
 20
      125.000244
 30
        0.000000
 11
       29.497011
 21
      125.000244
 31
        0.000000
  0
LINE
  8
LVL0000
 10
       27.647381
 20
     -121.500000
 30
        0.000000
 11
       28.563679
 21
     -125.000000
 31
        0.000000
  0
LINE
  8
LVL0000
 10
       28.563679
 20
     -125.000000
 30
        0.000000
 11
       29.479977
 21
     -121.500000
 31
        0.000000
  0
LINE
  8
LVL0000
 10
       29.479977
 20
      121.500244
 30
        0.000000
 11
       28.563679
 21
      125.000244
 31
        0.000000
  0
LINE
  8
LVL0000
 10
       28.563679
 20
      125.000244
 30
        0.000000
 11
       27.647381
 21
      121.500244
 31
        0.000000
  0
LINE
  8
LVL0000
 10
       28.563679
 20
     -125.000000
 30
        0.000000
 11
       28.563679
 21
      125.000244
 31
        0.000000
  0
ENDBLK
  0
BLOCK
  8
0
  2
BLK0005
 70
    64
 10
        0.000000
 20
        0.000000
  0
TEXT
  8
LVL0000
 10
      112.480209
 20
     -138.367950
 30
        0.000000
 40
        4.000000
  1
１０５
 50
        0.000000
 41
        0.835000
 51
        0.000000
  7
BIGFONT
  0
LINE
  8
LVL0000
 10
      174.999954
 20
     -124.833336
 30
        0.000000
 11
      174.999954
 21
     -140.234619
 31
        0.000000
  0
LINE
  8
LVL0000
 10
       70.000000
 20
     -125.722252
 30
        0.000000
 11
       70.000000
 21
     -140.234619
 31
        0.000000
  0
LINE
  8
LVL0000
 10
      171.999954
 20
     -140.086685
 30
        0.000000
 11
      174.999954
 21
     -139.301285
 31
        0.000000
  0
LINE
  8
LVL0000
 10
      174.999954
 20
     -139.301285
 30
        0.000000
 11
      171.999954
 21
     -138.515884
 31
        0.000000
  0
LINE
  8
LVL0000
 10
       73.000000
 20
     -138.515884
 30
        0.000000
 11
       70.000000
 21
     -139.301285
 31
        0.000000
  0
LINE
  8
LVL0000
 10
       70.000000
 20
     -139.301285
 30
        0.000000
 11
       73.000000
 21
     -140.086685
 31
        0.000000
  0
LINE
  8
LVL0000
 10
      174.999954
 20
     -139.301285
 30
        0.000000
 11
       70.000000
 21
     -139.301285
 31
        0.000000
  0
ENDBLK
  0
ENDSEC
  0
SECTION
  2
ENTITIES
  0
TEXT
  8
LVL0000
 10
      -15.263775
 20
      167.650678
 30
        0.000000
 40
        5.000000
  1
ＪＷ５０ＤＮ２
 50
        0.000000
 41
        0.835000
 51
        0.000000
  7
BIGFONT
  0
LINE
  8
LVL0000
 62
  3
 10
       16.750000
 20
      125.000244
 30
        0.000000
 11
       16.750000
 21
     -125.000000
 31
        0.000000
  0
LINE
  8
LVL0000
 62
  3
 10
      -16.750000
 20
     -125.000000
 30
        0.000000
 11
       16.750000
 21
     -125.000000
 31
        0.000000
  0
LINE
  8
LVL0000
 62
  3
 10
      -16.750000
 20
      125.000244
 30
        0.000000
 11
      -16.750000
 21
     -125.000000
 31
        0.000000
  0
LINE
  8
LVL0000
 62
  3
 10
        5.700000
 20
       -4.750000
 30
        0.000000
 11
        7.300000
 21
       -4.750000
 31
        0.000000
  0
LINE
  8
LVL0000
 62
  3
 10
        5.700000
 20
       -1.250000
 30
        0.000000
 11
        7.300000
 21
       -1.250000
 31
        0.000000
  0
LINE
  8
LVL0000
 62
  3
 10
      -16.750000
 20
      125.000244
 30
        0.000000
 11
       16.750000
 21
      125.000244
 31
        0.000000
  0
DIMENSION
  8
LVL0000
 62
  5
  2
BLK0001
 10
      -16.750000
 20
     -144.425171
 11
       -8.518883
 21
     -143.491837
 13
      -16.750000
 23
     -124.500000
 14
       16.750000
 24
     -124.500000
 50
        0.0
 70
  0
  0
DIMENSION
  8
LVL0000
 62
  5
  2
BLK0002
 10
       54.400002
 20
     -150.719254
 11
      105.064835
 21
     -149.785919
 13
       54.400002
 23
      -66.599998
 14
      174.999954
 24
     -123.500000
 50
        0.0
 70
  0
  0
LINE
  8
LVL0000
 62
  3
 10
       57.000000
 20
      -36.300000
 30
        0.000000
 11
       54.400000
 21
      -36.300000
 31
        0.000000
  0
LINE
  8
LVL0000
 62
  3
 10
       57.000000
 20
      -61.700000
 30
        0.000000
 11
       54.400000
 21
      -61.700000
 31
        0.000000
  0
LINE
  8
LVL0000
 62
  3
 10
       54.400000
 20
      -61.700000
 30
        0.000000
 11
       54.400000
 21
      -66.600000
 31
        0.000000
  0
LINE
  8
LVL0000
 62
  3
 10
       54.400000
 20
      -31.400000
 30
        0.000000
 11
       54.400000
 21
      -36.300000
 31
        0.000000
  0
LINE
  8
LVL0000
 62
  3
 10
       70.000000
 20
      -31.400000
 30
        0.000000
 11
       54.400000
 21
      -31.400000
 31
        0.000000
  0
LINE
  8
LVL0000
 62
  3
 10
       70.000000
 20
      -66.600000
 30
        0.000000
 11
       54.400000
 21
      -66.600000
 31
        0.000000
  0
LINE
  8
LVL0000
 62
  3
 10
       57.000000
 20
      -31.400000
 30
        0.000000
 11
       57.000000
 21
      -66.600000
 31
        0.000000
  0
ARC
  8
LVL0000
 62
  3
 10
        2.350000
 20
      -65.800000
 30
        0.000000
 40
        0.800000
 50
      179.999995
 51
      270.000000
  0
LINE
  8
LVL0000
 62
  3
 10
        6.550000
 20
      -66.600000
 30
        0.000000
 11
        2.350000
 21
      -66.600000
 31
        0.000000
  0
ARC
  8
LVL0000
 62
  3
 10
        6.550000
 20
      -65.800000
 30
        0.000000
 40
        0.800000
 50
      270.000000
 51
      360.000000
  0
ARC
  8
LVL0000
 62
  3
 10
        2.350000
 20
      -32.200000
 30
        0.000000
 40
        0.800000
 50
       90.000000
 51
      179.999995
  0
LINE
  8
LVL0000
 62
  3
 10
        6.550000
 20
      -31.400000
 30
        0.000000
 11
        2.350000
 21
      -31.400000
 31
        0.000000
  0
ARC
  8
LVL0000
 62
  3
 10
        6.550000
 20
      -32.200000
 30
        0.000000
 40
        0.800000
 50
        0.000000
 51
       90.000000
  0
LINE
  8
LVL0000
 62
  3
 10
        7.350000
 20
      -65.800000
 30
        0.000000
 11
        7.350000
 21
      -61.700000
 31
        0.000000
  0
LINE
  8
LVL0000
 62
  3
 10
        7.350000
 20
      -36.300000
 30
        0.000000
 11
        7.350000
 21
      -32.200000
 31
        0.000000
  0
LINE
  8
LVL0000
 62
  3
 10
        1.550000
 20
      -65.800000
 30
        0.000000
 11
        1.550000
 21
      -61.700000
 31
        0.000000
  0
LINE
  8
LVL0000
 62
  3
 10
        1.550000
 20
      -36.300000
 30
        0.000000
 11
        1.550000
 21
      -32.200000
 31
        0.000000
  0
LINE
  8
LVL0000
 62
  3
 10
        8.250000
 20
      -36.300000
 30
        0.000000
 11
       -6.750000
 21
      -36.300000
 31
        0.000000
  0
LINE
  8
LVL0000
 62
  3
 10
        8.250000
 20
      -61.700000
 30
        0.000000
 11
       -6.750000
 21
      -61.700000
 31
        0.000000
  0
LINE
  8
LVL0000
 62
  3
 10
        5.450000
 20
      -37.340000
 30
        0.000000
 11
        2.150000
 21
      -37.340000
 31
        0.000000
  0
LINE
  8
LVL0000
 62
  3
 10
        5.450000
 20
      -40.340000
 30
        0.000000
 11
        2.150000
 21
      -40.340000
 31
        0.000000
  0
LINE
  8
LVL0000
 62
  3
 10
        5.450000
 20
      -40.340000
 30
        0.000000
 11
        5.450000
 21
      -37.340000
 31
        0.000000
  0
LINE
  8
LVL0000
 62
  3
 10
        2.150000
 20
      -40.340000
 30
        0.000000
 11
        2.150000
 21
      -37.340000
 31
        0.000000
  0
LINE
  8
LVL0000
 62
  3
 10
       -5.750000
 20
      -61.700000
 30
        0.000000
 11
       -5.750000
 21
      -36.300000
 31
        0.000000
  0
LINE
  8
LVL0000
 62
  3
 10
        5.450000
 20
      -42.420000
 30
        0.000000
 11
        2.150000
 21
      -42.420000
 31
        0.000000
  0
LINE
  8
LVL0000
 62
  3
 10
        2.150000
 20
      -45.420000
 30
        0.000000
 11
        2.150000
 21
      -42.420000
 31
        0.000000
  0
LINE
  8
LVL0000
 62
  3
 10
        5.450000
 20
      -45.420000
 30
        0.000000
 11
        5.450000
 21
      -42.420000
 31
        0.000000
  0
LINE
  8
LVL0000
 62
  3
 10
        5.450000
 20
      -45.420000
 30
        0.000000
 11
        2.150000
 21
      -45.420000
 31
        0.000000
  0
LINE
  8
LVL0000
 62
  3
 10
        5.450000
 20
      -50.500000
 30
        0.000000
 11
        2.150000
 21
      -50.500000
 31
        0.000000
  0
LINE
  8
LVL0000
 62
  3
 10
        5.450000
 20
      -50.500000
 30
        0.000000
 11
        5.450000
 21
      -47.500000
 31
        0.000000
  0
LINE
  8
LVL0000
 62
  3
 10
        2.150000
 20
      -50.500000
 30
        0.000000
 11
        2.150000
 21
      -47.500000
 31
        0.000000
  0
LINE
  8
LVL0000
 62
  3
 10
        5.450000
 20
      -47.500000
 30
        0.000000
 11
        2.150000
 21
      -47.500000
 31
        0.000000
  0
LINE
  8
LVL0000
 62
  3
 10
        5.450000
 20
      -52.580000
 30
        0.000000
 11
        2.150000
 21
      -52.580000
 31
        0.000000
  0
LINE
  8
LVL0000
 62
  3
 10
        2.150000
 20
      -55.580000
 30
        0.000000
 11
        2.150000
 21
      -52.580000
 31
        0.000000
  0
LINE
  8
LVL0000
 62
  3
 10
        5.450000
 20
      -55.580000
 30
        0.000000
 11
        5.450000
 21
      -52.580000
 31
        0.000000
  0
LINE
  8
LVL0000
 62
  3
 10
        5.450000
 20
      -55.580000
 30
        0.000000
 11
        2.150000
 21
      -55.580000
 31
        0.000000
  0
LINE
  8
LVL0000
 62
  3
 10
        5.450000
 20
      -60.660000
 30
        0.000000
 11
        2.150000
 21
      -60.660000
 31
        0.000000
  0
LINE
  8
LVL0000
 62
  3
 10
        5.450000
 20
      -60.660000
 30
        0.000000
 11
        5.450000
 21
      -57.660000
 31
        0.000000
  0
LINE
  8
LVL0000
 62
  3
 10
        2.150000
 20
      -60.660000
 30
        0.000000
 11
        2.150000
 21
      -57.660000
 31
        0.000000
  0
LINE
  8
LVL0000
 62
  3
 10
        5.450000
 20
      -57.660000
 30
        0.000000
 11
        2.150000
 21
      -57.660000
 31
        0.000000
  0
LINE
  8
LVL0000
 62
  3
 10
        6.250000
 20
      -60.935000
 30
        0.000000
 11
       -0.550000
 21
      -60.935000
 31
        0.000000
  0
LINE
  8
LVL0000
 62
  3
 10
        2.150000
 20
      -60.660000
 30
        0.000000
 11
       -0.550000
 21
      -60.935000
 31
        0.000000
  0
LINE
  8
LVL0000
 62
  3
 10
        5.450000
 20
      -60.660000
 30
        0.000000
 11
        6.250000
 21
      -60.935000
 31
        0.000000
  0
LINE
  8
LVL0000
 62
  3
 10
        5.450000
 20
      -55.580000
 30
        0.000000
 11
        6.250000
 21
      -55.855000
 31
        0.000000
  0
LINE
  8
LVL0000
 62
  3
 10
        2.150000
 20
      -55.580000
 30
        0.000000
 11
       -0.550000
 21
      -55.855000
 31
        0.000000
  0
LINE
  8
LVL0000
 62
  3
 10
        6.250000
 20
      -55.855000
 30
        0.000000
 11
       -0.550000
 21
      -55.855000
 31
        0.000000
  0
LINE
  8
LVL0000
 62
  3
 10
        6.250000
 20
      -50.775000
 30
        0.000000
 11
       -0.550000
 21
      -50.775000
 31
        0.000000
  0
LINE
  8
LVL0000
 62
  3
 10
        2.150000
 20
      -50.500000
 30
        0.000000
 11
       -0.550000
 21
      -50.775000
 31
        0.000000
  0
LINE
  8
LVL0000
 62
  3
 10
        5.450000
 20
      -50.500000
 30
        0.000000
 11
        6.250000
 21
      -50.775000
 31
        0.000000
  0
LINE
  8
LVL0000
 62
  3
 10
        5.450000
 20
      -45.420000
 30
        0.000000
 11
        6.250000
 21
      -45.695000
 31
        0.000000
  0
LINE
  8
LVL0000
 62
  3
 10
        2.150000
 20
      -45.420000
 30
        0.000000
 11
       -0.550000
 21
      -45.695000
 31
        0.000000
  0
LINE
  8
LVL0000
 62
  3
 10
        6.250000
 20
      -45.695000
 30
        0.000000
 11
       -0.550000
 21
      -45.695000
 31
        0.000000
  0
LINE
  8
LVL0000
 62
  3
 10
        6.250000
 20
      -40.615000
 30
        0.000000
 11
       -0.550000
 21
      -40.615000
 31
        0.000000
  0
LINE
  8
LVL0000
 62
  3
 10
        2.150000
 20
      -40.340000
 30
        0.000000
 11
       -0.550000
 21
      -40.615000
 31
        0.000000
  0
LINE
  8
LVL0000
 62
  3
 10
        5.450000
 20
      -40.340000
 30
        0.000000
 11
        6.250000
 21
      -40.615000
 31
        0.000000
  0
LINE
  8
LVL0000
 62
  3
 10
        6.250000
 20
      -57.385000
 30
        0.000000
 11
       -0.550000
 21
      -57.385000
 31
        0.000000
  0
LINE
  8
LVL0000
 62
  3
 10
        2.150000
 20
      -57.660000
 30
        0.000000
 11
       -0.550000
 21
      -57.385000
 31
        0.000000
  0
LINE
  8
LVL0000
 62
  3
 10
        5.450000
 20
      -57.660000
 30
        0.000000
 11
        6.250000
 21
      -57.385000
 31
        0.000000
  0
LINE
  8
LVL0000
 62
  3
 10
       -0.550000
 20
      -60.935000
 30
        0.000000
 11
       -0.550000
 21
      -57.385000
 31
        0.000000
  0
LINE
  8
LVL0000
 62
  3
 10
        6.250000
 20
      -60.935000
 30
        0.000000
 11
        6.250000
 21
      -57.385000
 31
        0.000000
  0
LINE
  8
LVL0000
 62
  3
 10
        5.450000
 20
      -52.580000
 30
        0.000000
 11
        6.250000
 21
      -52.305000
 31
        0.000000
  0
LINE
  8
LVL0000
 62
  3
 10
        2.150000
 20
      -52.580000
 30
        0.000000
 11
       -0.550000
 21
      -52.305000
 31
        0.000000
  0
LINE
  8
LVL0000
 62
  3
 10
        6.250000
 20
      -52.305000
 30
        0.000000
 11
       -0.550000
 21
      -52.305000
 31
        0.000000
  0
LINE
  8
LVL0000
 62
  3
 10
        6.250000
 20
      -55.855000
 30
        0.000000
 11
        6.250000
 21
      -52.305000
 31
        0.000000
  0
LINE
  8
LVL0000
 62
  3
 10
       -0.550000
 20
      -55.855000
 30
        0.000000
 11
       -0.550000
 21
      -52.305000
 31
        0.000000
  0
LINE
  8
LVL0000
 62
  3
 10
        6.250000
 20
      -47.225000
 30
        0.000000
 11
       -0.550000
 21
      -47.225000
 31
        0.000000
  0
LINE
  8
LVL0000
 62
  3
 10
        2.150000
 20
      -47.500000
 30
        0.000000
 11
       -0.550000
 21
      -47.225000
 31
        0.000000
  0
LINE
  8
LVL0000
 62
  3
 10
        5.450000
 20
      -47.500000
 30
        0.000000
 11
        6.250000
 21
      -47.225000
 31
        0.000000
  0
LINE
  8
LVL0000
 62
  3
 10
       -0.550000
 20
      -50.775000
 30
        0.000000
 11
       -0.550000
 21
      -47.225000
 31
        0.000000
  0
LINE
  8
LVL0000
 62
  3
 10
        6.250000
 20
      -50.775000
 30
        0.000000
 11
        6.250000
 21
      -47.225000
 31
        0.000000
  0
LINE
  8
LVL0000
 62
  3
 10
        5.450000
 20
      -42.420000
 30
        0.000000
 11
        6.250000
 21
      -42.145000
 31
        0.000000
  0
LINE
  8
LVL0000
 62
  3
 10
        2.150000
 20
      -42.420000
 30
        0.000000
 11
       -0.550000
 21
      -42.145000
 31
        0.000000
  0
LINE
  8
LVL0000
 62
  3
 10
        6.250000
 20
      -42.145000
 30
        0.000000
 11
       -0.550000
 21
      -42.145000
 31
        0.000000
  0
LINE
  8
LVL0000
 62
  3
 10
        6.250000
 20
      -45.695000
 30
        0.000000
 11
        6.250000
 21
      -42.145000
 31
        0.000000
  0
LINE
  8
LVL0000
 62
  3
 10
       -0.550000
 20
      -45.695000
 30
        0.000000
 11
       -0.550000
 21
      -42.145000
 31
        0.000000
  0
LINE
  8
LVL0000
 62
  3
 10
        2.150000
 20
      -37.340000
 30
        0.000000
 11
       -0.550000
 21
      -37.065000
 31
        0.000000
  0
LINE
  8
LVL0000
 62
  3
 10
        5.450000
 20
      -37.340000
 30
        0.000000
 11
        6.250000
 21
      -37.065000
 31
        0.000000
  0
LINE
  8
LVL0000
 62
  3
 10
       -0.550000
 20
      -40.615000
 30
        0.000000
 11
       -0.550000
 21
      -37.065000
 31
        0.000000
  0
LINE
  8
LVL0000
 62
  3
 10
        6.250000
 20
      -40.615000
 30
        0.000000
 11
        6.250000
 21
      -37.065000
 31
        0.000000
  0
LINE
  8
LVL0000
 62
  3
 10
        6.250000
 20
      -37.065000
 30
        0.000000
 11
       -0.550000
 21
      -37.065000
 31
        0.000000
  0
LINE
  8
LVL0000
 62
  3
 10
        8.250000
 20
      -36.800000
 30
        0.000000
 11
       -5.750000
 21
      -36.800000
 31
        0.000000
  0
LINE
  8
LVL0000
 62
  3
 10
        8.250000
 20
      -61.200000
 30
        0.000000
 11
       -5.750000
 21
      -61.200000
 31
        0.000000
  0
LINE
  8
LVL0000
 62
  3
 10
       -1.150000
 20
      -61.200000
 30
        0.000000
 11
       -1.150000
 21
      -36.800000
 31
        0.000000
  0
LINE
  8
LVL0000
 62
  3
 10
        2.500000
 20
      -64.640000
 30
        0.000000
 11
        6.358533
 21
      -64.640000
 31
        0.000000
  0
LINE
  8
LVL0000
 62
  3
 10
        2.500000
 20
      -63.840000
 30
        0.000000
 11
        6.358533
 21
      -63.840000
 31
        0.000000
  0
LINE
  8
LVL0000
 62
  3
 10
        2.500000
 20
      -33.360000
 30
        0.000000
 11
        6.358533
 21
      -33.360000
 31
        0.000000
  0
LINE
  8
LVL0000
 62
  3
 10
        2.500000
 20
      -34.160000
 30
        0.000000
 11
        6.358533
 21
      -34.160000
 31
        0.000000
  0
LINE
  8
LVL0000
 62
  3
 10
       -6.750000
 20
      -61.700000
 30
        0.000000
 11
       -6.750000
 21
      -36.300000
 31
        0.000000
  0
LINE
  8
LVL0000
 62
  3
 10
        8.250000
 20
      -61.700000
 30
        0.000000
 11
        8.250000
 21
      -36.300000
 31
        0.000000
  0
CIRCLE
  8
LVL0000
 62
  3
 10
        4.450000
 20
      -64.240000
 30
        0.000000
 40
        1.950000
  0
CIRCLE
  8
LVL0000
 62
  3
 10
        4.450000
 20
      -33.760000
 30
        0.000000
 40
        1.950000
  0
DIMENSION
  8
LVL0000
 62
  5
  2
BLK0003
 10
       28.563679
 20
     -125.000000
 11
       27.630344
 21
       -3.541366
 13
       16.250000
 23
     -125.000000
 14
       16.250000
 24
      125.000244
 50
       90.0
 70
  0
  0
DIMENSION
  8
LVL0000
 62
  5
  2
BLK0004
 10
       28.563679
 20
     -125.000000
 11
       27.630344
 21
       -3.541366
 13
       16.250000
 23
     -125.000000
 14
       16.250000
 24
      125.000244
 50
       90.0
 70
  0
  0
CIRCLE
  8
LVL0000
 62
  3
 10
        2.849878
 20
       40.000244
 30
        0.000000
 40
        5.000000
  0
LINE
  8
LVL0000
 62
  3
 10
        3.349878
 20
       40.999756
 30
        0.000000
 11
        3.349878
 21
       40.499756
 31
        0.000000
  0
LINE
  8
LVL0000
 62
  3
 10
        1.349878
 20
       40.499756
 30
        0.000000
 11
        1.349878
 21
       39.499756
 31
        0.000000
  0
LINE
  8
LVL0000
 62
  3
 10
        3.349878
 20
       40.499756
 30
        0.000000
 11
        1.349878
 21
       40.499756
 31
        0.000000
  0
CIRCLE
  8
LVL0000
 62
  3
 10
        2.849878
 20
       23.000244
 30
        0.000000
 40
        2.000000
  0
LINE
  8
LVL0000
 62
  3
 10
        3.349878
 20
       22.499756
 30
        0.000000
 11
        1.349878
 21
       22.499756
 31
        0.000000
  0
LINE
  8
LVL0000
 62
  3
 10
        1.349878
 20
       23.499756
 30
        0.000000
 11
        1.349878
 21
       22.499756
 31
        0.000000
  0
LINE
  8
LVL0000
 62
  3
 10
        3.349878
 20
       23.999756
 30
        0.000000
 11
        3.349878
 21
       23.499756
 31
        0.000000
  0
LINE
  8
LVL0000
 62
  3
 10
        4.349878
 20
       22.999756
 30
        0.000000
 11
        3.349878
 21
       21.999756
 31
        0.000000
  0
CIRCLE
  8
LVL0000
 62
  3
 10
        2.849878
 20
       23.000244
 30
        0.000000
 40
        5.000000
  0
LINE
  8
LVL0000
 62
  3
 10
        3.349878
 20
       23.499756
 30
        0.000000
 11
        1.349878
 21
       23.499756
 31
        0.000000
  0
LINE
  8
LVL0000
 62
  3
 10
        4.349878
 20
       22.999756
 30
        0.000000
 11
        3.349878
 21
       23.999756
 31
        0.000000
  0
LINE
  8
LVL0000
 62
  3
 10
        3.349878
 20
       22.499756
 30
        0.000000
 11
        3.349878
 21
       21.999756
 31
        0.000000
  0
LINE
  8
LVL0000
 62
  3
 10
        3.349878
 20
       39.499756
 30
        0.000000
 11
        3.349878
 21
       38.999756
 31
        0.000000
  0
LINE
  8
LVL0000
 62
  3
 10
        4.349878
 20
       39.999756
 30
        0.000000
 11
        3.349878
 21
       38.999756
 31
        0.000000
  0
LINE
  8
LVL0000
 62
  3
 10
        4.349878
 20
       39.999756
 30
        0.000000
 11
        3.349878
 21
       40.999756
 31
        0.000000
  0
LINE
  8
LVL0000
 62
  3
 10
        3.349878
 20
       39.499756
 30
        0.000000
 11
        1.349878
 21
       39.499756
 31
        0.000000
  0
CIRCLE
  8
LVL0000
 62
  3
 10
        2.849878
 20
       40.000244
 30
        0.000000
 40
        2.000000
  0
CIRCLE
  8
LVL0000
 62
  3
 10
        4.249878
 20
        9.000000
 30
        0.000000
 40
        1.750000
  0
CIRCLE
  8
LVL0000
 62
  3
 10
        4.249878
 20
        9.000000
 30
        0.000000
 40
        1.650000
  0
CIRCLE
  8
LVL0000
 62
  3
 10
        4.249878
 20
        9.000000
 30
        0.000000
 40
        2.250000
  0
LINE
  8
LVL0000
 62
  3
 10
        7.300000
 20
       -4.750000
 30
        0.000000
 11
        7.300000
 21
       -1.250000
 31
        0.000000
  0
LINE
  8
LVL0000
 62
  3
 10
        5.750000
 20
       -2.750000
 30
        0.000000
 11
        7.250000
 21
       -2.750000
 31
        0.000000
  0
LINE
  8
LVL0000
 62
  3
 10
        7.750000
 20
        0.500000
 30
        0.000000
 11
        7.750000
 21
       -6.500000
 31
        0.000000
  0
LINE
  8
LVL0000
 62
  3
 10
        5.250000
 20
       -6.500000
 30
        0.000000
 11
        7.750000
 21
       -6.500000
 31
        0.000000
  0
LINE
  8
LVL0000
 62
  3
 10
        5.250000
 20
       -3.000000
 30
        0.000000
 11
        5.250000
 21
       -6.500000
 31
        0.000000
  0
LINE
  8
LVL0000
 62
  3
 10
        5.700000
 20
       -4.750000
 30
        0.000000
 11
        5.700000
 21
       -1.250000
 31
        0.000000
  0
LINE
  8
LVL0000
 62
  3
 10
        5.750000
 20
       -2.750000
 30
        0.000000
 11
        5.750000
 21
       -1.250000
 31
        0.000000
  0
LINE
  8
LVL0000
 62
  3
 10
        5.250000
 20
       -3.000000
 30
        0.000000
 11
        5.250000
 21
        0.500000
 31
        0.000000
  0
LINE
  8
LVL0000
 62
  3
 10
        5.250000
 20
        0.500000
 30
        0.000000
 11
        7.750000
 21
        0.500000
 31
        0.000000
  0
LINE
  8
LVL0000
 62
  3
 10
        7.250000
 20
       -2.750000
 30
        0.000000
 11
        7.250000
 21
       -1.250000
 31
        0.000000
  0
LINE
  8
LVL0000
 62
  3
 10
       -8.250000
 20
      -25.000000
 30
        0.000000
 11
       11.750000
 21
      -25.000000
 31
        0.000000
  0
LINE
  8
LVL0000
 62
  3
 10
       11.750000
 20
       75.000244
 30
        0.000000
 11
       11.750000
 21
      -25.000000
 31
        0.000000
  0
LINE
  8
LVL0000
 62
  3
 10
       -8.250000
 20
       75.000244
 30
        0.000000
 11
       -8.250000
 21
      -25.000000
 31
        0.000000
  0
LINE
  8
LVL0000
 62
  3
 10
       -8.250000
 20
       65.000244
 30
        0.000000
 11
       11.750000
 21
       65.000244
 31
        0.000000
  0
LINE
  8
LVL0000
 62
  3
 10
       -8.250000
 20
      -15.000000
 30
        0.000000
 11
       11.750000
 21
      -15.000000
 31
        0.000000
  0
CIRCLE
  8
LVL0000
 62
  3
 10
        2.849878
 20
       52.000244
 30
        0.000000
 40
        5.000000
  0
LINE
  8
LVL0000
 62
  3
 10
        4.349878
 20
       51.999756
 30
        0.000000
 11
        3.349878
 21
       52.999756
 31
        0.000000
  0
LINE
  8
LVL0000
 62
  3
 10
        3.349878
 20
       52.999756
 30
        0.000000
 11
        3.349878
 21
       52.499756
 31
        0.000000
  0
LINE
  8
LVL0000
 62
  3
 10
        3.349878
 20
       52.499756
 30
        0.000000
 11
        1.349878
 21
       52.499756
 31
        0.000000
  0
LINE
  8
LVL0000
 62
  3
 10
       15.500000
 20
      -25.500000
 30
        0.000000
 11
       15.500000
 21
      -75.000000
 31
        0.000000
  0
LINE
  8
LVL0000
 62
  3
 10
       11.750000
 20
      -25.000000
 30
        0.000000
 11
       15.000000
 21
      -25.000000
 31
        0.000000
  0
LINE
  8
LVL0000
 62
  3
 10
      -15.000000
 20
      -25.000000
 30
        0.000000
 11
       -8.250000
 21
      -25.000000
 31
        0.000000
  0
LINE
  8
LVL0000
 62
  3
 10
      -15.500000
 20
      -25.500000
 30
        0.000000
 11
      -15.500000
 21
      -75.000000
 31
        0.000000
  0
ARC
  8
LVL0000
 62
  3
 10
      -15.000000
 20
      -25.500000
 30
        0.000000
 40
        0.500000
 50
       90.000000
 51
      179.999995
  0
CIRCLE
  8
LVL0000
 62
  3
 10
        1.750031
 20
      111.700463
 30
        0.000000
 40
        1.750000
  0
CIRCLE
  8
LVL0000
 62
  3
 10
        1.750031
 20
       89.700463
 30
        0.000000
 40
        1.750000
  0
CIRCLE
  8
LVL0000
 62
  3
 10
       -4.249969
 20
       80.900463
 30
        0.000000
 40
        1.750000
  0
CIRCLE
  8
LVL0000
 62
  3
 10
       -4.249969
 20
       85.300463
 30
        0.000000
 40
        1.750000
  0
CIRCLE
  8
LVL0000
 62
  3
 10
       -4.249969
 20
       89.700463
 30
        0.000000
 40
        1.750000
  0
CIRCLE
  8
LVL0000
 62
  3
 10
       -4.249969
 20
       98.500463
 30
        0.000000
 40
        1.750000
  0
CIRCLE
  8
LVL0000
 62
  3
 10
       -4.249969
 20
      111.700463
 30
        0.000000
 40
        1.750000
  0
LINE
  8
LVL0000
 62
  3
 10
       15.100040
 20
      121.300451
 30
        0.000000
 11
      -15.099979
 21
      121.300451
 31
        0.000000
  0
LINE
  8
LVL0000
 62
  3
 10
       15.100040
 20
      114.400442
 30
        0.000000
 11
       15.100040
 21
      121.300451
 31
        0.000000
  0
LINE
  8
LVL0000
 62
  3
 10
      -15.099979
 20
      114.400442
 30
        0.000000
 11
      -15.099979
 21
      121.300451
 31
        0.000000
  0
LINE
  8
LVL0000
 62
  3
 10
        8.750000
 20
      -66.780000
 30
        0.000000
 11
        8.750000
 21
      -31.220000
 31
        0.000000
  0
ARC
  8
LVL0000
 62
  3
 10
       -0.050000
 20
      -66.780000
 30
        0.000000
 40
        0.500000
 50
      179.999995
 51
      270.000000
  0
ARC
  8
LVL0000
 62
  3
 10
       -0.050000
 20
      -31.220000
 30
        0.000000
 40
        0.500000
 50
       90.000000
 51
      179.999995
  0
ARC
  8
LVL0000
 62
  3
 10
        8.250000
 20
      -31.220000
 30
        0.000000
 40
        0.500000
 50
        0.000000
 51
       90.000000
  0
LINE
  8
LVL0000
 62
  3
 10
        8.250000
 20
      -30.720000
 30
        0.000000
 11
       -0.050000
 21
      -30.720000
 31
        0.000000
  0
LINE
  8
LVL0000
 62
  3
 10
        8.250000
 20
      -67.280000
 30
        0.000000
 11
       -0.050000
 21
      -67.280000
 31
        0.000000
  0
ARC
  8
LVL0000
 62
  3
 10
        8.250000
 20
      -66.780000
 30
        0.000000
 40
        0.500000
 50
      270.000000
 51
      360.000000
  0
LINE
  8
LVL0000
 62
  3
 10
       15.100040
 20
      114.400442
 30
        0.000000
 11
      -15.099979
 21
      114.400442
 31
        0.000000
  0
CIRCLE
  8
LVL0000
 62
  3
 10
       -4.249969
 20
      107.300463
 30
        0.000000
 40
        1.750000
  0
CIRCLE
  8
LVL0000
 62
  3
 10
       -4.249969
 20
      102.900463
 30
        0.000000
 40
        1.750000
  0
CIRCLE
  8
LVL0000
 62
  3
 10
       -4.249969
 20
       94.100463
 30
        0.000000
 40
        1.750000
  0
CIRCLE
  8
LVL0000
 62
  3
 10
        1.750031
 20
       80.900463
 30
        0.000000
 40
        1.750000
  0
CIRCLE
  8
LVL0000
 62
  3
 10
        1.750031
 20
       85.300463
 30
        0.000000
 40
        1.750000
  0
CIRCLE
  8
LVL0000
 62
  3
 10
        1.750031
 20
       94.100463
 30
        0.000000
 40
        1.750000
  0
CIRCLE
  8
LVL0000
 62
  3
 10
        1.750031
 20
      102.900463
 30
        0.000000
 40
        1.750000
  0
ARC
  8
LVL0000
 62
  3
 10
       15.000000
 20
      -25.500000
 30
        0.000000
 40
        0.500000
 50
        0.000000
 51
       90.000000
  0
LINE
  8
LVL0000
 62
  3
 10
       -0.550000
 20
      -66.780000
 30
        0.000000
 11
       -0.550000
 21
      -61.700000
 31
        0.000000
  0
LINE
  8
LVL0000
 62
  3
 10
       -0.550000
 20
      -36.300000
 30
        0.000000
 11
       -0.550000
 21
      -31.220000
 31
        0.000000
  0
CIRCLE
  8
LVL0000
 62
  3
 10
        2.849878
 20
       52.000244
 30
        0.000000
 40
        2.000000
  0
LINE
  8
LVL0000
 62
  3
 10
        3.349878
 20
       51.499756
 30
        0.000000
 11
        1.349878
 21
       51.499756
 31
        0.000000
  0
LINE
  8
LVL0000
 62
  3
 10
        1.349878
 20
       52.499756
 30
        0.000000
 11
        1.349878
 21
       51.499756
 31
        0.000000
  0
LINE
  8
LVL0000
 62
  3
 10
        4.349878
 20
       51.999756
 30
        0.000000
 11
        3.349878
 21
       50.999756
 31
        0.000000
  0
LINE
  8
LVL0000
 62
  3
 10
        3.349878
 20
       51.499756
 30
        0.000000
 11
        3.349878
 21
       50.999756
 31
        0.000000
  0
LINE
  8
LVL0000
 62
  3
 10
      -16.147461
 20
      -75.000000
 30
        0.000000
 11
       16.147461
 21
      -75.000000
 31
        0.000000
  0
LINE
  8
LVL0000
 62
  3
 10
      -16.147461
 20
       75.000244
 30
        0.000000
 11
       16.147461
 21
       75.000244
 31
        0.000000
  0
LINE
  8
LVL0000
  6
CENTER
 62
  3
 10
      -19.233049
 20
        0.000000
 30
        0.000000
 11
       20.799352
 21
        0.000000
 31
        0.000000
  0
LINE
  8
LVL0000
  6
CENTER
 62
  3
 10
        0.000000
 20
      135.705527
 30
        0.000000
 11
        0.000000
 21
     -135.069355
 31
        0.000000
  0
LINE
  8
LVL0000
 62
  3
 10
      172.499956
 20
      165.500244
 30
        0.000000
 11
      164.999956
 21
      165.500244
 31
        0.000000
  0
ARC
  8
LVL0000
 62
  3
 10
       75.500000
 20
      123.985107
 30
        0.000000
 40
        0.499955
 50
       91.007289
 51
      180.000010
  0
LINE
  8
LVL0000
 62
  3
 10
      105.000000
 20
     -125.000000
 30
        0.000000
 11
       70.000000
 21
     -124.388916
 31
        0.000000
  0
LINE
  8
LVL0000
 62
  3
 10
       70.000000
 20
       69.500000
 30
        0.000000
 11
       70.000000
 21
     -124.388916
 31
        0.000000
  0
LINE
  8
LVL0000
 62
  3
 10
       70.000000
 20
       75.000000
 30
        0.000000
 11
       75.000000
 21
       75.000000
 31
        0.000000
  0
LINE
  8
LVL0000
 62
  3
 10
       75.000000
 20
       75.000000
 30
        0.000000
 11
       75.000000
 21
      123.985107
 31
        0.000000
  0
LINE
  8
LVL0000
 62
  3
 10
      172.499956
 20
     -123.500000
 30
        0.000000
 11
      172.499956
 21
     -125.000000
 31
        0.000000
  0
LINE
  8
LVL0000
 62
  3
 10
      162.000200
 20
     -123.500000
 30
        0.000000
 11
      162.000200
 21
     -125.000000
 31
        0.000000
  0
LINE
  8
LVL0000
 62
  3
 10
      172.499956
 20
       -5.500000
 30
        0.000000
 11
      174.999956
 21
       -5.500000
 31
        0.000000
  0
LINE
  8
LVL0000
 62
  3
 10
      172.499956
 20
      125.000244
 30
        0.000000
 11
      165.000200
 21
      125.000244
 31
        0.000000
  0
LINE
  8
LVL0000
 62
  3
 10
      172.499956
 20
       81.500244
 30
        0.000000
 11
      172.499956
 21
       -5.500000
 31
        0.000000
  0
LINE
  8
LVL0000
 62
  3
 10
      174.999956
 20
      123.500244
 30
        0.000000
 11
      162.000200
 21
      123.500244
 31
        0.000000
  0
LINE
  8
LVL0000
 62
  3
 10
      172.499956
 20
      125.000244
 30
        0.000000
 11
      172.499956
 21
      123.500244
 31
        0.000000
  0
LINE
  8
LVL0000
 62
  3
 10
      162.000200
 20
      123.500244
 30
        0.000000
 11
      162.000200
 21
      125.000244
 31
        0.000000
  0
LINE
  8
LVL0000
 62
  3
 10
      114.499268
 20
       12.500000
 30
        0.000000
 11
      164.499268
 21
       12.500000
 31
        0.000000
  0
LINE
  8
LVL0000
 62
  3
 10
      105.000000
 20
      125.000244
 30
        0.000000
 11
      105.000000
 21
     -125.000000
 31
        0.000000
  0
LINE
  8
LVL0000
 62
  3
 10
      111.000000
 20
      -56.500000
 30
        0.000000
 11
      108.000000
 21
      -56.500000
 31
        0.000000
  0
LINE
  8
LVL0000
 62
  3
 10
      111.000000
 20
       56.500244
 30
        0.000000
 11
      108.000000
 21
       56.500244
 31
        0.000000
  0
LINE
  8
LVL0000
 62
  3
 10
      108.000000
 20
       56.500244
 30
        0.000000
 11
      108.000000
 21
       43.500244
 31
        0.000000
  0
LINE
  8
LVL0000
 62
  3
 10
      111.000000
 20
       56.500244
 30
        0.000000
 11
      111.000000
 21
       43.500244
 31
        0.000000
  0
LINE
  8
LVL0000
 62
  3
 10
      104.999956
 20
      145.000244
 30
        0.000000
 11
       69.999956
 21
      145.611171
 31
        0.000000
  0
LINE
  8
LVL0000
 62
  3
 10
      104.999956
 20
      178.500244
 30
        0.000000
 11
       69.999956
 21
      177.889317
 31
        0.000000
  0
LINE
  8
LVL0000
 62
  3
 10
      146.999956
 20
      145.000244
 30
        0.000000
 11
      146.999956
 21
      178.500244
 31
        0.000000
  0
LINE
  8
LVL0000
 62
  3
 10
      158.999956
 20
      145.000244
 30
        0.000000
 11
      158.999956
 21
      178.500244
 31
        0.000000
  0
LINE
  8
LVL0000
 62
  3
 10
      172.499956
 20
      158.000244
 30
        0.000000
 11
      172.499956
 21
      165.500244
 31
        0.000000
  0
LINE
  8
LVL0000
 62
  3
 10
      164.999956
 20
      145.000244
 30
        0.000000
 11
      164.999956
 21
      178.500244
 31
        0.000000
  0
LINE
  8
LVL0000
 62
  3
 10
      174.999956
 20
      178.500244
 30
        0.000000
 11
      104.999956
 21
      178.500244
 31
        0.000000
  0
LINE
  8
LVL0000
 62
  3
 10
      174.999956
 20
      145.000244
 30
        0.000000
 11
      104.999956
 21
      145.000244
 31
        0.000000
  0
LINE
  8
LVL0000
 62
  3
 10
      172.499956
 20
      158.000244
 30
        0.000000
 11
      164.999956
 21
      158.000244
 31
        0.000000
  0
LINE
  8
LVL0000
 62
  3
 10
      161.999956
 20
      145.000244
 30
        0.000000
 11
      161.999956
 21
      178.500244
 31
        0.000000
  0
LINE
  8
LVL0000
 62
  3
 10
      155.999956
 20
      145.000244
 30
        0.000000
 11
      155.999956
 21
      178.500244
 31
        0.000000
  0
LINE
  8
LVL0000
 62
  3
 10
      152.999956
 20
      145.000244
 30
        0.000000
 11
      152.999956
 21
      178.500244
 31
        0.000000
  0
LINE
  8
LVL0000
 62
  3
 10
      149.999956
 20
      145.000244
 30
        0.000000
 11
      149.999956
 21
      178.500244
 31
        0.000000
  0
LINE
  8
LVL0000
 62
  3
 10
      143.999956
 20
      145.000244
 30
        0.000000
 11
      143.999956
 21
      178.500244
 31
        0.000000
  0
LINE
  8
LVL0000
 62
  3
 10
      140.999956
 20
      145.000244
 30
        0.000000
 11
      140.999956
 21
      178.500244
 31
        0.000000
  0
LINE
  8
LVL0000
 62
  3
 10
      137.999956
 20
      145.000244
 30
        0.000000
 11
      137.999956
 21
      178.500244
 31
        0.000000
  0
LINE
  8
LVL0000
 62
  3
 10
      134.999956
 20
      145.000244
 30
        0.000000
 11
      134.999956
 21
      178.500244
 31
        0.000000
  0
LINE
  8
LVL0000
 62
  3
 10
      131.999956
 20
      145.000244
 30
        0.000000
 11
      131.999956
 21
      178.500244
 31
        0.000000
  0
LINE
  8
LVL0000
 62
  3
 10
      128.999956
 20
      145.000244
 30
        0.000000
 11
      128.999956
 21
      178.500244
 31
        0.000000
  0
LINE
  8
LVL0000
 62
  3
 10
      125.999956
 20
      145.000244
 30
        0.000000
 11
      125.999956
 21
      178.500244
 31
        0.000000
  0
LINE
  8
LVL0000
 62
  3
 10
      122.999956
 20
      145.000244
 30
        0.000000
 11
      122.999956
 21
      178.500244
 31
        0.000000
  0
LINE
  8
LVL0000
 62
  3
 10
      119.999956
 20
      145.000244
 30
        0.000000
 11
      119.999956
 21
      178.500244
 31
        0.000000
  0
LINE
  8
LVL0000
 62
  3
 10
      116.999956
 20
      145.000244
 30
        0.000000
 11
      116.999956
 21
      178.500244
 31
        0.000000
  0
LINE
  8
LVL0000
 62
  3
 10
      113.999712
 20
      145.000244
 30
        0.000000
 11
      113.999712
 21
      178.500244
 31
        0.000000
  0
LINE
  8
LVL0000
 62
  3
 10
      110.999712
 20
      145.000244
 30
        0.000000
 11
      110.999712
 21
      178.500244
 31
        0.000000
  0
LINE
  8
LVL0000
 62
  3
 10
      107.999712
 20
      145.000244
 30
        0.000000
 11
      107.999712
 21
      178.500244
 31
        0.000000
  0
LINE
  8
LVL0000
 62
  3
 10
       75.000001
 20
      145.523895
 30
        0.000000
 11
       75.000001
 21
      177.976593
 31
        0.000000
  0
LINE
  8
LVL0000
 62
  3
 10
       69.999956
 20
      145.611171
 30
        0.000000
 11
       69.999956
 21
      177.889317
 31
        0.000000
  0
LINE
  8
LVL0000
 62
  3
 10
      174.999956
 20
      145.000244
 30
        0.000000
 11
      174.999956
 21
      178.500244
 31
        0.000000
  0
LINE
  8
LVL0000
 62
  3
 10
      104.999956
 20
      145.000244
 30
        0.000000
 11
      104.999956
 21
      178.500244
 31
        0.000000
  0
LINE
  8
LVL0000
 62
  3
 10
      111.000000
 20
       43.500244
 30
        0.000000
 11
      108.000000
 21
       43.500244
 31
        0.000000
  0
LINE
  8
LVL0000
 62
  3
 10
      111.000000
 20
      -43.500000
 30
        0.000000
 11
      108.000000
 21
      -43.500000
 31
        0.000000
  0
LINE
  8
LVL0000
 62
  3
 10
      108.000000
 20
      -43.500000
 30
        0.000000
 11
      108.000000
 21
      -56.500000
 31
        0.000000
  0
LINE
  8
LVL0000
 62
  3
 10
      111.000000
 20
      -43.500000
 30
        0.000000
 11
      111.000000
 21
      -56.500000
 31
        0.000000
  0
LINE
  8
LVL0000
 62
  3
 10
      164.499268
 20
       12.500000
 30
        0.000000
 11
      164.499268
 21
      -12.500000
 31
        0.000000
  0
LINE
  8
LVL0000
 62
  3
 10
      164.499268
 20
      -12.500000
 30
        0.000000
 11
      114.499268
 21
      -12.500000
 31
        0.000000
  0
LINE
  8
LVL0000
 62
  3
 10
      114.499268
 20
      -12.500000
 30
        0.000000
 11
      114.499268
 21
       12.500000
 31
        0.000000
  0
LINE
  8
LVL0000
 62
  3
 10
      165.000200
 20
      125.000244
 30
        0.000000
 11
      165.000200
 21
      123.500244
 31
        0.000000
  0
LINE
  8
LVL0000
 62
  3
 10
      174.999956
 20
       81.500244
 30
        0.000000
 11
      172.499956
 21
       81.500244
 31
        0.000000
  0
LINE
  8
LVL0000
 62
  3
 10
      174.999956
 20
      123.500244
 30
        0.000000
 11
      174.999956
 21
       81.500244
 31
        0.000000
  0
LINE
  8
LVL0000
 62
  3
 10
      162.000200
 20
      125.000244
 30
        0.000000
 11
      105.000000
 21
      125.000244
 31
        0.000000
  0
LINE
  8
LVL0000
 62
  3
 10
      174.999956
 20
       -5.500000
 30
        0.000000
 11
      174.999956
 21
     -123.500000
 31
        0.000000
  0
LINE
  8
LVL0000
 62
  3
 10
      172.499956
 20
     -125.000000
 30
        0.000000
 11
      165.000200
 21
     -125.000000
 31
        0.000000
  0
LINE
  8
LVL0000
 62
  3
 10
      165.000200
 20
     -123.500000
 30
        0.000000
 11
      165.000200
 21
     -125.000000
 31
        0.000000
  0
LINE
  8
LVL0000
 62
  3
 10
      174.999956
 20
     -123.500000
 30
        0.000000
 11
      162.000200
 21
     -123.500000
 31
        0.000000
  0
LINE
  8
LVL0000
 62
  3
 10
      162.000200
 20
     -125.000000
 30
        0.000000
 11
      105.000000
 21
     -125.000000
 31
        0.000000
  0
LINE
  8
LVL0000
 62
  3
 10
       70.000000
 20
      124.399963
 30
        0.000000
 11
       75.000000
 21
      124.399963
 31
        0.000000
  0
LINE
  8
LVL0000
 62
  3
 10
       70.000000
 20
       75.000000
 30
        0.000000
 11
       70.000000
 21
      124.399963
 31
        0.000000
  0
LINE
  8
LVL0000
 62
  3
 10
       72.000000
 20
       75.000000
 30
        0.000000
 11
       72.000000
 21
       70.000000
 31
        0.000000
  0
LINE
  8
LVL0000
 62
  3
 10
       70.500000
 20
       70.000000
 30
        0.000000
 11
       72.000000
 21
       70.000000
 31
        0.000000
  0
ARC
  8
LVL0000
 62
  3
 10
       70.500000
 20
       69.500000
 30
        0.000000
 40
        0.500000
 50
       90.000000
 51
      180.000010
  0
LINE
  8
LVL0000
 62
  3
 10
      105.000000
 20
      125.000000
 30
        0.000000
 11
       75.491699
 21
      124.485107
 31
        0.000000
  0
DIMENSION
  8
LVL0000
 62
  5
  2
BLK0005
 10
      174.999954
 20
     -139.301285
 11
      112.480209
 21
     -138.367950
 13
      174.999954
 23
     -123.500000
 14
       70.000000
 24
     -124.388916
 50
        0.0
 70
  0
  0
ENDSEC
  0
EOF
