  0
SECTION
  2
HEADER
  9
$ACADVER
  1
AC1006
  9
$INSBASE
 10
0.0
 20
0.0
 30
0.0
  9
$EXTMIN
 10
      -65.000000
 20
      -65.000000
  9
$EXTMAX
 10
      482.899994
 20
      287.928711
  9
$LIMMIN
 10
      -65.000000
 20
      -65.000000
  9
$LIMMAX
 10
      482.899994
 20
      287.928711
  9
$VIEWCTR
 10
      208.949997
 20
      208.949997
  9
$ORTHOMODE
 70
     0
  9
$ANGBASE
 50
0.0
  9
$ANGDIR
 70
     0
  9
$SPLINETYPE
 70
     6
  9
$SPLINESEGS
 70
     8
9
$DIMASZ
 40
        4.000000
9
$DIMEXE
 40
        0.500000
9
$DIMEXO
 40
        1.000000
9
$DIMTXT
 40
        4.000000
9
$DIMGAP
 40
        0.500000
9
$DIMTAD
 70
1
9
$DIMTIH
 70
0
9
$DIMTOH
 70
0
  0
ENDSEC
  0
SECTION
  2
TABLES
  0
TABLE
  2
LTYPE
 70
     5
  0
LTYPE
  2
CONTINUOUS
 70
    64
  3
SOLID LINE
 72
    65
 73
     0
 40
0.0
  0
LTYPE
  2
DASHED
 70
    64
  3
-- -- -- -- -- --
 72
    65
 73
     2
 40
  0.75  
 49
  0.50  
 49
 -0.25  
  0
LTYPE
  2
DOT
 70
    64
  3
....................
 72
    65
 73
     2
 40
  0.25  
 49
  0.02  
 49
 -0.23  
  0
LTYPE
  2
CENTER
 70
    64
  3
-- . -- . -- . -- .
 72
    65
 73
    4
 40
  2.00  
 49
  1.25  
 49
 -0.25  
 49
  0.25  
 49
 -0.25  
  0
LTYPE
  2
PHANTOM
 70
    64
  3
-- .. -- .. -- ..
 72
    65
 73
    6
 40
  2.50  
 49
  1.25  
 49
 -0.25  
 49
  0.25  
 49
 -0.25  
 49
  0.25  
 49
 -0.25  
  0
ENDTAB
  0
TABLE
  2
LAYER
 70
     1
  0
LAYER
  2
LVL0000
 70
    64
 62
     2
  6
CONTINUOUS
  0
ENDTAB
  0
TABLE
  2
STYLE
 70
     2
  0
STYLE
  2
STANDARD
 70
    64
 40
0.0
 41
1.0
 50
0.0
 71
     0
 42
5.0
  3
ROMANS
  4
BIGFONT
  0
STYLE
  2
BIGFONT
 70
    64
 40
0.0
 41
1.0
 50
0.0
 71
     0
 42
5.0
  3
ROMANS
  4
BIGFONT
  0
ENDTAB
  0
TABLE
  2
VIEW
 70
     0
  0
ENDTAB
  0
TABLE
  2
UCS
 70
     0
  0
ENDTAB
  0
TABLE
  2
DWGMGR
 70
     0
  0
ENDTAB
  0
ENDSEC
  0
SECTION
  2
BLOCKS
  0
BLOCK
  8
0
  2
BLK0001
 70
    64
 10
        0.000000
 20
        0.000000
  0
TEXT
  8
LVL0000
 10
      174.469803
 20
      106.414536
 30
        0.000000
 40
        4.000000
  1
４３７
 50
        0.000000
 41
        0.835000
 51
        0.000000
  7
BIGFONT
  0
LINE
  8
LVL0000
 10
      399.500000
 20
      138.000000
 30
        0.000000
 11
      399.500000
 21
      105.414536
 31
        0.000000
  0
LINE
  8
LVL0000
 10
      -37.500000
 20
      138.000000
 30
        0.000000
 11
      -37.500000
 21
      105.414536
 31
        0.000000
  0
LINE
  8
LVL0000
 10
      395.500000
 20
      104.867340
 30
        0.000000
 11
      399.500000
 21
      105.914536
 31
        0.000000
  0
LINE
  8
LVL0000
 10
      399.500000
 20
      105.914536
 30
        0.000000
 11
      395.500000
 21
      106.961731
 31
        0.000000
  0
LINE
  8
LVL0000
 10
      -33.500000
 20
      106.961731
 30
        0.000000
 11
      -37.500000
 21
      105.914536
 31
        0.000000
  0
LINE
  8
LVL0000
 10
      -37.500000
 20
      105.914536
 30
        0.000000
 11
      -33.500000
 21
      104.867340
 31
        0.000000
  0
LINE
  8
LVL0000
 10
      399.500000
 20
      105.914536
 30
        0.000000
 11
      -37.500000
 21
      105.914536
 31
        0.000000
  0
ENDBLK
  0
BLOCK
  8
0
  2
BLK0002
 70
    64
 10
        0.000000
 20
        0.000000
  0
TEXT
  8
LVL0000
 10
      175.697662
 20
      116.783058
 30
        0.000000
 40
        4.000000
  1
４２１
 50
        0.000000
 41
        0.835000
 51
        0.000000
  7
BIGFONT
  0
LINE
  8
LVL0000
 10
      391.500000
 20
      138.000000
 30
        0.000000
 11
      391.500000
 21
      115.783058
 31
        0.000000
  0
LINE
  8
LVL0000
 10
      -29.500000
 20
      138.000000
 30
        0.000000
 11
      -29.500000
 21
      115.783058
 31
        0.000000
  0
LINE
  8
LVL0000
 10
      388.500000
 20
      115.497658
 30
        0.000000
 11
      391.500000
 21
      116.283058
 31
        0.000000
  0
LINE
  8
LVL0000
 10
      391.500000
 20
      116.283058
 30
        0.000000
 11
      388.500000
 21
      117.068459
 31
        0.000000
  0
LINE
  8
LVL0000
 10
      -26.500000
 20
      117.068459
 30
        0.000000
 11
      -29.500000
 21
      116.283058
 31
        0.000000
  0
LINE
  8
LVL0000
 10
      -29.500000
 20
      116.283058
 30
        0.000000
 11
      -26.500000
 21
      115.497658
 31
        0.000000
  0
LINE
  8
LVL0000
 10
      391.500000
 20
      116.283058
 30
        0.000000
 11
      -29.500000
 21
      116.283058
 31
        0.000000
  0
ENDBLK
  0
BLOCK
  8
0
  2
BLK0003
 70
    64
 10
        0.000000
 20
        0.000000
  0
TEXT
  8
LVL0000
 10
      433.796844
 20
      189.476654
 30
        0.000000
 40
        4.000000
  1
１２８
 50
       90.000000
 41
        0.835000
 51
        0.000000
  7
BIGFONT
  0
LINE
  8
LVL0000
 10
      384.500000
 20
      265.000000
 30
        0.000000
 11
      434.796844
 21
      265.000000
 31
        0.000000
  0
LINE
  8
LVL0000
 10
      398.500000
 20
      137.000000
 30
        0.000000
 11
      434.796844
 21
      137.000000
 31
        0.000000
  0
LINE
  8
LVL0000
 10
      435.082245
 20
      262.000000
 30
        0.000000
 11
      434.296844
 21
      265.000000
 31
        0.000000
  0
LINE
  8
LVL0000
 10
      434.296844
 20
      265.000000
 30
        0.000000
 11
      433.511444
 21
      262.000000
 31
        0.000000
  0
LINE
  8
LVL0000
 10
      433.511444
 20
      140.000000
 30
        0.000000
 11
      434.296844
 21
      137.000000
 31
        0.000000
  0
LINE
  8
LVL0000
 10
      434.296844
 20
      137.000000
 30
        0.000000
 11
      435.082245
 21
      140.000000
 31
        0.000000
  0
LINE
  8
LVL0000
 10
      434.296844
 20
      265.000000
 30
        0.000000
 11
      434.296844
 21
      137.000000
 31
        0.000000
  0
ENDBLK
  0
BLOCK
  8
0
  2
BLK0004
 70
    64
 10
        0.000000
 20
        0.000000
  0
TEXT
  8
LVL0000
 10
      424.042236
 20
      190.090576
 30
        0.000000
 40
        4.000000
  1
１１８
 50
       90.000000
 41
        0.835000
 51
        0.000000
  7
BIGFONT
  0
LINE
  8
LVL0000
 10
      392.500000
 20
      257.000000
 30
        0.000000
 11
      425.042236
 21
      257.000000
 31
        0.000000
  0
LINE
  8
LVL0000
 10
      392.500000
 20
      139.000000
 30
        0.000000
 11
      425.042236
 21
      139.000000
 31
        0.000000
  0
LINE
  8
LVL0000
 10
      425.327637
 20
      254.000000
 30
        0.000000
 11
      424.542236
 21
      257.000000
 31
        0.000000
  0
LINE
  8
LVL0000
 10
      424.542236
 20
      257.000000
 30
        0.000000
 11
      423.756836
 21
      254.000000
 31
        0.000000
  0
LINE
  8
LVL0000
 10
      423.756836
 20
      142.000000
 30
        0.000000
 11
      424.542236
 21
      139.000000
 31
        0.000000
  0
LINE
  8
LVL0000
 10
      424.542236
 20
      139.000000
 30
        0.000000
 11
      425.327637
 21
      142.000000
 31
        0.000000
  0
LINE
  8
LVL0000
 10
      424.542236
 20
      257.000000
 30
        0.000000
 11
      424.542236
 21
      139.000000
 31
        0.000000
  0
ENDBLK
  0
BLOCK
  8
0
  2
BLK0005
 70
    64
 10
        0.000000
 20
        0.000000
  0
TEXT
  8
LVL0000
 10
      424.042236
 20
      269.986206
 30
        0.000000
 40
        4.000000
  1
８
 50
       90.000000
 41
        0.835000
 51
        0.000000
  7
BIGFONT
  0
LINE
  8
LVL0000
 10
      384.500000
 20
      265.000000
 30
        0.000000
 11
      425.042236
 21
      265.000000
 31
        0.000000
  0
LINE
  8
LVL0000
 10
      409.771118
 20
      257.000000
 30
        0.000000
 11
      425.042236
 21
      257.000000
 31
        0.000000
  0
LINE
  8
LVL0000
 10
      423.756836
 20
      268.000000
 30
        0.000000
 11
      424.542236
 21
      265.000000
 31
        0.000000
  0
LINE
  8
LVL0000
 10
      424.542236
 20
      265.000000
 30
        0.000000
 11
      425.327637
 21
      268.000000
 31
        0.000000
  0
LINE
  8
LVL0000
 10
      425.327637
 20
      254.000000
 30
        0.000000
 11
      424.542236
 21
      257.000000
 31
        0.000000
  0
LINE
  8
LVL0000
 10
      424.542236
 20
      257.000000
 30
        0.000000
 11
      423.756836
 21
      254.000000
 31
        0.000000
  0
LINE
  8
LVL0000
 10
      424.542236
 20
      273.986206
 30
        0.000000
 11
      424.542236
 21
      251.000000
 31
        0.000000
  0
ENDBLK
  0
BLOCK
  8
0
  2
BLK0006
 70
    64
 10
        0.000000
 20
        0.000000
  0
TEXT
  8
LVL0000
 10
      485.870209
 20
      274.683044
 30
        0.000000
 40
        4.000000
  1
７．６
 50
        0.000000
 41
        0.835000
 51
        0.000000
  7
BIGFONT
  0
LINE
  8
LVL0000
 10
      475.299988
 20
      266.000000
 30
        0.000000
 11
      475.299988
 21
      274.683044
 31
        0.000000
  0
LINE
  8
LVL0000
 10
      482.899994
 20
      264.399994
 30
        0.000000
 11
      482.899994
 21
      274.683044
 31
        0.000000
  0
LINE
  8
LVL0000
 10
      472.299988
 20
      273.397644
 30
        0.000000
 11
      475.299988
 21
      274.183044
 31
        0.000000
  0
LINE
  8
LVL0000
 10
      475.299988
 20
      274.183044
 30
        0.000000
 11
      472.299988
 21
      274.968445
 31
        0.000000
  0
LINE
  8
LVL0000
 10
      485.899994
 20
      274.968445
 30
        0.000000
 11
      482.899994
 21
      274.183044
 31
        0.000000
  0
LINE
  8
LVL0000
 10
      482.899994
 20
      274.183044
 30
        0.000000
 11
      485.899994
 21
      273.397644
 31
        0.000000
  0
LINE
  8
LVL0000
 10
      497.870209
 20
      274.183044
 30
        0.000000
 11
      469.299988
 21
      274.183044
 31
        0.000000
  0
ENDBLK
  0
ENDSEC
  0
SECTION
  2
ENTITIES
  0
TEXT
  8
LVL0000
 10
      -36.903430
 20
      287.928696
 30
        0.000000
 40
        5.000000
  1
ＪＷ３８ＫＢ
 50
        0.000000
 41
        0.835000
 51
        0.000000
  7
BIGFONT
  0
LINE
  8
LVL0000
 62
  3
 10
       74.899998
 20
      176.899963
 30
        0.000000
 11
       74.899998
 21
      241.129990
 31
        0.000000
  0
LINE
  8
LVL0000
 62
  3
 10
       77.700001
 20
      176.899963
 30
        0.000000
 11
       77.700001
 21
      241.129990
 31
        0.000000
  0
LINE
  8
LVL0000
 62
  3
 10
       74.899998
 20
      176.899963
 30
        0.000000
 11
       77.700001
 21
      176.899963
 31
        0.000000
  0
LINE
  8
LVL0000
 62
  3
 10
       74.899998
 20
      241.129990
 30
        0.000000
 11
       77.700001
 21
      241.129990
 31
        0.000000
  0
LINE
  8
LVL0000
 62
  3
 10
       78.700001
 20
      175.899963
 30
        0.000000
 11
       78.700001
 21
      242.129990
 31
        0.000000
  0
LINE
  8
LVL0000
 62
  3
 10
       73.899998
 20
      175.899963
 30
        0.000000
 11
       73.899998
 21
      242.129990
 31
        0.000000
  0
LINE
  8
LVL0000
 62
  3
 10
       79.599998
 20
      176.399963
 30
        0.000000
 11
       79.599998
 21
      241.629990
 31
        0.000000
  0
LINE
  8
LVL0000
 62
  3
 10
       73.000000
 20
      170.899979
 30
        0.000000
 11
       80.000000
 21
      170.899979
 31
        0.000000
  0
LINE
  8
LVL0000
 62
  3
 10
       73.000000
 20
      170.899979
 30
        0.000000
 11
       73.000000
 21
      247.129990
 31
        0.000000
  0
LINE
  8
LVL0000
 62
  3
 10
       73.000000
 20
      247.129990
 30
        0.000000
 11
       80.000000
 21
      247.129990
 31
        0.000000
  0
LINE
  8
LVL0000
 62
  3
 10
       79.599998
 20
      176.399963
 30
        0.000000
 11
       80.000000
 21
      176.399963
 31
        0.000000
  0
LINE
  8
LVL0000
 62
  3
 10
       80.000000
 20
      176.399963
 30
        0.000000
 11
       80.000000
 21
      170.899963
 31
        0.000000
  0
LINE
  8
LVL0000
 62
  3
 10
       73.899998
 20
      175.899963
 30
        0.000000
 11
       78.700001
 21
      175.899963
 31
        0.000000
  0
LINE
  8
LVL0000
 62
  3
 10
       78.149998
 20
      174.449966
 30
        0.000000
 11
       78.149998
 21
      171.599960
 31
        0.000000
  0
LINE
  8
LVL0000
 62
  3
 10
       74.450001
 20
      174.449966
 30
        0.000000
 11
       74.450001
 21
      171.599960
 31
        0.000000
  0
LINE
  8
LVL0000
 62
  3
 10
       78.149998
 20
      174.449966
 30
        0.000000
 11
       80.000000
 21
      174.449966
 31
        0.000000
  0
LINE
  8
LVL0000
 62
  3
 10
       73.000000
 20
      174.449966
 30
        0.000000
 11
       74.450001
 21
      174.449966
 31
        0.000000
  0
LINE
  8
LVL0000
 62
  3
 10
       74.450001
 20
      171.599960
 30
        0.000000
 11
       78.149998
 21
      171.599960
 31
        0.000000
  0
CIRCLE
  8
LVL0000
 62
  3
 10
       76.299999
 20
      173.454971
 30
        0.000000
 40
        1.150002
  0
LINE
  8
LVL0000
 62
  3
 10
       79.599998
 20
      241.629990
 30
        0.000000
 11
       80.000000
 21
      241.629990
 31
        0.000000
  0
LINE
  8
LVL0000
 62
  3
 10
       80.000000
 20
      241.629990
 30
        0.000000
 11
       80.000000
 21
      247.129990
 31
        0.000000
  0
LINE
  8
LVL0000
 62
  3
 10
       78.149998
 20
      243.579987
 30
        0.000000
 11
       78.149998
 21
      246.429993
 31
        0.000000
  0
LINE
  8
LVL0000
 62
  3
 10
       74.450001
 20
      243.579987
 30
        0.000000
 11
       74.450001
 21
      246.429993
 31
        0.000000
  0
LINE
  8
LVL0000
 62
  3
 10
       73.899998
 20
      242.129990
 30
        0.000000
 11
       78.700001
 21
      242.129990
 31
        0.000000
  0
LINE
  8
LVL0000
 62
  3
 10
       78.149998
 20
      243.579987
 30
        0.000000
 11
       80.000000
 21
      243.579987
 31
        0.000000
  0
LINE
  8
LVL0000
 62
  3
 10
       73.000000
 20
      243.579987
 30
        0.000000
 11
       74.450001
 21
      243.579987
 31
        0.000000
  0
LINE
  8
LVL0000
 62
  3
 10
       74.450001
 20
      246.429993
 30
        0.000000
 11
       78.149998
 21
      246.429993
 31
        0.000000
  0
CIRCLE
  8
LVL0000
 62
  3
 10
       76.299999
 20
      244.574982
 30
        0.000000
 40
        1.150002
  0
LINE
  8
LVL0000
 62
  3
 10
      110.399994
 20
      241.129990
 30
        0.000000
 11
      113.199997
 21
      241.129990
 31
        0.000000
  0
LINE
  8
LVL0000
 62
  3
 10
      110.399994
 20
      215.000000
 30
        0.000000
 11
      113.199997
 21
      215.000000
 31
        0.000000
  0
LINE
  8
LVL0000
 62
  3
 10
      110.399994
 20
      215.000000
 30
        0.000000
 11
      110.399994
 21
      241.129990
 31
        0.000000
  0
LINE
  8
LVL0000
 62
  3
 10
      113.199997
 20
      215.000000
 30
        0.000000
 11
      113.199997
 21
      241.129990
 31
        0.000000
  0
LINE
  8
LVL0000
 62
  3
 10
      115.099998
 20
      214.500000
 30
        0.000000
 11
      115.099998
 21
      241.629990
 31
        0.000000
  0
LINE
  8
LVL0000
 62
  3
 10
      108.500000
 20
      209.000000
 30
        0.000000
 11
      108.500000
 21
      247.129990
 31
        0.000000
  0
LINE
  8
LVL0000
 62
  3
 10
      109.399994
 20
      214.000000
 30
        0.000000
 11
      109.399994
 21
      242.129990
 31
        0.000000
  0
LINE
  8
LVL0000
 62
  3
 10
      114.199997
 20
      214.000000
 30
        0.000000
 11
      114.199997
 21
      242.129990
 31
        0.000000
  0
LINE
  8
LVL0000
 62
  3
 10
      115.099998
 20
      214.500000
 30
        0.000000
 11
      115.500000
 21
      214.500000
 31
        0.000000
  0
LINE
  8
LVL0000
 62
  3
 10
      115.500000
 20
      214.500000
 30
        0.000000
 11
      115.500000
 21
      209.000000
 31
        0.000000
  0
LINE
  8
LVL0000
 62
  3
 10
      108.500000
 20
      209.000000
 30
        0.000000
 11
      115.500000
 21
      209.000000
 31
        0.000000
  0
LINE
  8
LVL0000
 62
  3
 10
      113.649994
 20
      212.550003
 30
        0.000000
 11
      113.649994
 21
      209.699997
 31
        0.000000
  0
LINE
  8
LVL0000
 62
  3
 10
      109.949997
 20
      212.550003
 30
        0.000000
 11
      109.949997
 21
      209.699997
 31
        0.000000
  0
LINE
  8
LVL0000
 62
  3
 10
      113.649994
 20
      212.550003
 30
        0.000000
 11
      115.500000
 21
      212.550003
 31
        0.000000
  0
LINE
  8
LVL0000
 62
  3
 10
      108.500000
 20
      212.550003
 30
        0.000000
 11
      109.949997
 21
      212.550003
 31
        0.000000
  0
LINE
  8
LVL0000
 62
  3
 10
      109.949997
 20
      209.699997
 30
        0.000000
 11
      113.649994
 21
      209.699997
 31
        0.000000
  0
CIRCLE
  8
LVL0000
 62
  3
 10
      111.800003
 20
      211.555008
 30
        0.000000
 40
        1.149994
  0
LINE
  8
LVL0000
 62
  3
 10
      109.399994
 20
      214.000000
 30
        0.000000
 11
      114.199997
 21
      214.000000
 31
        0.000000
  0
LINE
  8
LVL0000
 62
  3
 10
      108.500000
 20
      247.129990
 30
        0.000000
 11
      115.500000
 21
      247.129990
 31
        0.000000
  0
LINE
  8
LVL0000
 62
  3
 10
      115.099998
 20
      241.629990
 30
        0.000000
 11
      115.500000
 21
      241.629990
 31
        0.000000
  0
LINE
  8
LVL0000
 62
  3
 10
      115.500000
 20
      241.629990
 30
        0.000000
 11
      115.500000
 21
      247.129990
 31
        0.000000
  0
LINE
  8
LVL0000
 62
  3
 10
      113.649994
 20
      243.579987
 30
        0.000000
 11
      113.649994
 21
      246.429993
 31
        0.000000
  0
LINE
  8
LVL0000
 62
  3
 10
      109.949997
 20
      243.579987
 30
        0.000000
 11
      109.949997
 21
      246.429993
 31
        0.000000
  0
LINE
  8
LVL0000
 62
  3
 10
      109.399994
 20
      242.129990
 30
        0.000000
 11
      114.199997
 21
      242.129990
 31
        0.000000
  0
LINE
  8
LVL0000
 62
  3
 10
      113.649994
 20
      243.579987
 30
        0.000000
 11
      115.500000
 21
      243.579987
 31
        0.000000
  0
LINE
  8
LVL0000
 62
  3
 10
      108.500000
 20
      243.579987
 30
        0.000000
 11
      109.949997
 21
      243.579987
 31
        0.000000
  0
LINE
  8
LVL0000
 62
  3
 10
      109.949997
 20
      246.429993
 30
        0.000000
 11
      113.649994
 21
      246.429993
 31
        0.000000
  0
CIRCLE
  8
LVL0000
 62
  3
 10
      111.800003
 20
      244.574982
 30
        0.000000
 40
        1.149994
  0
LINE
  8
LVL0000
 62
  3
 10
      145.899994
 20
      241.129990
 30
        0.000000
 11
      148.699997
 21
      241.129990
 31
        0.000000
  0
LINE
  8
LVL0000
 62
  3
 10
      145.899994
 20
      215.000000
 30
        0.000000
 11
      148.699997
 21
      215.000000
 31
        0.000000
  0
LINE
  8
LVL0000
 62
  3
 10
      145.899994
 20
      215.000000
 30
        0.000000
 11
      145.899994
 21
      241.129990
 31
        0.000000
  0
LINE
  8
LVL0000
 62
  3
 10
      148.699997
 20
      215.000000
 30
        0.000000
 11
      148.699997
 21
      241.129990
 31
        0.000000
  0
LINE
  8
LVL0000
 62
  3
 10
      150.600006
 20
      214.500000
 30
        0.000000
 11
      150.600006
 21
      241.629990
 31
        0.000000
  0
LINE
  8
LVL0000
 62
  3
 10
      144.000000
 20
      209.000000
 30
        0.000000
 11
      144.000000
 21
      247.129990
 31
        0.000000
  0
LINE
  8
LVL0000
 62
  3
 10
      144.899994
 20
      214.000000
 30
        0.000000
 11
      144.899994
 21
      242.129990
 31
        0.000000
  0
LINE
  8
LVL0000
 62
  3
 10
      149.699997
 20
      214.000000
 30
        0.000000
 11
      149.699997
 21
      242.129990
 31
        0.000000
  0
LINE
  8
LVL0000
 62
  3
 10
      150.600006
 20
      214.500000
 30
        0.000000
 11
      151.000000
 21
      214.500000
 31
        0.000000
  0
LINE
  8
LVL0000
 62
  3
 10
      151.000000
 20
      214.500000
 30
        0.000000
 11
      151.000000
 21
      209.000000
 31
        0.000000
  0
LINE
  8
LVL0000
 62
  3
 10
      144.000000
 20
      209.000000
 30
        0.000000
 11
      151.000000
 21
      209.000000
 31
        0.000000
  0
LINE
  8
LVL0000
 62
  3
 10
      149.149994
 20
      212.550003
 30
        0.000000
 11
      149.149994
 21
      209.699997
 31
        0.000000
  0
LINE
  8
LVL0000
 62
  3
 10
      145.449997
 20
      212.550003
 30
        0.000000
 11
      145.449997
 21
      209.699997
 31
        0.000000
  0
LINE
  8
LVL0000
 62
  3
 10
      149.149994
 20
      212.550003
 30
        0.000000
 11
      151.000000
 21
      212.550003
 31
        0.000000
  0
LINE
  8
LVL0000
 62
  3
 10
      144.000000
 20
      212.550003
 30
        0.000000
 11
      145.449997
 21
      212.550003
 31
        0.000000
  0
LINE
  8
LVL0000
 62
  3
 10
      145.449997
 20
      209.699997
 30
        0.000000
 11
      149.149994
 21
      209.699997
 31
        0.000000
  0
CIRCLE
  8
LVL0000
 62
  3
 10
      147.300003
 20
      211.555008
 30
        0.000000
 40
        1.149994
  0
LINE
  8
LVL0000
 62
  3
 10
      144.899994
 20
      214.000000
 30
        0.000000
 11
      149.699997
 21
      214.000000
 31
        0.000000
  0
LINE
  8
LVL0000
 62
  3
 10
      144.000000
 20
      247.129990
 30
        0.000000
 11
      151.000000
 21
      247.129990
 31
        0.000000
  0
LINE
  8
LVL0000
 62
  3
 10
      150.600006
 20
      241.629990
 30
        0.000000
 11
      151.000000
 21
      241.629990
 31
        0.000000
  0
LINE
  8
LVL0000
 62
  3
 10
      151.000000
 20
      241.629990
 30
        0.000000
 11
      151.000000
 21
      247.129990
 31
        0.000000
  0
LINE
  8
LVL0000
 62
  3
 10
      149.149994
 20
      243.579987
 30
        0.000000
 11
      149.149994
 21
      246.429993
 31
        0.000000
  0
LINE
  8
LVL0000
 62
  3
 10
      145.449997
 20
      243.579987
 30
        0.000000
 11
      145.449997
 21
      246.429993
 31
        0.000000
  0
LINE
  8
LVL0000
 62
  3
 10
      144.899994
 20
      242.129990
 30
        0.000000
 11
      149.699997
 21
      242.129990
 31
        0.000000
  0
LINE
  8
LVL0000
 62
  3
 10
      149.149994
 20
      243.579987
 30
        0.000000
 11
      151.000000
 21
      243.579987
 31
        0.000000
  0
LINE
  8
LVL0000
 62
  3
 10
      144.000000
 20
      243.579987
 30
        0.000000
 11
      145.449997
 21
      243.579987
 31
        0.000000
  0
LINE
  8
LVL0000
 62
  3
 10
      145.449997
 20
      246.429993
 30
        0.000000
 11
      149.149994
 21
      246.429993
 31
        0.000000
  0
CIRCLE
  8
LVL0000
 62
  3
 10
      147.300003
 20
      244.574982
 30
        0.000000
 40
        1.149994
  0
LINE
  8
LVL0000
 62
  3
 10
      181.399994
 20
      241.129990
 30
        0.000000
 11
      184.199997
 21
      241.129990
 31
        0.000000
  0
LINE
  8
LVL0000
 62
  3
 10
      181.399994
 20
      215.000000
 30
        0.000000
 11
      184.199997
 21
      215.000000
 31
        0.000000
  0
LINE
  8
LVL0000
 62
  3
 10
      181.399994
 20
      215.000000
 30
        0.000000
 11
      181.399994
 21
      241.129990
 31
        0.000000
  0
LINE
  8
LVL0000
 62
  3
 10
      184.199997
 20
      215.000000
 30
        0.000000
 11
      184.199997
 21
      241.129990
 31
        0.000000
  0
LINE
  8
LVL0000
 62
  3
 10
      186.100006
 20
      214.500000
 30
        0.000000
 11
      186.100006
 21
      241.629990
 31
        0.000000
  0
LINE
  8
LVL0000
 62
  3
 10
      179.500000
 20
      209.000000
 30
        0.000000
 11
      179.500000
 21
      247.129990
 31
        0.000000
  0
LINE
  8
LVL0000
 62
  3
 10
      180.399994
 20
      214.000000
 30
        0.000000
 11
      180.399994
 21
      242.129990
 31
        0.000000
  0
LINE
  8
LVL0000
 62
  3
 10
      185.199997
 20
      214.000000
 30
        0.000000
 11
      185.199997
 21
      242.129990
 31
        0.000000
  0
LINE
  8
LVL0000
 62
  3
 10
      186.100006
 20
      214.500000
 30
        0.000000
 11
      186.500000
 21
      214.500000
 31
        0.000000
  0
LINE
  8
LVL0000
 62
  3
 10
      186.500000
 20
      214.500000
 30
        0.000000
 11
      186.500000
 21
      209.000000
 31
        0.000000
  0
LINE
  8
LVL0000
 62
  3
 10
      179.500000
 20
      209.000000
 30
        0.000000
 11
      186.500000
 21
      209.000000
 31
        0.000000
  0
LINE
  8
LVL0000
 62
  3
 10
      184.649994
 20
      212.550003
 30
        0.000000
 11
      184.649994
 21
      209.699997
 31
        0.000000
  0
LINE
  8
LVL0000
 62
  3
 10
      180.949997
 20
      212.550003
 30
        0.000000
 11
      180.949997
 21
      209.699997
 31
        0.000000
  0
LINE
  8
LVL0000
 62
  3
 10
      184.649994
 20
      212.550003
 30
        0.000000
 11
      186.500000
 21
      212.550003
 31
        0.000000
  0
LINE
  8
LVL0000
 62
  3
 10
      179.500000
 20
      212.550003
 30
        0.000000
 11
      180.949997
 21
      212.550003
 31
        0.000000
  0
LINE
  8
LVL0000
 62
  3
 10
      180.949997
 20
      209.699997
 30
        0.000000
 11
      184.649994
 21
      209.699997
 31
        0.000000
  0
CIRCLE
  8
LVL0000
 62
  3
 10
      182.800003
 20
      211.555008
 30
        0.000000
 40
        1.149994
  0
LINE
  8
LVL0000
 62
  3
 10
      180.399994
 20
      214.000000
 30
        0.000000
 11
      185.199997
 21
      214.000000
 31
        0.000000
  0
LINE
  8
LVL0000
 62
  3
 10
      179.500000
 20
      247.129990
 30
        0.000000
 11
      186.500000
 21
      247.129990
 31
        0.000000
  0
LINE
  8
LVL0000
 62
  3
 10
      186.100006
 20
      241.629990
 30
        0.000000
 11
      186.500000
 21
      241.629990
 31
        0.000000
  0
LINE
  8
LVL0000
 62
  3
 10
      186.500000
 20
      241.629990
 30
        0.000000
 11
      186.500000
 21
      247.129990
 31
        0.000000
  0
LINE
  8
LVL0000
 62
  3
 10
      184.649994
 20
      243.579987
 30
        0.000000
 11
      184.649994
 21
      246.429993
 31
        0.000000
  0
LINE
  8
LVL0000
 62
  3
 10
      180.949997
 20
      243.579987
 30
        0.000000
 11
      180.949997
 21
      246.429993
 31
        0.000000
  0
LINE
  8
LVL0000
 62
  3
 10
      180.399994
 20
      242.129990
 30
        0.000000
 11
      185.199997
 21
      242.129990
 31
        0.000000
  0
LINE
  8
LVL0000
 62
  3
 10
      184.649994
 20
      243.579987
 30
        0.000000
 11
      186.500000
 21
      243.579987
 31
        0.000000
  0
LINE
  8
LVL0000
 62
  3
 10
      179.500000
 20
      243.579987
 30
        0.000000
 11
      180.949997
 21
      243.579987
 31
        0.000000
  0
LINE
  8
LVL0000
 62
  3
 10
      180.949997
 20
      246.429993
 30
        0.000000
 11
      184.649994
 21
      246.429993
 31
        0.000000
  0
CIRCLE
  8
LVL0000
 62
  3
 10
      182.800003
 20
      244.574982
 30
        0.000000
 40
        1.149994
  0
LINE
  8
LVL0000
 62
  3
 10
       37.500002
 20
      243.579971
 30
        0.000000
 11
       38.949999
 21
      243.579971
 31
        0.000000
  0
LINE
  8
LVL0000
 62
  3
 10
       42.649996
 20
      243.579971
 30
        0.000000
 11
       44.500002
 21
      243.579971
 31
        0.000000
  0
LINE
  8
LVL0000
 62
  3
 10
       38.399996
 20
      242.129974
 30
        0.000000
 11
       43.199999
 21
      242.129974
 31
        0.000000
  0
LINE
  8
LVL0000
 62
  3
 10
       38.949999
 20
      243.579971
 30
        0.000000
 11
       38.949999
 21
      246.429977
 31
        0.000000
  0
LINE
  8
LVL0000
 62
  3
 10
       42.649996
 20
      243.579971
 30
        0.000000
 11
       42.649996
 21
      246.429977
 31
        0.000000
  0
LINE
  8
LVL0000
 62
  3
 10
       44.500002
 20
      241.629974
 30
        0.000000
 11
       44.500002
 21
      247.129974
 31
        0.000000
  0
LINE
  8
LVL0000
 62
  3
 10
       44.100000
 20
      241.629974
 30
        0.000000
 11
       44.500002
 21
      241.629974
 31
        0.000000
  0
LINE
  8
LVL0000
 62
  3
 10
       37.500002
 20
      247.129974
 30
        0.000000
 11
       44.500002
 21
      247.129974
 31
        0.000000
  0
LINE
  8
LVL0000
 62
  3
 10
       39.399996
 20
      241.129974
 30
        0.000000
 11
       42.199999
 21
      241.129974
 31
        0.000000
  0
LINE
  8
LVL0000
 62
  3
 10
       38.399996
 20
      206.379985
 30
        0.000000
 11
       43.199999
 21
      206.379985
 31
        0.000000
  0
CIRCLE
  8
LVL0000
 62
  3
 10
       40.800005
 20
      203.934993
 30
        0.000000
 40
        1.149994
  0
LINE
  8
LVL0000
 62
  3
 10
       38.949999
 20
      202.079982
 30
        0.000000
 11
       42.649996
 21
      202.079982
 31
        0.000000
  0
LINE
  8
LVL0000
 62
  3
 10
       37.500002
 20
      204.929988
 30
        0.000000
 11
       38.949999
 21
      204.929988
 31
        0.000000
  0
LINE
  8
LVL0000
 62
  3
 10
       42.649996
 20
      204.929988
 30
        0.000000
 11
       44.500002
 21
      204.929988
 31
        0.000000
  0
LINE
  8
LVL0000
 62
  3
 10
       38.949999
 20
      204.929988
 30
        0.000000
 11
       38.949999
 21
      202.079982
 31
        0.000000
  0
LINE
  8
LVL0000
 62
  3
 10
       42.649996
 20
      204.929988
 30
        0.000000
 11
       42.649996
 21
      202.079982
 31
        0.000000
  0
LINE
  8
LVL0000
 62
  3
 10
       37.500002
 20
      201.379985
 30
        0.000000
 11
       44.500002
 21
      201.379985
 31
        0.000000
  0
LINE
  8
LVL0000
 62
  3
 10
       44.500002
 20
      206.879985
 30
        0.000000
 11
       44.500002
 21
      201.379985
 31
        0.000000
  0
LINE
  8
LVL0000
 62
  3
 10
       44.100000
 20
      206.879985
 30
        0.000000
 11
       44.500002
 21
      206.879985
 31
        0.000000
  0
LINE
  8
LVL0000
 62
  3
 10
       43.199999
 20
      206.379985
 30
        0.000000
 11
       43.199999
 21
      242.129974
 31
        0.000000
  0
LINE
  8
LVL0000
 62
  3
 10
       38.399996
 20
      206.379985
 30
        0.000000
 11
       38.399996
 21
      242.129974
 31
        0.000000
  0
LINE
  8
LVL0000
 62
  3
 10
       37.500002
 20
      201.379985
 30
        0.000000
 11
       37.500002
 21
      247.129974
 31
        0.000000
  0
LINE
  8
LVL0000
 62
  3
 10
       44.100000
 20
      206.879985
 30
        0.000000
 11
       44.100000
 21
      241.629974
 31
        0.000000
  0
LINE
  8
LVL0000
 62
  3
 10
       42.199999
 20
      207.379985
 30
        0.000000
 11
       42.199999
 21
      241.129974
 31
        0.000000
  0
LINE
  8
LVL0000
 62
  3
 10
       39.399996
 20
      207.379985
 30
        0.000000
 11
       39.399996
 21
      241.129974
 31
        0.000000
  0
LINE
  8
LVL0000
 62
  3
 10
       39.399996
 20
      207.379985
 30
        0.000000
 11
       42.199999
 21
      207.379985
 31
        0.000000
  0
CIRCLE
  8
LVL0000
 62
  3
 10
       40.800005
 20
      244.574966
 30
        0.000000
 40
        1.149994
  0
LINE
  8
LVL0000
 62
  3
 10
       38.949999
 20
      246.429977
 30
        0.000000
 11
       42.649996
 21
      246.429977
 31
        0.000000
  0
LINE
  8
LVL0000
 62
  3
 10
        5.707108
 20
      240.457886
 30
        0.000000
 11
        7.121323
 21
      239.043671
 31
        0.000000
  0
ARC
  8
LVL0000
 62
  3
 10
        5.000000
 20
      239.750778
 30
        0.000000
 40
        1.000001
 50
       45.000000
 51
      180.000010
  0
ARC
  8
LVL0000
 62
  3
 10
        5.000000
 20
      236.922348
 30
        0.000000
 40
        3.000000
 50
        0.000000
 51
       45.000051
  0
LINE
  8
LVL0000
 62
  3
 10
        3.000000
 20
      243.564987
 30
        0.000000
 11
        9.000000
 21
      243.564987
 31
        0.000000
  0
LINE
  8
LVL0000
 62
  3
 10
        3.000000
 20
      209.064987
 30
        0.000000
 11
        9.000000
 21
      209.064987
 31
        0.000000
  0
LINE
  8
LVL0000
 62
  3
 10
        9.000000
 20
      243.564987
 30
        0.000000
 11
        9.000000
 21
      209.064987
 31
        0.000000
  0
LINE
  8
LVL0000
 62
  3
 10
        3.000000
 20
      243.564987
 30
        0.000000
 11
        3.000000
 21
      209.064987
 31
        0.000000
  0
ARC
  8
LVL0000
 62
  3
 10
        5.000000
 20
      212.879196
 30
        0.000000
 40
        1.000000
 50
      180.000010
 51
      315.000020
  0
LINE
  8
LVL0000
 62
  3
 10
        4.000000
 20
      239.750778
 30
        0.000000
 11
        4.000000
 21
      212.879196
 31
        0.000000
  0
LINE
  8
LVL0000
 62
  3
 10
        5.707108
 20
      212.172089
 30
        0.000000
 11
        7.121323
 21
      213.586304
 31
        0.000000
  0
ARC
  8
LVL0000
 62
  3
 10
        5.000000
 20
      215.707626
 30
        0.000000
 40
        3.000004
 50
      315.000020
 51
      360.000000
  0
LINE
  8
LVL0000
 62
  3
 10
        8.000000
 20
      236.922348
 30
        0.000000
 11
        8.000000
 21
      215.707626
 31
        0.000000
  0
LINE
  8
LVL0000
 62
  3
 10
      389.500000
 20
      245.614990
 30
        0.000000
 11
      389.500000
 21
      241.314987
 31
        0.000000
  0
LINE
  8
LVL0000
 62
  3
 10
      384.900024
 20
      245.614990
 30
        0.000000
 11
      384.900024
 21
      241.314987
 31
        0.000000
  0
LINE
  8
LVL0000
 62
  3
 10
      389.500000
 20
      210.784988
 30
        0.000000
 11
      389.500000
 21
      206.484985
 31
        0.000000
  0
LINE
  8
LVL0000
 62
  3
 10
      384.900024
 20
      210.784988
 30
        0.000000
 11
      384.900024
 21
      206.484985
 31
        0.000000
  0
LINE
  8
LVL0000
 62
  3
 10
      385.450012
 20
      209.799988
 30
        0.000000
 11
      388.950012
 21
      209.799988
 31
        0.000000
  0
LINE
  8
LVL0000
 62
  3
 10
      385.450012
 20
      242.299988
 30
        0.000000
 11
      388.950012
 21
      242.299988
 31
        0.000000
  0
LINE
  8
LVL0000
 62
  3
 10
      384.900024
 20
      245.614990
 30
        0.000000
 11
      389.500000
 21
      245.614990
 31
        0.000000
  0
LINE
  8
LVL0000
 62
  3
 10
      384.900024
 20
      206.484985
 30
        0.000000
 11
      389.500000
 21
      206.484985
 31
        0.000000
  0
LINE
  8
LVL0000
 62
  3
 10
      388.950012
 20
      210.784988
 30
        0.000000
 11
      388.950012
 21
      209.799988
 31
        0.000000
  0
LINE
  8
LVL0000
 62
  3
 10
      385.450012
 20
      210.784988
 30
        0.000000
 11
      385.450012
 21
      209.799988
 31
        0.000000
  0
LINE
  8
LVL0000
 62
  3
 10
      388.950012
 20
      242.299988
 30
        0.000000
 11
      388.950012
 21
      241.314987
 31
        0.000000
  0
LINE
  8
LVL0000
 62
  3
 10
      385.450012
 20
      242.299988
 30
        0.000000
 11
      385.450012
 21
      241.314987
 31
        0.000000
  0
LINE
  8
LVL0000
 62
  3
 10
      390.500000
 20
      241.314987
 30
        0.000000
 11
      390.500000
 21
      210.784988
 31
        0.000000
  0
LINE
  8
LVL0000
 62
  3
 10
      383.899994
 20
      210.784988
 30
        0.000000
 11
      390.900024
 21
      210.784988
 31
        0.000000
  0
LINE
  8
LVL0000
 62
  3
 10
      383.899994
 20
      241.314987
 30
        0.000000
 11
      390.900024
 21
      241.314987
 31
        0.000000
  0
LINE
  8
LVL0000
 62
  3
 10
      390.500000
 20
      239.114990
 30
        0.000000
 11
      390.900024
 21
      239.114990
 31
        0.000000
  0
LINE
  8
LVL0000
 62
  3
 10
      390.500000
 20
      212.984985
 30
        0.000000
 11
      390.900024
 21
      212.984985
 31
        0.000000
  0
LINE
  8
LVL0000
 62
  3
 10
      390.900024
 20
      212.984985
 30
        0.000000
 11
      390.900024
 21
      205.784988
 31
        0.000000
  0
LINE
  8
LVL0000
 62
  3
 10
      390.900024
 20
      246.314987
 30
        0.000000
 11
      390.900024
 21
      239.114990
 31
        0.000000
  0
LINE
  8
LVL0000
 62
  3
 10
      383.899994
 20
      241.314987
 30
        0.000000
 11
      390.900024
 21
      241.314987
 31
        0.000000
  0
LINE
  8
LVL0000
 62
  3
 10
      383.899994
 20
      205.784988
 30
        0.000000
 11
      390.900024
 21
      205.784988
 31
        0.000000
  0
LINE
  8
LVL0000
 62
  3
 10
      383.899994
 20
      246.314987
 30
        0.000000
 11
      390.900024
 21
      246.314987
 31
        0.000000
  0
LINE
  8
LVL0000
 62
  3
 10
      383.899994
 20
      246.314987
 30
        0.000000
 11
      383.899994
 21
      205.784988
 31
        0.000000
  0
LINE
  8
LVL0000
 62
  3
 10
      386.247498
 20
      238.964981
 30
        0.000000
 11
      386.247498
 21
      213.134987
 31
        0.000000
  0
LINE
  8
LVL0000
 62
  3
 10
      388.152527
 20
      238.964981
 30
        0.000000
 11
      388.152527
 21
      213.134987
 31
        0.000000
  0
CIRCLE
  8
LVL0000
 62
  3
 10
      387.200012
 20
      208.269989
 30
        0.000000
 40
        1.149994
  0
CIRCLE
  8
LVL0000
 62
  3
 10
      387.200012
 20
      243.829987
 30
        0.000000
 40
        1.149994
  0
LINE
  8
LVL0000
 62
  3
 10
      385.950012
 20
      238.964981
 30
        0.000000
 11
      385.950012
 21
      213.134987
 31
        0.000000
  0
LINE
  8
LVL0000
 62
  3
 10
      388.450012
 20
      238.964981
 30
        0.000000
 11
      388.450012
 21
      213.134987
 31
        0.000000
  0
LINE
  8
LVL0000
 62
  3
 10
      384.700012
 20
      240.314987
 30
        0.000000
 11
      384.700012
 21
      211.784988
 31
        0.000000
  0
LINE
  8
LVL0000
 62
  3
 10
      389.700012
 20
      240.314987
 30
        0.000000
 11
      389.700012
 21
      211.784988
 31
        0.000000
  0
LINE
  8
LVL0000
 62
  3
 10
      385.950012
 20
      213.134987
 30
        0.000000
 11
      388.450012
 21
      213.134987
 31
        0.000000
  0
LINE
  8
LVL0000
 62
  3
 10
      385.950012
 20
      238.964981
 30
        0.000000
 11
      388.450012
 21
      238.964981
 31
        0.000000
  0
LINE
  8
LVL0000
 62
  3
 10
      384.700012
 20
      211.784988
 30
        0.000000
 11
      389.700012
 21
      211.784988
 31
        0.000000
  0
LINE
  8
LVL0000
 62
  3
 10
      384.700012
 20
      240.314987
 30
        0.000000
 11
      389.700012
 21
      240.314987
 31
        0.000000
  0
LINE
  8
LVL0000
 62
  3
 10
      323.399994
 20
      241.129990
 30
        0.000000
 11
      326.200012
 21
      241.129990
 31
        0.000000
  0
LINE
  8
LVL0000
 62
  3
 10
      323.399994
 20
      215.000000
 30
        0.000000
 11
      326.200012
 21
      215.000000
 31
        0.000000
  0
LINE
  8
LVL0000
 62
  3
 10
      323.399994
 20
      215.000000
 30
        0.000000
 11
      323.399994
 21
      241.129990
 31
        0.000000
  0
LINE
  8
LVL0000
 62
  3
 10
      326.200012
 20
      215.000000
 30
        0.000000
 11
      326.200012
 21
      241.129990
 31
        0.000000
  0
LINE
  8
LVL0000
 62
  3
 10
      328.100006
 20
      214.500000
 30
        0.000000
 11
      328.100006
 21
      241.629990
 31
        0.000000
  0
LINE
  8
LVL0000
 62
  3
 10
      321.500000
 20
      209.000000
 30
        0.000000
 11
      321.500000
 21
      247.129990
 31
        0.000000
  0
LINE
  8
LVL0000
 62
  3
 10
      322.399994
 20
      214.000000
 30
        0.000000
 11
      322.399994
 21
      242.129990
 31
        0.000000
  0
LINE
  8
LVL0000
 62
  3
 10
      327.200012
 20
      214.000000
 30
        0.000000
 11
      327.200012
 21
      242.129990
 31
        0.000000
  0
LINE
  8
LVL0000
 62
  3
 10
      328.100006
 20
      214.500000
 30
        0.000000
 11
      328.500000
 21
      214.500000
 31
        0.000000
  0
LINE
  8
LVL0000
 62
  3
 10
      328.500000
 20
      214.500000
 30
        0.000000
 11
      328.500000
 21
      209.000000
 31
        0.000000
  0
LINE
  8
LVL0000
 62
  3
 10
      321.500000
 20
      209.000000
 30
        0.000000
 11
      328.500000
 21
      209.000000
 31
        0.000000
  0
LINE
  8
LVL0000
 62
  3
 10
      326.649994
 20
      212.550003
 30
        0.000000
 11
      326.649994
 21
      209.699997
 31
        0.000000
  0
LINE
  8
LVL0000
 62
  3
 10
      322.950012
 20
      212.550003
 30
        0.000000
 11
      322.950012
 21
      209.699997
 31
        0.000000
  0
LINE
  8
LVL0000
 62
  3
 10
      326.649994
 20
      212.550003
 30
        0.000000
 11
      328.500000
 21
      212.550003
 31
        0.000000
  0
LINE
  8
LVL0000
 62
  3
 10
      321.500000
 20
      212.550003
 30
        0.000000
 11
      322.950012
 21
      212.550003
 31
        0.000000
  0
LINE
  8
LVL0000
 62
  3
 10
      322.950012
 20
      209.699997
 30
        0.000000
 11
      326.649994
 21
      209.699997
 31
        0.000000
  0
CIRCLE
  8
LVL0000
 62
  3
 10
      324.799988
 20
      211.555008
 30
        0.000000
 40
        1.150024
  0
LINE
  8
LVL0000
 62
  3
 10
      322.399994
 20
      214.000000
 30
        0.000000
 11
      327.200012
 21
      214.000000
 31
        0.000000
  0
LINE
  8
LVL0000
 62
  3
 10
      321.500000
 20
      247.129990
 30
        0.000000
 11
      328.500000
 21
      247.129990
 31
        0.000000
  0
LINE
  8
LVL0000
 62
  3
 10
      328.100006
 20
      241.629990
 30
        0.000000
 11
      328.500000
 21
      241.629990
 31
        0.000000
  0
LINE
  8
LVL0000
 62
  3
 10
      328.500000
 20
      241.629990
 30
        0.000000
 11
      328.500000
 21
      247.129990
 31
        0.000000
  0
LINE
  8
LVL0000
 62
  3
 10
      326.649994
 20
      243.579987
 30
        0.000000
 11
      326.649994
 21
      246.429993
 31
        0.000000
  0
LINE
  8
LVL0000
 62
  3
 10
      322.950012
 20
      243.579987
 30
        0.000000
 11
      322.950012
 21
      246.429993
 31
        0.000000
  0
LINE
  8
LVL0000
 62
  3
 10
      322.399994
 20
      242.129990
 30
        0.000000
 11
      327.200012
 21
      242.129990
 31
        0.000000
  0
LINE
  8
LVL0000
 62
  3
 10
      326.649994
 20
      243.579987
 30
        0.000000
 11
      328.500000
 21
      243.579987
 31
        0.000000
  0
LINE
  8
LVL0000
 62
  3
 10
      321.500000
 20
      243.579987
 30
        0.000000
 11
      322.950012
 21
      243.579987
 31
        0.000000
  0
LINE
  8
LVL0000
 62
  3
 10
      322.950012
 20
      246.429993
 30
        0.000000
 11
      326.649994
 21
      246.429993
 31
        0.000000
  0
CIRCLE
  8
LVL0000
 62
  3
 10
      324.799988
 20
      244.574982
 30
        0.000000
 40
        1.150024
  0
LINE
  8
LVL0000
 62
  3
 10
      358.899994
 20
      241.129990
 30
        0.000000
 11
      361.700012
 21
      241.129990
 31
        0.000000
  0
LINE
  8
LVL0000
 62
  3
 10
      358.899994
 20
      215.000000
 30
        0.000000
 11
      361.700012
 21
      215.000000
 31
        0.000000
  0
LINE
  8
LVL0000
 62
  3
 10
      358.899994
 20
      215.000000
 30
        0.000000
 11
      358.899994
 21
      241.129990
 31
        0.000000
  0
LINE
  8
LVL0000
 62
  3
 10
      361.700012
 20
      215.000000
 30
        0.000000
 11
      361.700012
 21
      241.129990
 31
        0.000000
  0
LINE
  8
LVL0000
 62
  3
 10
      363.600006
 20
      214.500000
 30
        0.000000
 11
      363.600006
 21
      241.629990
 31
        0.000000
  0
LINE
  8
LVL0000
 62
  3
 10
      357.000000
 20
      209.000000
 30
        0.000000
 11
      357.000000
 21
      247.129990
 31
        0.000000
  0
LINE
  8
LVL0000
 62
  3
 10
      357.899994
 20
      214.000000
 30
        0.000000
 11
      357.899994
 21
      242.129990
 31
        0.000000
  0
LINE
  8
LVL0000
 62
  3
 10
      362.700012
 20
      214.000000
 30
        0.000000
 11
      362.700012
 21
      242.129990
 31
        0.000000
  0
LINE
  8
LVL0000
 62
  3
 10
      363.600006
 20
      214.500000
 30
        0.000000
 11
      364.000000
 21
      214.500000
 31
        0.000000
  0
LINE
  8
LVL0000
 62
  3
 10
      364.000000
 20
      214.500000
 30
        0.000000
 11
      364.000000
 21
      209.000000
 31
        0.000000
  0
LINE
  8
LVL0000
 62
  3
 10
      357.000000
 20
      209.000000
 30
        0.000000
 11
      364.000000
 21
      209.000000
 31
        0.000000
  0
LINE
  8
LVL0000
 62
  3
 10
      362.149994
 20
      212.550003
 30
        0.000000
 11
      362.149994
 21
      209.699997
 31
        0.000000
  0
LINE
  8
LVL0000
 62
  3
 10
      358.450012
 20
      212.550003
 30
        0.000000
 11
      358.450012
 21
      209.699997
 31
        0.000000
  0
LINE
  8
LVL0000
 62
  3
 10
      362.149994
 20
      212.550003
 30
        0.000000
 11
      364.000000
 21
      212.550003
 31
        0.000000
  0
LINE
  8
LVL0000
 62
  3
 10
      357.000000
 20
      212.550003
 30
        0.000000
 11
      358.450012
 21
      212.550003
 31
        0.000000
  0
LINE
  8
LVL0000
 62
  3
 10
      358.450012
 20
      209.699997
 30
        0.000000
 11
      362.149994
 21
      209.699997
 31
        0.000000
  0
CIRCLE
  8
LVL0000
 62
  3
 10
      360.299988
 20
      211.555008
 30
        0.000000
 40
        1.150024
  0
LINE
  8
LVL0000
 62
  3
 10
      357.899994
 20
      214.000000
 30
        0.000000
 11
      362.700012
 21
      214.000000
 31
        0.000000
  0
LINE
  8
LVL0000
 62
  3
 10
      357.000000
 20
      247.129990
 30
        0.000000
 11
      364.000000
 21
      247.129990
 31
        0.000000
  0
LINE
  8
LVL0000
 62
  3
 10
      363.600006
 20
      241.629990
 30
        0.000000
 11
      364.000000
 21
      241.629990
 31
        0.000000
  0
LINE
  8
LVL0000
 62
  3
 10
      364.000000
 20
      241.629990
 30
        0.000000
 11
      364.000000
 21
      247.129990
 31
        0.000000
  0
LINE
  8
LVL0000
 62
  3
 10
      362.149994
 20
      243.579987
 30
        0.000000
 11
      362.149994
 21
      246.429993
 31
        0.000000
  0
LINE
  8
LVL0000
 62
  3
 10
      358.450012
 20
      243.579987
 30
        0.000000
 11
      358.450012
 21
      246.429993
 31
        0.000000
  0
LINE
  8
LVL0000
 62
  3
 10
      357.899994
 20
      242.129990
 30
        0.000000
 11
      362.700012
 21
      242.129990
 31
        0.000000
  0
LINE
  8
LVL0000
 62
  3
 10
      362.149994
 20
      243.579987
 30
        0.000000
 11
      364.000000
 21
      243.579987
 31
        0.000000
  0
LINE
  8
LVL0000
 62
  3
 10
      357.000000
 20
      243.579987
 30
        0.000000
 11
      358.450012
 21
      243.579987
 31
        0.000000
  0
LINE
  8
LVL0000
 62
  3
 10
      358.450012
 20
      246.429993
 30
        0.000000
 11
      362.149994
 21
      246.429993
 31
        0.000000
  0
CIRCLE
  8
LVL0000
 62
  3
 10
      360.299988
 20
      244.574982
 30
        0.000000
 40
        1.150024
  0
LINE
  8
LVL0000
 62
  3
 10
      216.899994
 20
      241.129990
 30
        0.000000
 11
      219.699997
 21
      241.129990
 31
        0.000000
  0
LINE
  8
LVL0000
 62
  3
 10
      216.899994
 20
      215.000000
 30
        0.000000
 11
      219.699997
 21
      215.000000
 31
        0.000000
  0
LINE
  8
LVL0000
 62
  3
 10
      216.899994
 20
      215.000000
 30
        0.000000
 11
      216.899994
 21
      241.129990
 31
        0.000000
  0
LINE
  8
LVL0000
 62
  3
 10
      219.699997
 20
      215.000000
 30
        0.000000
 11
      219.699997
 21
      241.129990
 31
        0.000000
  0
LINE
  8
LVL0000
 62
  3
 10
      221.600006
 20
      214.500000
 30
        0.000000
 11
      221.600006
 21
      241.629990
 31
        0.000000
  0
LINE
  8
LVL0000
 62
  3
 10
      215.000000
 20
      209.000000
 30
        0.000000
 11
      215.000000
 21
      247.129990
 31
        0.000000
  0
LINE
  8
LVL0000
 62
  3
 10
      215.899994
 20
      214.000000
 30
        0.000000
 11
      215.899994
 21
      242.129990
 31
        0.000000
  0
LINE
  8
LVL0000
 62
  3
 10
      220.699997
 20
      214.000000
 30
        0.000000
 11
      220.699997
 21
      242.129990
 31
        0.000000
  0
LINE
  8
LVL0000
 62
  3
 10
      221.600006
 20
      214.500000
 30
        0.000000
 11
      222.000000
 21
      214.500000
 31
        0.000000
  0
LINE
  8
LVL0000
 62
  3
 10
      222.000000
 20
      214.500000
 30
        0.000000
 11
      222.000000
 21
      209.000000
 31
        0.000000
  0
LINE
  8
LVL0000
 62
  3
 10
      215.000000
 20
      209.000000
 30
        0.000000
 11
      222.000000
 21
      209.000000
 31
        0.000000
  0
LINE
  8
LVL0000
 62
  3
 10
      220.149994
 20
      212.550003
 30
        0.000000
 11
      220.149994
 21
      209.699997
 31
        0.000000
  0
LINE
  8
LVL0000
 62
  3
 10
      216.449997
 20
      212.550003
 30
        0.000000
 11
      216.449997
 21
      209.699997
 31
        0.000000
  0
LINE
  8
LVL0000
 62
  3
 10
      220.149994
 20
      212.550003
 30
        0.000000
 11
      222.000000
 21
      212.550003
 31
        0.000000
  0
LINE
  8
LVL0000
 62
  3
 10
      215.000000
 20
      212.550003
 30
        0.000000
 11
      216.449997
 21
      212.550003
 31
        0.000000
  0
LINE
  8
LVL0000
 62
  3
 10
      216.449997
 20
      209.699997
 30
        0.000000
 11
      220.149994
 21
      209.699997
 31
        0.000000
  0
CIRCLE
  8
LVL0000
 62
  3
 10
      218.300003
 20
      211.555008
 30
        0.000000
 40
        1.149994
  0
LINE
  8
LVL0000
 62
  3
 10
      215.899994
 20
      214.000000
 30
        0.000000
 11
      220.699997
 21
      214.000000
 31
        0.000000
  0
LINE
  8
LVL0000
 62
  3
 10
      215.000000
 20
      247.129990
 30
        0.000000
 11
      222.000000
 21
      247.129990
 31
        0.000000
  0
LINE
  8
LVL0000
 62
  3
 10
      221.600006
 20
      241.629990
 30
        0.000000
 11
      222.000000
 21
      241.629990
 31
        0.000000
  0
LINE
  8
LVL0000
 62
  3
 10
      222.000000
 20
      241.629990
 30
        0.000000
 11
      222.000000
 21
      247.129990
 31
        0.000000
  0
LINE
  8
LVL0000
 62
  3
 10
      220.149994
 20
      243.579987
 30
        0.000000
 11
      220.149994
 21
      246.429993
 31
        0.000000
  0
LINE
  8
LVL0000
 62
  3
 10
      216.449997
 20
      243.579987
 30
        0.000000
 11
      216.449997
 21
      246.429993
 31
        0.000000
  0
LINE
  8
LVL0000
 62
  3
 10
      215.899994
 20
      242.129990
 30
        0.000000
 11
      220.699997
 21
      242.129990
 31
        0.000000
  0
LINE
  8
LVL0000
 62
  3
 10
      220.149994
 20
      243.579987
 30
        0.000000
 11
      222.000000
 21
      243.579987
 31
        0.000000
  0
LINE
  8
LVL0000
 62
  3
 10
      215.000000
 20
      243.579987
 30
        0.000000
 11
      216.449997
 21
      243.579987
 31
        0.000000
  0
LINE
  8
LVL0000
 62
  3
 10
      216.449997
 20
      246.429993
 30
        0.000000
 11
      220.149994
 21
      246.429993
 31
        0.000000
  0
CIRCLE
  8
LVL0000
 62
  3
 10
      218.300003
 20
      244.574982
 30
        0.000000
 40
        1.149994
  0
LINE
  8
LVL0000
 62
  3
 10
      252.399994
 20
      241.129990
 30
        0.000000
 11
      255.199997
 21
      241.129990
 31
        0.000000
  0
LINE
  8
LVL0000
 62
  3
 10
      252.399994
 20
      215.000000
 30
        0.000000
 11
      255.199997
 21
      215.000000
 31
        0.000000
  0
LINE
  8
LVL0000
 62
  3
 10
      252.399994
 20
      215.000000
 30
        0.000000
 11
      252.399994
 21
      241.129990
 31
        0.000000
  0
LINE
  8
LVL0000
 62
  3
 10
      255.199997
 20
      215.000000
 30
        0.000000
 11
      255.199997
 21
      241.129990
 31
        0.000000
  0
LINE
  8
LVL0000
 62
  3
 10
      257.100006
 20
      214.500000
 30
        0.000000
 11
      257.100006
 21
      241.629990
 31
        0.000000
  0
LINE
  8
LVL0000
 62
  3
 10
      250.500000
 20
      209.000000
 30
        0.000000
 11
      250.500000
 21
      247.129990
 31
        0.000000
  0
LINE
  8
LVL0000
 62
  3
 10
      251.399994
 20
      214.000000
 30
        0.000000
 11
      251.399994
 21
      242.129990
 31
        0.000000
  0
LINE
  8
LVL0000
 62
  3
 10
      256.199997
 20
      214.000000
 30
        0.000000
 11
      256.199997
 21
      242.129990
 31
        0.000000
  0
LINE
  8
LVL0000
 62
  3
 10
      257.100006
 20
      214.500000
 30
        0.000000
 11
      257.500000
 21
      214.500000
 31
        0.000000
  0
LINE
  8
LVL0000
 62
  3
 10
      257.500000
 20
      214.500000
 30
        0.000000
 11
      257.500000
 21
      209.000000
 31
        0.000000
  0
LINE
  8
LVL0000
 62
  3
 10
      250.500000
 20
      209.000000
 30
        0.000000
 11
      257.500000
 21
      209.000000
 31
        0.000000
  0
LINE
  8
LVL0000
 62
  3
 10
      255.649994
 20
      212.550003
 30
        0.000000
 11
      255.649994
 21
      209.699997
 31
        0.000000
  0
LINE
  8
LVL0000
 62
  3
 10
      251.949997
 20
      212.550003
 30
        0.000000
 11
      251.949997
 21
      209.699997
 31
        0.000000
  0
LINE
  8
LVL0000
 62
  3
 10
      255.649994
 20
      212.550003
 30
        0.000000
 11
      257.500000
 21
      212.550003
 31
        0.000000
  0
LINE
  8
LVL0000
 62
  3
 10
      250.500000
 20
      212.550003
 30
        0.000000
 11
      251.949997
 21
      212.550003
 31
        0.000000
  0
LINE
  8
LVL0000
 62
  3
 10
      251.949997
 20
      209.699997
 30
        0.000000
 11
      255.649994
 21
      209.699997
 31
        0.000000
  0
CIRCLE
  8
LVL0000
 62
  3
 10
      253.800003
 20
      211.555008
 30
        0.000000
 40
        1.149994
  0
LINE
  8
LVL0000
 62
  3
 10
      251.399994
 20
      214.000000
 30
        0.000000
 11
      256.199997
 21
      214.000000
 31
        0.000000
  0
LINE
  8
LVL0000
 62
  3
 10
      250.500000
 20
      247.129990
 30
        0.000000
 11
      257.500000
 21
      247.129990
 31
        0.000000
  0
LINE
  8
LVL0000
 62
  3
 10
      257.100006
 20
      241.629990
 30
        0.000000
 11
      257.500000
 21
      241.629990
 31
        0.000000
  0
LINE
  8
LVL0000
 62
  3
 10
      257.500000
 20
      241.629990
 30
        0.000000
 11
      257.500000
 21
      247.129990
 31
        0.000000
  0
LINE
  8
LVL0000
 62
  3
 10
      255.649994
 20
      243.579987
 30
        0.000000
 11
      255.649994
 21
      246.429993
 31
        0.000000
  0
LINE
  8
LVL0000
 62
  3
 10
      251.949997
 20
      243.579987
 30
        0.000000
 11
      251.949997
 21
      246.429993
 31
        0.000000
  0
LINE
  8
LVL0000
 62
  3
 10
      251.399994
 20
      242.129990
 30
        0.000000
 11
      256.199997
 21
      242.129990
 31
        0.000000
  0
LINE
  8
LVL0000
 62
  3
 10
      255.649994
 20
      243.579987
 30
        0.000000
 11
      257.500000
 21
      243.579987
 31
        0.000000
  0
LINE
  8
LVL0000
 62
  3
 10
      250.500000
 20
      243.579987
 30
        0.000000
 11
      251.949997
 21
      243.579987
 31
        0.000000
  0
LINE
  8
LVL0000
 62
  3
 10
      251.949997
 20
      246.429993
 30
        0.000000
 11
      255.649994
 21
      246.429993
 31
        0.000000
  0
CIRCLE
  8
LVL0000
 62
  3
 10
      253.800003
 20
      244.574982
 30
        0.000000
 40
        1.149994
  0
LINE
  8
LVL0000
 62
  3
 10
      287.899994
 20
      241.129990
 30
        0.000000
 11
      290.700012
 21
      241.129990
 31
        0.000000
  0
LINE
  8
LVL0000
 62
  3
 10
      287.899994
 20
      215.000000
 30
        0.000000
 11
      290.700012
 21
      215.000000
 31
        0.000000
  0
LINE
  8
LVL0000
 62
  3
 10
      287.899994
 20
      215.000000
 30
        0.000000
 11
      287.899994
 21
      241.129990
 31
        0.000000
  0
LINE
  8
LVL0000
 62
  3
 10
      290.700012
 20
      215.000000
 30
        0.000000
 11
      290.700012
 21
      241.129990
 31
        0.000000
  0
LINE
  8
LVL0000
 62
  3
 10
      292.600006
 20
      214.500000
 30
        0.000000
 11
      292.600006
 21
      241.629990
 31
        0.000000
  0
LINE
  8
LVL0000
 62
  3
 10
      286.000000
 20
      209.000000
 30
        0.000000
 11
      286.000000
 21
      247.129990
 31
        0.000000
  0
LINE
  8
LVL0000
 62
  3
 10
      286.899994
 20
      214.000000
 30
        0.000000
 11
      286.899994
 21
      242.129990
 31
        0.000000
  0
LINE
  8
LVL0000
 62
  3
 10
      291.700012
 20
      214.000000
 30
        0.000000
 11
      291.700012
 21
      242.129990
 31
        0.000000
  0
LINE
  8
LVL0000
 62
  3
 10
      292.600006
 20
      214.500000
 30
        0.000000
 11
      293.000000
 21
      214.500000
 31
        0.000000
  0
LINE
  8
LVL0000
 62
  3
 10
      293.000000
 20
      214.500000
 30
        0.000000
 11
      293.000000
 21
      209.000000
 31
        0.000000
  0
LINE
  8
LVL0000
 62
  3
 10
      286.000000
 20
      209.000000
 30
        0.000000
 11
      293.000000
 21
      209.000000
 31
        0.000000
  0
LINE
  8
LVL0000
 62
  3
 10
      291.149994
 20
      212.550003
 30
        0.000000
 11
      291.149994
 21
      209.699997
 31
        0.000000
  0
LINE
  8
LVL0000
 62
  3
 10
      287.450012
 20
      212.550003
 30
        0.000000
 11
      287.450012
 21
      209.699997
 31
        0.000000
  0
LINE
  8
LVL0000
 62
  3
 10
      291.149994
 20
      212.550003
 30
        0.000000
 11
      293.000000
 21
      212.550003
 31
        0.000000
  0
LINE
  8
LVL0000
 62
  3
 10
      286.000000
 20
      212.550003
 30
        0.000000
 11
      287.450012
 21
      212.550003
 31
        0.000000
  0
LINE
  8
LVL0000
 62
  3
 10
      287.450012
 20
      209.699997
 30
        0.000000
 11
      291.149994
 21
      209.699997
 31
        0.000000
  0
CIRCLE
  8
LVL0000
 62
  3
 10
      289.299988
 20
      211.555008
 30
        0.000000
 40
        1.150024
  0
LINE
  8
LVL0000
 62
  3
 10
      286.899994
 20
      214.000000
 30
        0.000000
 11
      291.700012
 21
      214.000000
 31
        0.000000
  0
LINE
  8
LVL0000
 62
  3
 10
      286.000000
 20
      247.129990
 30
        0.000000
 11
      293.000000
 21
      247.129990
 31
        0.000000
  0
LINE
  8
LVL0000
 62
  3
 10
      292.600006
 20
      241.629990
 30
        0.000000
 11
      293.000000
 21
      241.629990
 31
        0.000000
  0
LINE
  8
LVL0000
 62
  3
 10
      293.000000
 20
      241.629990
 30
        0.000000
 11
      293.000000
 21
      247.129990
 31
        0.000000
  0
LINE
  8
LVL0000
 62
  3
 10
      291.149994
 20
      243.579987
 30
        0.000000
 11
      291.149994
 21
      246.429993
 31
        0.000000
  0
LINE
  8
LVL0000
 62
  3
 10
      287.450012
 20
      243.579987
 30
        0.000000
 11
      287.450012
 21
      246.429993
 31
        0.000000
  0
LINE
  8
LVL0000
 62
  3
 10
      286.899994
 20
      242.129990
 30
        0.000000
 11
      291.700012
 21
      242.129990
 31
        0.000000
  0
LINE
  8
LVL0000
 62
  3
 10
      291.149994
 20
      243.579987
 30
        0.000000
 11
      293.000000
 21
      243.579987
 31
        0.000000
  0
LINE
  8
LVL0000
 62
  3
 10
      286.000000
 20
      243.579987
 30
        0.000000
 11
      287.450012
 21
      243.579987
 31
        0.000000
  0
LINE
  8
LVL0000
 62
  3
 10
      287.450012
 20
      246.429993
 30
        0.000000
 11
      291.149994
 21
      246.429993
 31
        0.000000
  0
CIRCLE
  8
LVL0000
 62
  3
 10
      289.299988
 20
      244.574982
 30
        0.000000
 40
        1.150024
  0
CIRCLE
  8
LVL0000
 62
  3
 10
      149.500000
 20
      160.999985
 30
        0.000000
 40
        2.500000
  0
CIRCLE
  8
LVL0000
 62
  3
 10
      291.500000
 20
      160.999985
 30
        0.000000
 40
        2.500000
  0
CIRCLE
  8
LVL0000
 62
  3
 10
      256.000000
 20
      160.999985
 30
        0.000000
 40
        2.500000
  0
CIRCLE
  8
LVL0000
 62
  3
 10
      220.500000
 20
      160.999985
 30
        0.000000
 40
        2.500000
  0
CIRCLE
  8
LVL0000
 62
  3
 10
      256.000015
 20
      161.000000
 30
        0.000000
 40
        2.500000
  0
CIRCLE
  8
LVL0000
 62
  3
 10
      291.500015
 20
      161.000000
 30
        0.000000
 40
        2.500000
  0
LINE
  8
LVL0000
 62
  3
 10
      -37.500002
 20
      156.000000
 30
        0.000000
 11
      -37.500002
 21
      249.499985
 31
        0.000000
  0
LINE
  8
LVL0000
 62
  3
 10
      -37.500002
 20
      249.499985
 30
        0.000000
 11
      -21.500000
 21
      249.499985
 31
        0.000000
  0
CIRCLE
  8
LVL0000
 62
  3
 10
      114.000000
 20
      161.000000
 30
        0.000000
 40
        2.500000
  0
CIRCLE
  8
LVL0000
 62
  3
 10
      149.500000
 20
      161.000000
 30
        0.000000
 40
        2.500000
  0
CIRCLE
  8
LVL0000
 62
  3
 10
      185.000000
 20
      161.000000
 30
        0.000000
 40
        2.500000
  0
CIRCLE
  8
LVL0000
 62
  3
 10
      220.500015
 20
      161.000000
 30
        0.000000
 40
        2.500000
  0
CIRCLE
  8
LVL0000
 62
  3
 10
      377.500015
 20
      159.500000
 30
        0.000000
 40
        1.750000
  0
CIRCLE
  8
LVL0000
 62
  3
 10
      377.500000
 20
      159.499985
 30
        0.000000
 40
        1.750000
  0
CIRCLE
  8
LVL0000
 62
  3
 10
      362.500000
 20
      160.999985
 30
        0.000000
 40
        2.500000
  0
CIRCLE
  8
LVL0000
 62
  3
 10
      362.500015
 20
      161.000000
 30
        0.000000
 40
        2.500000
  0
CIRCLE
  8
LVL0000
 62
  3
 10
      327.000015
 20
      161.000000
 30
        0.000000
 40
        2.500000
  0
CIRCLE
  8
LVL0000
 62
  3
 10
      327.000000
 20
      160.999985
 30
        0.000000
 40
        2.500000
  0
LINE
  8
LVL0000
 62
  3
 10
      -32.500000
 20
      187.999985
 30
        0.000000
 11
      -19.500000
 21
      187.999985
 31
        0.000000
  0
LINE
  8
LVL0000
 62
  3
 10
      -32.500000
 20
      187.999985
 30
        0.000000
 11
      -32.500000
 21
      167.999985
 31
        0.000000
  0
LINE
  8
LVL0000
 62
  3
 10
      -19.500000
 20
      187.999985
 30
        0.000000
 11
      -19.500000
 21
      167.999985
 31
        0.000000
  0
LINE
  8
LVL0000
 62
  3
 10
      -32.500000
 20
      167.999985
 30
        0.000000
 11
      -19.500000
 21
      167.999985
 31
        0.000000
  0
LINE
  8
LVL0000
 62
  3
 10
      -32.500000
 20
      187.149979
 30
        0.000000
 11
      -20.800003
 21
      187.149979
 31
        0.000000
  0
LINE
  8
LVL0000
 62
  3
 10
      -20.800003
 20
      187.999985
 30
        0.000000
 11
      -20.800003
 21
      187.149979
 31
        0.000000
  0
LINE
  8
LVL0000
 62
  3
 10
      -32.500000
 20
      185.849991
 30
        0.000000
 11
      -20.800003
 21
      185.849991
 31
        0.000000
  0
LINE
  8
LVL0000
 62
  3
 10
      -20.800003
 20
      185.849991
 30
        0.000000
 11
      -20.800003
 21
      178.649979
 31
        0.000000
  0
LINE
  8
LVL0000
 62
  3
 10
      -32.500000
 20
      178.649979
 30
        0.000000
 11
      -20.800003
 21
      178.649979
 31
        0.000000
  0
LINE
  8
LVL0000
 62
  3
 10
      -32.500000
 20
      177.349991
 30
        0.000000
 11
      -20.800003
 21
      177.349991
 31
        0.000000
  0
LINE
  8
LVL0000
 62
  3
 10
      -20.800003
 20
      177.349991
 30
        0.000000
 11
      -20.800003
 21
      170.149979
 31
        0.000000
  0
LINE
  8
LVL0000
 62
  3
 10
      -32.500000
 20
      170.149979
 30
        0.000000
 11
      -20.800003
 21
      170.149979
 31
        0.000000
  0
LINE
  8
LVL0000
 62
  3
 10
      -32.500000
 20
      168.849991
 30
        0.000000
 11
      -20.800003
 21
      168.849991
 31
        0.000000
  0
LINE
  8
LVL0000
 62
  3
 10
      -20.800003
 20
      168.849991
 30
        0.000000
 11
      -20.800003
 21
      167.999985
 31
        0.000000
  0
LINE
  8
LVL0000
 62
  3
 10
      -29.099998
 20
      185.849991
 30
        0.000000
 11
      -29.099998
 21
      178.649979
 31
        0.000000
  0
LINE
  8
LVL0000
 62
  3
 10
      -29.099998
 20
      177.349991
 30
        0.000000
 11
      -29.099998
 21
      170.149979
 31
        0.000000
  0
LINE
  8
LVL0000
 62
  3
 10
      -21.900002
 20
      185.849991
 30
        0.000000
 11
      -21.900002
 21
      178.649979
 31
        0.000000
  0
LINE
  8
LVL0000
 62
  3
 10
      -21.900002
 20
      177.349991
 30
        0.000000
 11
      -21.900002
 21
      170.149979
 31
        0.000000
  0
CIRCLE
  8
LVL0000
 62
  3
 10
      -25.500000
 20
      182.249985
 30
        0.000000
 40
        3.000000
  0
CIRCLE
  8
LVL0000
 62
  3
 10
      -25.500000
 20
      173.749985
 30
        0.000000
 40
        3.000000
  0
LINE
  8
LVL0000
 62
  3
 10
      -29.099998
 20
      176.249985
 30
        0.000000
 11
      -29.599998
 21
      176.249985
 31
        0.000000
  0
LINE
  8
LVL0000
 62
  3
 10
      -29.599998
 20
      176.249985
 30
        0.000000
 11
      -29.599998
 21
      171.249985
 31
        0.000000
  0
LINE
  8
LVL0000
 62
  3
 10
      -21.400002
 20
      176.249985
 30
        0.000000
 11
      -21.900002
 21
      176.249985
 31
        0.000000
  0
LINE
  8
LVL0000
 62
  3
 10
      -21.400002
 20
      176.249985
 30
        0.000000
 11
      -21.400002
 21
      171.249985
 31
        0.000000
  0
LINE
  8
LVL0000
 62
  3
 10
      -21.400002
 20
      184.749985
 30
        0.000000
 11
      -21.900002
 21
      184.749985
 31
        0.000000
  0
LINE
  8
LVL0000
 62
  3
 10
      -21.400002
 20
      184.749985
 30
        0.000000
 11
      -21.400002
 21
      179.749985
 31
        0.000000
  0
LINE
  8
LVL0000
 62
  3
 10
      -29.099998
 20
      184.749985
 30
        0.000000
 11
      -29.599998
 21
      184.749985
 31
        0.000000
  0
LINE
  8
LVL0000
 62
  3
 10
      -29.599998
 20
      184.749985
 30
        0.000000
 11
      -29.599998
 21
      179.749985
 31
        0.000000
  0
LINE
  8
LVL0000
 62
  3
 10
      -29.099998
 20
      179.749985
 30
        0.000000
 11
      -29.599998
 21
      179.749985
 31
        0.000000
  0
LINE
  8
LVL0000
 62
  3
 10
      -21.400002
 20
      179.749985
 30
        0.000000
 11
      -21.900002
 21
      179.749985
 31
        0.000000
  0
LINE
  8
LVL0000
 62
  3
 10
      -21.400002
 20
      171.249985
 30
        0.000000
 11
      -21.900002
 21
      171.249985
 31
        0.000000
  0
LINE
  8
LVL0000
 62
  3
 10
      -29.099998
 20
      171.249985
 30
        0.000000
 11
      -29.599998
 21
      171.249985
 31
        0.000000
  0
LINE
  8
LVL0000
 62
  3
 10
      -27.621323
 20
      180.128662
 30
        0.000000
 11
      -23.378677
 21
      184.371307
 31
        0.000000
  0
LINE
  8
LVL0000
 62
  3
 10
      -26.560661
 20
      183.310654
 30
        0.000000
 11
      -24.439346
 21
      181.189316
 31
        0.000000
  0
LINE
  8
LVL0000
 62
  3
 10
      -27.621323
 20
      171.628662
 30
        0.000000
 11
      -23.378677
 21
      175.871307
 31
        0.000000
  0
LINE
  8
LVL0000
 62
  3
 10
      -26.560661
 20
      174.810654
 30
        0.000000
 11
      -24.439346
 21
      172.689316
 31
        0.000000
  0
LINE
  8
LVL0000
 62
  3
 10
      378.500015
 20
      249.499985
 30
        0.000000
 11
      378.500015
 21
      254.499985
 31
        0.000000
  0
LINE
  8
LVL0000
 62
  3
 10
      378.500000
 20
      254.499985
 30
        0.000000
 11
      378.500000
 21
      249.499985
 31
        0.000000
  0
LINE
  8
LVL0000
 62
  3
 10
      378.500015
 20
      249.499985
 30
        0.000000
 11
      399.500015
 21
      249.499985
 31
        0.000000
  0
LINE
  8
LVL0000
 62
  3
 10
      -37.500000
 20
      155.999985
 30
        0.000000
 11
      399.500000
 21
      155.999985
 31
        0.000000
  0
CIRCLE
  8
LVL0000
 62
  3
 10
      377.500000
 20
      159.499985
 30
        0.000000
 40
        1.750000
  0
CIRCLE
  8
LVL0000
 62
  3
 10
      220.500017
 20
      160.999985
 30
        0.000000
 40
        2.500000
  0
CIRCLE
  8
LVL0000
 62
  3
 10
      185.000002
 20
      160.999985
 30
        0.000000
 40
        2.500000
  0
CIRCLE
  8
LVL0000
 62
  3
 10
      149.500002
 20
      160.999985
 30
        0.000000
 40
        2.500000
  0
CIRCLE
  8
LVL0000
 62
  3
 10
      114.000002
 20
      160.999985
 30
        0.000000
 40
        2.500000
  0
LINE
  8
LVL0000
 62
  3
 10
      -37.500000
 20
      249.499969
 30
        0.000000
 11
      -21.499998
 21
      249.499969
 31
        0.000000
  0
LINE
  8
LVL0000
 62
  3
 10
      -37.500000
 20
      155.999985
 30
        0.000000
 11
      -37.500000
 21
      249.499969
 31
        0.000000
  0
CIRCLE
  8
LVL0000
 62
  3
 10
      291.500017
 20
      160.999985
 30
        0.000000
 40
        2.500000
  0
CIRCLE
  8
LVL0000
 62
  3
 10
      256.000017
 20
      160.999985
 30
        0.000000
 40
        2.500000
  0
LINE
  8
LVL0000
 62
  3
 10
      378.500015
 20
      249.499969
 30
        0.000000
 11
      399.500015
 21
      249.499969
 31
        0.000000
  0
LINE
  8
LVL0000
 62
  3
 10
      378.500015
 20
      249.499969
 30
        0.000000
 11
      378.500015
 21
      254.499969
 31
        0.000000
  0
LINE
  8
LVL0000
 62
  3
 10
      -21.499998
 20
      254.499969
 30
        0.000000
 11
      378.500015
 21
      254.499969
 31
        0.000000
  0
CIRCLE
  8
LVL0000
 62
  3
 10
      374.000015
 20
      250.999969
 30
        0.000000
 40
        2.750000
  0
CIRCLE
  8
LVL0000
 62
  3
 10
      387.500000
 20
      159.499985
 30
        0.000000
 40
        2.750000
  0
CIRCLE
  8
LVL0000
 62
  3
 10
      272.500002
 20
      159.499985
 30
        0.000000
 40
        2.750000
  0
CIRCLE
  8
LVL0000
 62
  3
 10
      201.500002
 20
      159.499985
 30
        0.000000
 40
        2.750000
  0
CIRCLE
  8
LVL0000
 62
  3
 10
      130.500002
 20
      159.499985
 30
        0.000000
 40
        2.750000
  0
CIRCLE
  8
LVL0000
 62
  3
 10
       59.500002
 20
      159.499985
 30
        0.000000
 40
        2.750000
  0
CIRCLE
  8
LVL0000
 62
  3
 10
      -25.499998
 20
      159.499985
 30
        0.000000
 40
        2.750000
  0
CIRCLE
  8
LVL0000
 62
  3
 10
      272.500002
 20
      250.999969
 30
        0.000000
 40
        2.750000
  0
CIRCLE
  8
LVL0000
 62
  3
 10
      201.500002
 20
      250.999969
 30
        0.000000
 40
        2.750000
  0
CIRCLE
  8
LVL0000
 62
  3
 10
      130.500002
 20
      250.999969
 30
        0.000000
 40
        2.750000
  0
CIRCLE
  8
LVL0000
 62
  3
 10
       59.500002
 20
      250.999969
 30
        0.000000
 40
        2.750000
  0
CIRCLE
  8
LVL0000
 62
  3
 10
      -17.499998
 20
      250.999969
 30
        0.000000
 40
        2.750000
  0
LINE
  8
LVL0000
 62
  3
 10
      -25.499998
 20
      161.299984
 30
        0.000000
 11
      -25.499998
 21
      157.699986
 31
        0.000000
  0
LINE
  8
LVL0000
 62
  3
 10
      -27.299982
 20
      159.499966
 30
        0.000000
 11
      -23.700014
 21
      159.499985
 31
        0.000000
  0
LINE
  8
LVL0000
 62
  3
 10
      -19.299982
 20
      250.999960
 30
        0.000000
 11
      -15.700014
 21
      250.999979
 31
        0.000000
  0
LINE
  8
LVL0000
 62
  3
 10
      -17.499998
 20
      252.799978
 30
        0.000000
 11
      -17.499998
 21
      249.199980
 31
        0.000000
  0
LINE
  8
LVL0000
 62
  3
 10
       59.500002
 20
      252.799978
 30
        0.000000
 11
       59.500002
 21
      249.199980
 31
        0.000000
  0
LINE
  8
LVL0000
 62
  3
 10
       57.700018
 20
      250.999960
 30
        0.000000
 11
       61.299986
 21
      250.999979
 31
        0.000000
  0
LINE
  8
LVL0000
 62
  3
 10
       57.700018
 20
      159.499975
 30
        0.000000
 11
       61.299986
 21
      159.499994
 31
        0.000000
  0
LINE
  8
LVL0000
 62
  3
 10
       59.500002
 20
      161.299994
 30
        0.000000
 11
       59.500002
 21
      157.699995
 31
        0.000000
  0
LINE
  8
LVL0000
 62
  3
 10
      128.700018
 20
      250.999960
 30
        0.000000
 11
      132.299986
 21
      250.999979
 31
        0.000000
  0
LINE
  8
LVL0000
 62
  3
 10
      130.500002
 20
      252.799978
 30
        0.000000
 11
      130.500002
 21
      249.199980
 31
        0.000000
  0
LINE
  8
LVL0000
 62
  3
 10
      130.500002
 20
      161.299994
 30
        0.000000
 11
      130.500002
 21
      157.699995
 31
        0.000000
  0
LINE
  8
LVL0000
 62
  3
 10
      128.700018
 20
      159.499975
 30
        0.000000
 11
      132.299986
 21
      159.499994
 31
        0.000000
  0
LINE
  8
LVL0000
 62
  3
 10
      199.700018
 20
      159.499975
 30
        0.000000
 11
      203.299986
 21
      159.499994
 31
        0.000000
  0
LINE
  8
LVL0000
 62
  3
 10
      201.500002
 20
      161.299994
 30
        0.000000
 11
      201.500002
 21
      157.699995
 31
        0.000000
  0
LINE
  8
LVL0000
 62
  3
 10
      201.500002
 20
      252.799978
 30
        0.000000
 11
      201.500002
 21
      249.199980
 31
        0.000000
  0
LINE
  8
LVL0000
 62
  3
 10
      199.700018
 20
      250.999960
 30
        0.000000
 11
      203.299986
 21
      250.999979
 31
        0.000000
  0
LINE
  8
LVL0000
 62
  3
 10
      270.700018
 20
      250.999960
 30
        0.000000
 11
      274.299986
 21
      250.999979
 31
        0.000000
  0
LINE
  8
LVL0000
 62
  3
 10
      272.500002
 20
      252.799978
 30
        0.000000
 11
      272.500002
 21
      249.199980
 31
        0.000000
  0
LINE
  8
LVL0000
 62
  3
 10
      272.500002
 20
      161.299994
 30
        0.000000
 11
      272.500002
 21
      157.699995
 31
        0.000000
  0
LINE
  8
LVL0000
 62
  3
 10
      270.700018
 20
      159.499975
 30
        0.000000
 11
      274.299986
 21
      159.499994
 31
        0.000000
  0
LINE
  8
LVL0000
 62
  3
 10
      385.700016
 20
      159.499975
 30
        0.000000
 11
      389.299984
 21
      159.499994
 31
        0.000000
  0
LINE
  8
LVL0000
 62
  3
 10
      387.500000
 20
      161.299994
 30
        0.000000
 11
      387.500000
 21
      157.699995
 31
        0.000000
  0
LINE
  8
LVL0000
 62
  3
 10
      374.000015
 20
      252.799978
 30
        0.000000
 11
      374.000015
 21
      249.199980
 31
        0.000000
  0
LINE
  8
LVL0000
 62
  3
 10
      372.200031
 20
      250.999960
 30
        0.000000
 11
      375.799999
 21
      250.999979
 31
        0.000000
  0
LINE
  8
LVL0000
 62
  3
 10
      -37.500000
 20
      155.999985
 30
        0.000000
 11
      399.500015
 21
      155.999985
 31
        0.000000
  0
LINE
  8
LVL0000
 62
  3
 10
      399.500015
 20
      155.999985
 30
        0.000000
 11
      399.500015
 21
      249.499969
 31
        0.000000
  0
CIRCLE
  8
LVL0000
 62
  3
 10
      364.000015
 20
      250.999969
 30
        0.000000
 40
        1.750000
  0
CIRCLE
  8
LVL0000
 62
  3
 10
      327.000017
 20
      160.999985
 30
        0.000000
 40
        2.500000
  0
CIRCLE
  8
LVL0000
 62
  3
 10
      362.500017
 20
      160.999985
 30
        0.000000
 40
        2.500000
  0
LINE
  8
LVL0000
 62
  3
 10
      399.500000
 20
      249.499985
 30
        0.000000
 11
      378.500000
 21
      249.499985
 31
        0.000000
  0
LINE
  8
LVL0000
 62
  3
 10
      -37.500002
 20
      156.000000
 30
        0.000000
 11
      399.500015
 21
      156.000000
 31
        0.000000
  0
LINE
  8
LVL0000
 62
  3
 10
      -21.500000
 20
      254.499985
 30
        0.000000
 11
      -21.500000
 21
      249.499985
 31
        0.000000
  0
LINE
  8
LVL0000
 62
  3
 10
      -37.500000
 20
      249.499985
 30
        0.000000
 11
      -21.500000
 21
      249.499985
 31
        0.000000
  0
CIRCLE
  8
LVL0000
 62
  3
 10
       -7.500000
 20
      250.999985
 30
        0.000000
 40
        1.750000
  0
CIRCLE
  8
LVL0000
 62
  3
 10
      185.000000
 20
      160.999985
 30
        0.000000
 40
        2.500000
  0
LINE
  8
LVL0000
 62
  3
 10
      389.500000
 20
       45.614990
 30
        0.000000
 11
      389.500000
 21
       41.314987
 31
        0.000000
  0
LINE
  8
LVL0000
 62
  3
 10
      384.900024
 20
       45.614990
 30
        0.000000
 11
      384.900024
 21
       41.314987
 31
        0.000000
  0
LINE
  8
LVL0000
 62
  3
 10
      389.500000
 20
       10.784988
 30
        0.000000
 11
      389.500000
 21
        6.484985
 31
        0.000000
  0
LINE
  8
LVL0000
 62
  3
 10
      384.900024
 20
       10.784988
 30
        0.000000
 11
      384.900024
 21
        6.484985
 31
        0.000000
  0
LINE
  8
LVL0000
 62
  3
 10
      385.450012
 20
        9.799988
 30
        0.000000
 11
      388.950012
 21
        9.799988
 31
        0.000000
  0
LINE
  8
LVL0000
 62
  3
 10
      385.450012
 20
       42.299988
 30
        0.000000
 11
      388.950012
 21
       42.299988
 31
        0.000000
  0
LINE
  8
LVL0000
 62
  3
 10
      384.900024
 20
       45.614990
 30
        0.000000
 11
      389.500000
 21
       45.614990
 31
        0.000000
  0
LINE
  8
LVL0000
 62
  3
 10
      384.900024
 20
        6.484985
 30
        0.000000
 11
      389.500000
 21
        6.484985
 31
        0.000000
  0
LINE
  8
LVL0000
 62
  3
 10
      388.950012
 20
       10.784988
 30
        0.000000
 11
      388.950012
 21
        9.799988
 31
        0.000000
  0
LINE
  8
LVL0000
 62
  3
 10
      385.450012
 20
       10.784988
 30
        0.000000
 11
      385.450012
 21
        9.799988
 31
        0.000000
  0
LINE
  8
LVL0000
 62
  3
 10
      388.950012
 20
       42.299988
 30
        0.000000
 11
      388.950012
 21
       41.314987
 31
        0.000000
  0
LINE
  8
LVL0000
 62
  3
 10
      385.450012
 20
       42.299988
 30
        0.000000
 11
      385.450012
 21
       41.314987
 31
        0.000000
  0
LINE
  8
LVL0000
 62
  3
 10
      390.500000
 20
       41.314987
 30
        0.000000
 11
      390.500000
 21
       10.784988
 31
        0.000000
  0
LINE
  8
LVL0000
 62
  3
 10
      383.899994
 20
       10.784988
 30
        0.000000
 11
      390.900024
 21
       10.784988
 31
        0.000000
  0
LINE
  8
LVL0000
 62
  3
 10
      383.899994
 20
       41.314987
 30
        0.000000
 11
      390.900024
 21
       41.314987
 31
        0.000000
  0
LINE
  8
LVL0000
 62
  3
 10
      390.500000
 20
       39.114990
 30
        0.000000
 11
      390.900024
 21
       39.114990
 31
        0.000000
  0
LINE
  8
LVL0000
 62
  3
 10
      390.500000
 20
       12.984985
 30
        0.000000
 11
      390.900024
 21
       12.984985
 31
        0.000000
  0
LINE
  8
LVL0000
 62
  3
 10
      390.900024
 20
       12.984985
 30
        0.000000
 11
      390.900024
 21
        5.784988
 31
        0.000000
  0
LINE
  8
LVL0000
 62
  3
 10
      390.900024
 20
       46.314987
 30
        0.000000
 11
      390.900024
 21
       39.114990
 31
        0.000000
  0
LINE
  8
LVL0000
 62
  3
 10
      383.899994
 20
       41.314987
 30
        0.000000
 11
      390.900024
 21
       41.314987
 31
        0.000000
  0
LINE
  8
LVL0000
 62
  3
 10
      383.899994
 20
        5.784988
 30
        0.000000
 11
      390.900024
 21
        5.784988
 31
        0.000000
  0
LINE
  8
LVL0000
 62
  3
 10
      383.899994
 20
       46.314987
 30
        0.000000
 11
      390.900024
 21
       46.314987
 31
        0.000000
  0
LINE
  8
LVL0000
 62
  3
 10
      383.899994
 20
       46.314987
 30
        0.000000
 11
      383.899994
 21
        5.784988
 31
        0.000000
  0
LINE
  8
LVL0000
 62
  3
 10
      386.247498
 20
       38.964981
 30
        0.000000
 11
      386.247498
 21
       13.134987
 31
        0.000000
  0
LINE
  8
LVL0000
 62
  3
 10
      388.152527
 20
       38.964981
 30
        0.000000
 11
      388.152527
 21
       13.134987
 31
        0.000000
  0
CIRCLE
  8
LVL0000
 62
  3
 10
      387.200012
 20
        8.269989
 30
        0.000000
 40
        1.149994
  0
CIRCLE
  8
LVL0000
 62
  3
 10
      387.200012
 20
       43.829987
 30
        0.000000
 40
        1.149994
  0
LINE
  8
LVL0000
 62
  3
 10
      385.950012
 20
       38.964981
 30
        0.000000
 11
      385.950012
 21
       13.134987
 31
        0.000000
  0
LINE
  8
LVL0000
 62
  3
 10
      388.450012
 20
       38.964981
 30
        0.000000
 11
      388.450012
 21
       13.134987
 31
        0.000000
  0
LINE
  8
LVL0000
 62
  3
 10
      384.700012
 20
       40.314987
 30
        0.000000
 11
      384.700012
 21
       11.784988
 31
        0.000000
  0
LINE
  8
LVL0000
 62
  3
 10
      389.700012
 20
       40.314987
 30
        0.000000
 11
      389.700012
 21
       11.784988
 31
        0.000000
  0
LINE
  8
LVL0000
 62
  3
 10
      385.950012
 20
       13.134987
 30
        0.000000
 11
      388.450012
 21
       13.134987
 31
        0.000000
  0
LINE
  8
LVL0000
 62
  3
 10
      385.950012
 20
       38.964981
 30
        0.000000
 11
      388.450012
 21
       38.964981
 31
        0.000000
  0
LINE
  8
LVL0000
 62
  3
 10
      384.700012
 20
       11.784988
 30
        0.000000
 11
      389.700012
 21
       11.784988
 31
        0.000000
  0
LINE
  8
LVL0000
 62
  3
 10
      384.700012
 20
       40.314987
 30
        0.000000
 11
      389.700012
 21
       40.314987
 31
        0.000000
  0
LINE
  8
LVL0000
 62
  3
 10
      476.899994
 20
      265.000000
 30
        0.000000
 11
      476.899994
 21
      249.000000
 31
        0.000000
  0
LINE
  8
LVL0000
 62
  3
 10
      475.299988
 20
      265.000000
 30
        0.000000
 11
      475.299988
 21
      246.300000
 31
        0.000000
  0
LINE
  8
LVL0000
 62
  3
 10
      475.299988
 20
      265.000000
 30
        0.000000
 11
      481.299994
 21
      265.000000
 31
        0.000000
  0
LINE
  8
LVL0000
 62
  3
 10
      476.899994
 20
      263.399994
 30
        0.000000
 11
      480.499994
 21
      263.399994
 31
        0.000000
  0
DIMENSION
  8
LVL0000
 62
  5
  2
BLK0001
 10
      399.500000
 20
      105.914536
 11
      174.469803
 21
      106.414536
 13
      399.500000
 23
      139.000000
 14
      -37.500000
 24
      139.000000
 50
        0.0
 70
  0
  0
DIMENSION
  8
LVL0000
 62
  5
  2
BLK0002
 10
      391.500000
 20
      116.283058
 11
      175.697662
 21
      116.783058
 13
      391.500000
 23
      139.000000
 14
      -29.500000
 24
      139.000000
 50
        0.0
 70
  0
  0
DIMENSION
  8
LVL0000
 62
  5
  2
BLK0003
 10
      434.296844
 20
      265.000000
 11
      433.796844
 21
      189.476654
 13
      383.500000
 23
      265.000000
 14
      397.500000
 24
      137.000000
 50
       90.0
 70
  0
  0
DIMENSION
  8
LVL0000
 62
  5
  2
BLK0004
 10
      424.542236
 20
      257.000000
 11
      424.042236
 21
      190.090576
 13
      391.500000
 23
      257.000000
 14
      391.500000
 24
      139.000000
 50
       90.0
 70
  0
  0
DIMENSION
  8
LVL0000
 62
  5
  2
BLK0005
 10
      424.542236
 20
      273.986206
 11
      424.042236
 21
      269.986206
 13
      383.500000
 23
      265.000000
 14
      408.771118
 24
      257.000000
 50
       90.0
 70
  0
  0
DIMENSION
  8
LVL0000
 62
  5
  2
BLK0006
 10
      497.870209
 20
      274.183044
 11
      485.870209
 21
      274.683044
 13
      475.299988
 23
      265.000000
 14
      482.899994
 24
      263.399994
 50
        0.0
 70
  0
  0
LINE
  8
LVL0000
  6
CENTER
 62
  3
 10
        0.000000
 20
      -65.000000
 30
        0.000000
 11
        0.000000
 21
       65.000000
 31
        0.000000
  0
LINE
  8
LVL0000
  6
CENTER
 62
  3
 10
      106.500000
 20
      -65.000000
 30
        0.000000
 11
      106.500000
 21
       65.000000
 31
        0.000000
  0
LINE
  8
LVL0000
  6
CENTER
 62
  3
 10
      142.000000
 20
      -65.000000
 30
        0.000000
 11
      142.000000
 21
       65.000000
 31
        0.000000
  0
LINE
  8
LVL0000
  6
CENTER
 62
  3
 10
      177.500000
 20
      -65.000000
 30
        0.000000
 11
      177.500000
 21
       65.000000
 31
        0.000000
  0
LINE
  8
LVL0000
  6
CENTER
 62
  3
 10
      213.000000
 20
      -65.000000
 30
        0.000000
 11
      213.000000
 21
       65.000000
 31
        0.000000
  0
LINE
  8
LVL0000
  6
CENTER
 62
  3
 10
      248.500000
 20
      -65.000000
 30
        0.000000
 11
      248.500000
 21
       65.000000
 31
        0.000000
  0
LINE
  8
LVL0000
  6
CENTER
 62
  3
 10
      284.000000
 20
      -65.000000
 30
        0.000000
 11
      284.000000
 21
       65.000000
 31
        0.000000
  0
LINE
  8
LVL0000
  6
CENTER
 62
  3
 10
      319.500000
 20
      -65.000000
 30
        0.000000
 11
      319.500000
 21
       65.000000
 31
        0.000000
  0
LINE
  8
LVL0000
  6
CENTER
 62
  3
 10
      355.000000
 20
      -65.000000
 30
        0.000000
 11
      355.000000
 21
       65.000000
 31
        0.000000
  0
LINE
  8
LVL0000
  6
CENTER
 62
  3
 10
      372.500000
 20
        0.000000
 30
        0.000000
 11
      -17.500000
 21
        0.000000
 31
        0.000000
  0
LINE
  8
LVL0000
 62
  3
 10
      372.500000
 20
       50.999962
 30
        0.000000
 11
      375.799999
 21
       50.999979
 31
        0.000000
  0
ARC
  8
LVL0000
 62
  3
 10
      374.000015
 20
       50.999969
 30
        0.000000
 40
        2.750000
 50
      236.943893
 51
      483.056107
  0
LINE
  8
LVL0000
 62
  3
 10
      372.500000
 20
      -55.000000
 30
        0.000000
 11
      383.500000
 21
      -55.000000
 31
        0.000000
  0
LINE
  8
LVL0000
 62
  3
 10
      372.500000
 20
      -44.000000
 30
        0.000000
 11
      399.500015
 21
      -44.000000
 31
        0.000000
  0
LINE
  8
LVL0000
 62
  3
 10
      -37.500002
 20
      -44.000000
 30
        0.000000
 11
      -17.500000
 21
      -44.000000
 31
        0.000000
  0
LINE
  8
LVL0000
 62
  3
 10
      372.500000
 20
      -44.000015
 30
        0.000000
 11
      399.500015
 21
      -44.000015
 31
        0.000000
  0
LINE
  8
LVL0000
 62
  3
 10
      -37.500000
 20
      -44.000015
 30
        0.000000
 11
      -17.500000
 21
      -44.000015
 31
        0.000000
  0
LINE
  8
LVL0000
 62
  3
 10
      372.500000
 20
       54.499969
 30
        0.000000
 11
      378.500015
 21
       54.499969
 31
        0.000000
  0
LINE
  8
LVL0000
 62
  3
 10
      -21.499998
 20
       54.499969
 30
        0.000000
 11
      -17.500000
 21
       54.499969
 31
        0.000000
  0
LINE
  8
LVL0000
 62
  3
 10
      372.500000
 20
      -44.000015
 30
        0.000000
 11
      399.500000
 21
      -44.000015
 31
        0.000000
  0
LINE
  8
LVL0000
 62
  3
 10
      -37.500000
 20
      -44.000015
 30
        0.000000
 11
      -17.500000
 21
      -44.000015
 31
        0.000000
  0
LINE
  8
LVL0000
 62
  3
 10
      -17.500000
 20
      -46.900000
 30
        0.000000
 11
      -35.000000
 21
      -46.900000
 31
        0.000000
  0
LINE
  8
LVL0000
 62
  3
 10
      397.000000
 20
      -46.900000
 30
        0.000000
 11
      372.500000
 21
      -46.900000
 31
        0.000000
  0
LINE
  8
LVL0000
 62
  3
 10
      372.500000
 20
      -65.000000
 30
        0.000000
 11
      372.500000
 21
       65.000000
 31
        0.000000
  0
LINE
  8
LVL0000
 62
  3
 10
      337.500000
 20
      -65.000000
 30
        0.000000
 11
      337.500000
 21
       65.000000
 31
        0.000000
  0
LINE
  8
LVL0000
 62
  3
 10
      302.000000
 20
      -65.000000
 30
        0.000000
 11
      302.000000
 21
       65.000000
 31
        0.000000
  0
LINE
  8
LVL0000
 62
  3
 10
      337.000000
 20
      -65.000000
 30
        0.000000
 11
      337.000000
 21
       65.000000
 31
        0.000000
  0
LINE
  8
LVL0000
 62
  3
 10
      301.500000
 20
      -65.000000
 30
        0.000000
 11
      301.500000
 21
       65.000000
 31
        0.000000
  0
LINE
  8
LVL0000
 62
  3
 10
      266.500000
 20
      -65.000000
 30
        0.000000
 11
      266.500000
 21
       65.000000
 31
        0.000000
  0
LINE
  8
LVL0000
 62
  3
 10
      231.000000
 20
      -65.000000
 30
        0.000000
 11
      231.000000
 21
       65.000000
 31
        0.000000
  0
LINE
  8
LVL0000
 62
  3
 10
      266.000000
 20
      -65.000000
 30
        0.000000
 11
      266.000000
 21
       65.000000
 31
        0.000000
  0
LINE
  8
LVL0000
 62
  3
 10
      230.500000
 20
      -65.000000
 30
        0.000000
 11
      230.500000
 21
       65.000000
 31
        0.000000
  0
LINE
  8
LVL0000
 62
  3
 10
      195.500000
 20
      -65.000000
 30
        0.000000
 11
      195.500000
 21
       65.000000
 31
        0.000000
  0
LINE
  8
LVL0000
 62
  3
 10
      160.000000
 20
      -65.000000
 30
        0.000000
 11
      160.000000
 21
       65.000000
 31
        0.000000
  0
LINE
  8
LVL0000
 62
  3
 10
      195.000000
 20
      -65.000000
 30
        0.000000
 11
      195.000000
 21
       65.000000
 31
        0.000000
  0
LINE
  8
LVL0000
 62
  3
 10
      159.500000
 20
      -65.000000
 30
        0.000000
 11
      159.500000
 21
       65.000000
 31
        0.000000
  0
LINE
  8
LVL0000
 62
  3
 10
      124.500000
 20
      -65.000000
 30
        0.000000
 11
      124.500000
 21
       65.000000
 31
        0.000000
  0
LINE
  8
LVL0000
 62
  3
 10
      -21.500000
 20
      -55.000000
 30
        0.000000
 11
      -17.500000
 21
      -55.000000
 31
        0.000000
  0
LINE
  8
LVL0000
 62
  3
 10
      124.000000
 20
      -65.000000
 30
        0.000000
 11
      124.000000
 21
       65.000000
 31
        0.000000
  0
LINE
  8
LVL0000
 62
  3
 10
       89.000000
 20
      -65.000000
 30
        0.000000
 11
       89.000000
 21
       65.000000
 31
        0.000000
  0
LINE
  8
LVL0000
 62
  3
 10
       88.500000
 20
      -65.000000
 30
        0.000000
 11
       88.500000
 21
       65.000000
 31
        0.000000
  0
LINE
  8
LVL0000
 62
  3
 10
       18.000000
 20
      -65.000000
 30
        0.000000
 11
       18.000000
 21
       65.000000
 31
        0.000000
  0
LINE
  8
LVL0000
 62
  3
 10
       17.500000
 20
      -65.000000
 30
        0.000000
 11
       17.500000
 21
       65.000000
 31
        0.000000
  0
LINE
  8
LVL0000
 62
  3
 10
      -17.500000
 20
      -65.000000
 30
        0.000000
 11
      -17.500000
 21
       65.000000
 31
        0.000000
  0
LINE
  8
LVL0000
 62
  3
 10
      -19.299982
 20
       50.999960
 30
        0.000000
 11
      -17.500000
 21
       50.999969
 31
        0.000000
  0
ARC
  8
LVL0000
 62
  3
 10
      -17.499998
 20
       50.999969
 30
        0.000000
 40
        2.750000
 50
       90.000000
 51
      270.000000
  0
LINE
  8
LVL0000
 62
  3
 10
      -37.500002
 20
      -44.000000
 30
        0.000000
 11
      -37.500002
 21
       49.499985
 31
        0.000000
  0
LINE
  8
LVL0000
 62
  3
 10
      -37.500002
 20
       49.499985
 30
        0.000000
 11
      -21.500000
 21
       49.499985
 31
        0.000000
  0
CIRCLE
  8
LVL0000
 62
  3
 10
      377.500015
 20
      -40.500000
 30
        0.000000
 40
        1.750000
  0
CIRCLE
  8
LVL0000
 62
  3
 10
      377.500000
 20
      -40.500015
 30
        0.000000
 40
        1.750000
  0
LINE
  8
LVL0000
 62
  3
 10
      -32.500000
 20
      -12.000015
 30
        0.000000
 11
      -19.500000
 21
      -12.000015
 31
        0.000000
  0
LINE
  8
LVL0000
 62
  3
 10
      -32.500000
 20
      -12.000015
 30
        0.000000
 11
      -32.500000
 21
      -32.000015
 31
        0.000000
  0
LINE
  8
LVL0000
 62
  3
 10
      -19.500000
 20
      -12.000015
 30
        0.000000
 11
      -19.500000
 21
      -32.000015
 31
        0.000000
  0
LINE
  8
LVL0000
 62
  3
 10
      -32.500000
 20
      -32.000015
 30
        0.000000
 11
      -19.500000
 21
      -32.000015
 31
        0.000000
  0
LINE
  8
LVL0000
 62
  3
 10
      -32.500000
 20
      -12.850021
 30
        0.000000
 11
      -20.800003
 21
      -12.850021
 31
        0.000000
  0
LINE
  8
LVL0000
 62
  3
 10
      -20.800003
 20
      -12.000015
 30
        0.000000
 11
      -20.800003
 21
      -12.850021
 31
        0.000000
  0
LINE
  8
LVL0000
 62
  3
 10
      -32.500000
 20
      -14.150009
 30
        0.000000
 11
      -20.800003
 21
      -14.150009
 31
        0.000000
  0
LINE
  8
LVL0000
 62
  3
 10
      -20.800003
 20
      -14.150009
 30
        0.000000
 11
      -20.800003
 21
      -21.350021
 31
        0.000000
  0
LINE
  8
LVL0000
 62
  3
 10
      -32.500000
 20
      -21.350021
 30
        0.000000
 11
      -20.800003
 21
      -21.350021
 31
        0.000000
  0
LINE
  8
LVL0000
 62
  3
 10
      -32.500000
 20
      -22.650009
 30
        0.000000
 11
      -20.800003
 21
      -22.650009
 31
        0.000000
  0
LINE
  8
LVL0000
 62
  3
 10
      -20.800003
 20
      -22.650009
 30
        0.000000
 11
      -20.800003
 21
      -29.850021
 31
        0.000000
  0
LINE
  8
LVL0000
 62
  3
 10
      -32.500000
 20
      -29.850021
 30
        0.000000
 11
      -20.800003
 21
      -29.850021
 31
        0.000000
  0
LINE
  8
LVL0000
 62
  3
 10
      -32.500000
 20
      -31.150009
 30
        0.000000
 11
      -20.800003
 21
      -31.150009
 31
        0.000000
  0
LINE
  8
LVL0000
 62
  3
 10
      -20.800003
 20
      -31.150009
 30
        0.000000
 11
      -20.800003
 21
      -32.000015
 31
        0.000000
  0
LINE
  8
LVL0000
 62
  3
 10
      -29.099998
 20
      -14.150009
 30
        0.000000
 11
      -29.099998
 21
      -21.350021
 31
        0.000000
  0
LINE
  8
LVL0000
 62
  3
 10
      -29.099998
 20
      -22.650009
 30
        0.000000
 11
      -29.099998
 21
      -29.850021
 31
        0.000000
  0
LINE
  8
LVL0000
 62
  3
 10
      -21.900002
 20
      -14.150009
 30
        0.000000
 11
      -21.900002
 21
      -21.350021
 31
        0.000000
  0
LINE
  8
LVL0000
 62
  3
 10
      -21.900002
 20
      -22.650009
 30
        0.000000
 11
      -21.900002
 21
      -29.850021
 31
        0.000000
  0
CIRCLE
  8
LVL0000
 62
  3
 10
      -25.500000
 20
      -17.750015
 30
        0.000000
 40
        3.000000
  0
CIRCLE
  8
LVL0000
 62
  3
 10
      -25.500000
 20
      -26.250015
 30
        0.000000
 40
        3.000000
  0
LINE
  8
LVL0000
 62
  3
 10
      -29.099998
 20
      -23.750015
 30
        0.000000
 11
      -29.599998
 21
      -23.750015
 31
        0.000000
  0
LINE
  8
LVL0000
 62
  3
 10
      -29.599998
 20
      -23.750015
 30
        0.000000
 11
      -29.599998
 21
      -28.750015
 31
        0.000000
  0
LINE
  8
LVL0000
 62
  3
 10
      -21.400002
 20
      -23.750015
 30
        0.000000
 11
      -21.900002
 21
      -23.750015
 31
        0.000000
  0
LINE
  8
LVL0000
 62
  3
 10
      -21.400002
 20
      -23.750015
 30
        0.000000
 11
      -21.400002
 21
      -28.750015
 31
        0.000000
  0
LINE
  8
LVL0000
 62
  3
 10
      -21.400002
 20
      -15.250015
 30
        0.000000
 11
      -21.900002
 21
      -15.250015
 31
        0.000000
  0
LINE
  8
LVL0000
 62
  3
 10
      -21.400002
 20
      -15.250015
 30
        0.000000
 11
      -21.400002
 21
      -20.250015
 31
        0.000000
  0
LINE
  8
LVL0000
 62
  3
 10
      -29.099998
 20
      -15.250015
 30
        0.000000
 11
      -29.599998
 21
      -15.250015
 31
        0.000000
  0
LINE
  8
LVL0000
 62
  3
 10
      -29.599998
 20
      -15.250015
 30
        0.000000
 11
      -29.599998
 21
      -20.250015
 31
        0.000000
  0
LINE
  8
LVL0000
 62
  3
 10
      -29.099998
 20
      -20.250015
 30
        0.000000
 11
      -29.599998
 21
      -20.250015
 31
        0.000000
  0
LINE
  8
LVL0000
 62
  3
 10
      -21.400002
 20
      -20.250015
 30
        0.000000
 11
      -21.900002
 21
      -20.250015
 31
        0.000000
  0
LINE
  8
LVL0000
 62
  3
 10
      -21.400002
 20
      -28.750015
 30
        0.000000
 11
      -21.900002
 21
      -28.750015
 31
        0.000000
  0
LINE
  8
LVL0000
 62
  3
 10
      -29.099998
 20
      -28.750015
 30
        0.000000
 11
      -29.599998
 21
      -28.750015
 31
        0.000000
  0
LINE
  8
LVL0000
 62
  3
 10
      -27.621323
 20
      -19.871338
 30
        0.000000
 11
      -23.378677
 21
      -15.628693
 31
        0.000000
  0
LINE
  8
LVL0000
 62
  3
 10
      -26.560661
 20
      -16.689346
 30
        0.000000
 11
      -24.439346
 21
      -18.810684
 31
        0.000000
  0
LINE
  8
LVL0000
 62
  3
 10
      -27.621323
 20
      -28.371338
 30
        0.000000
 11
      -23.378677
 21
      -24.128693
 31
        0.000000
  0
LINE
  8
LVL0000
 62
  3
 10
      -26.560661
 20
      -25.189346
 30
        0.000000
 11
      -24.439346
 21
      -27.310684
 31
        0.000000
  0
LINE
  8
LVL0000
 62
  3
 10
      378.500015
 20
       49.499985
 30
        0.000000
 11
      378.500015
 21
       54.499985
 31
        0.000000
  0
LINE
  8
LVL0000
 62
  3
 10
      378.500000
 20
       54.499985
 30
        0.000000
 11
      378.500000
 21
       49.499985
 31
        0.000000
  0
LINE
  8
LVL0000
 62
  3
 10
      378.500015
 20
       49.499985
 30
        0.000000
 11
      399.500015
 21
       49.499985
 31
        0.000000
  0
CIRCLE
  8
LVL0000
 62
  3
 10
      377.500000
 20
      -40.500015
 30
        0.000000
 40
        1.750000
  0
LINE
  8
LVL0000
 62
  3
 10
      -37.500000
 20
       49.499969
 30
        0.000000
 11
      -21.499998
 21
       49.499969
 31
        0.000000
  0
LINE
  8
LVL0000
 62
  3
 10
      -37.500000
 20
      -44.000015
 30
        0.000000
 11
      -37.500000
 21
       49.499969
 31
        0.000000
  0
LINE
  8
LVL0000
 62
  3
 10
      378.500015
 20
       49.499969
 30
        0.000000
 11
      399.500015
 21
       49.499969
 31
        0.000000
  0
LINE
  8
LVL0000
 62
  3
 10
      378.500015
 20
       49.499969
 30
        0.000000
 11
      378.500015
 21
       54.499969
 31
        0.000000
  0
CIRCLE
  8
LVL0000
 62
  3
 10
      387.500000
 20
      -40.500015
 30
        0.000000
 40
        2.750000
  0
CIRCLE
  8
LVL0000
 62
  3
 10
      -25.499998
 20
      -40.500015
 30
        0.000000
 40
        2.750000
  0
LINE
  8
LVL0000
 62
  3
 10
      -25.499998
 20
      -38.700016
 30
        0.000000
 11
      -25.499998
 21
      -42.300014
 31
        0.000000
  0
LINE
  8
LVL0000
 62
  3
 10
      -27.299982
 20
      -40.500034
 30
        0.000000
 11
      -23.700014
 21
      -40.500015
 31
        0.000000
  0
LINE
  8
LVL0000
 62
  3
 10
      -17.499998
 20
       52.799978
 30
        0.000000
 11
      -17.499998
 21
       49.199980
 31
        0.000000
  0
LINE
  8
LVL0000
 62
  3
 10
      385.700016
 20
      -40.500025
 30
        0.000000
 11
      389.299984
 21
      -40.500006
 31
        0.000000
  0
LINE
  8
LVL0000
 62
  3
 10
      387.500000
 20
      -38.700006
 30
        0.000000
 11
      387.500000
 21
      -42.300005
 31
        0.000000
  0
LINE
  8
LVL0000
 62
  3
 10
      374.000015
 20
       52.799978
 30
        0.000000
 11
      374.000015
 21
       49.199980
 31
        0.000000
  0
LINE
  8
LVL0000
 62
  3
 10
      399.500015
 20
      -44.000015
 30
        0.000000
 11
      399.500015
 21
       49.499969
 31
        0.000000
  0
LINE
  8
LVL0000
 62
  3
 10
      399.500000
 20
       49.499985
 30
        0.000000
 11
      378.500000
 21
       49.499985
 31
        0.000000
  0
LINE
  8
LVL0000
 62
  3
 10
      -21.500000
 20
       54.499985
 30
        0.000000
 11
      -21.500000
 21
       49.499985
 31
        0.000000
  0
LINE
  8
LVL0000
 62
  3
 10
      -37.500000
 20
       49.499985
 30
        0.000000
 11
      -21.500000
 21
       49.499985
 31
        0.000000
  0
CIRCLE
  8
LVL0000
 62
  3
 10
      378.500000
 20
      -59.500000
 30
        0.000000
 40
        1.500000
  0
CIRCLE
  8
LVL0000
 62
  3
 10
      378.500000
 20
       59.500000
 30
        0.000000
 40
        1.500000
  0
LINE
  8
LVL0000
 62
  3
 10
      397.000000
 20
      -51.900000
 30
        0.000000
 11
      383.500000
 21
      -51.900000
 31
        0.000000
  0
LINE
  8
LVL0000
 62
  3
 10
      397.900000
 20
      -46.900000
 30
        0.000000
 11
      399.500000
 21
      -46.900000
 31
        0.000000
  0
ARC
  8
LVL0000
 62
  3
 10
      391.500000
 20
      -61.000000
 30
        0.000000
 40
        3.000000
 50
        0.000000
 51
      179.999995
  0
CIRCLE
  8
LVL0000
 62
  3
 10
      391.500000
 20
       57.000000
 30
        0.000000
 40
        3.000000
  0
LINE
  8
LVL0000
 62
  3
 10
      -21.500000
 20
      -65.000000
 30
        0.000000
 11
      383.500000
 21
      -65.000000
 31
        0.000000
  0
LINE
  8
LVL0000
 62
  3
 10
      397.500000
 20
      -63.000000
 30
        0.000000
 11
      399.500000
 21
      -61.000000
 31
        0.000000
  0
LINE
  8
LVL0000
 62
  3
 10
      399.500000
 20
       61.000000
 30
        0.000000
 11
      399.500000
 21
      -61.000000
 31
        0.000000
  0
LINE
  8
LVL0000
 62
  3
 10
      394.500000
 20
      -63.000000
 30
        0.000000
 11
      397.500000
 21
      -63.000000
 31
        0.000000
  0
LINE
  8
LVL0000
 62
  3
 10
      388.500000
 20
      -61.000000
 30
        0.000000
 11
      388.500000
 21
      -63.000000
 31
        0.000000
  0
LINE
  8
LVL0000
 62
  3
 10
      394.500000
 20
      -61.000000
 30
        0.000000
 11
      394.500000
 21
      -63.000000
 31
        0.000000
  0
LINE
  8
LVL0000
 62
  3
 10
      383.500000
 20
      -63.000000
 30
        0.000000
 11
      388.500000
 21
      -63.000000
 31
        0.000000
  0
LINE
  8
LVL0000
 62
  3
 10
      399.500000
 20
       61.000000
 30
        0.000000
 11
      397.500000
 21
       63.000000
 31
        0.000000
  0
LINE
  8
LVL0000
 62
  3
 10
      383.500000
 20
       63.000000
 30
        0.000000
 11
      397.500000
 21
       63.000000
 31
        0.000000
  0
LINE
  8
LVL0000
 62
  3
 10
      383.500000
 20
      -55.000000
 30
        0.000000
 11
      383.500000
 21
      -65.000000
 31
        0.000000
  0
LINE
  8
LVL0000
 62
  3
 10
      -21.500000
 20
       65.000000
 30
        0.000000
 11
      383.500000
 21
       65.000000
 31
        0.000000
  0
LINE
  8
LVL0000
 62
  3
 10
      383.500000
 20
      -51.900000
 30
        0.000000
 11
      383.500000
 21
      -56.500000
 31
        0.000000
  0
LINE
  8
LVL0000
 62
  3
 10
      -21.500000
 20
      -51.900000
 30
        0.000000
 11
      -35.000000
 21
      -51.900000
 31
        0.000000
  0
LINE
  8
LVL0000
 62
  3
 10
      -21.500000
 20
      -51.900000
 30
        0.000000
 11
      -21.500000
 21
      -56.500000
 31
        0.000000
  0
LINE
  8
LVL0000
 62
  3
 10
      -35.500000
 20
      -63.000000
 30
        0.000000
 11
      -32.500000
 21
      -63.000000
 31
        0.000000
  0
LINE
  8
LVL0000
 62
  3
 10
      -26.500000
 20
      -63.000000
 30
        0.000000
 11
      -21.500000
 21
      -63.000000
 31
        0.000000
  0
LINE
  8
LVL0000
 62
  3
 10
      -32.500000
 20
      -61.000000
 30
        0.000000
 11
      -32.500000
 21
      -63.000000
 31
        0.000000
  0
LINE
  8
LVL0000
 62
  3
 10
      -26.500000
 20
      -61.000000
 30
        0.000000
 11
      -26.500000
 21
      -63.000000
 31
        0.000000
  0
LINE
  8
LVL0000
 62
  3
 10
      -37.500000
 20
      -61.000000
 30
        0.000000
 11
      -35.500000
 21
      -63.000000
 31
        0.000000
  0
LINE
  8
LVL0000
 62
  3
 10
      -37.500000
 20
       61.000000
 30
        0.000000
 11
      -37.500000
 21
      -61.000000
 31
        0.000000
  0
LINE
  8
LVL0000
 62
  3
 10
      -35.500000
 20
       63.000000
 30
        0.000000
 11
      -37.500000
 21
       61.000000
 31
        0.000000
  0
LINE
  8
LVL0000
 62
  3
 10
      -35.500000
 20
       63.000000
 30
        0.000000
 11
      -21.500000
 21
       63.000000
 31
        0.000000
  0
LINE
  8
LVL0000
 62
  3
 10
      -21.500000
 20
      -55.000000
 30
        0.000000
 11
      -21.500000
 21
      -65.000000
 31
        0.000000
  0
ARC
  8
LVL0000
 62
  3
 10
      -29.500000
 20
      -61.000000
 30
        0.000000
 40
        3.000000
 50
        0.000000
 51
      179.999995
  0
CIRCLE
  8
LVL0000
 62
  3
 10
      -29.500000
 20
       57.000000
 30
        0.000000
 40
        3.000000
  0
LINE
  8
LVL0000
 62
  3
 10
      -35.900000
 20
      -46.900000
 30
        0.000000
 11
      -37.500000
 21
      -46.900000
 31
        0.000000
  0
CIRCLE
  8
LVL0000
 62
  3
 10
      378.500000
 20
       59.500000
 30
        0.000000
 40
        2.000000
  0
CIRCLE
  8
LVL0000
 62
  3
 10
      378.500000
 20
      -59.500000
 30
        0.000000
 40
        2.000000
  0
LINE
  8
LVL0000
 62
  3
 10
      -35.900000
 20
      -44.000015
 30
        0.000000
 11
      -35.900000
 21
      -46.900000
 31
        0.000000
  0
LINE
  8
LVL0000
 62
  3
 10
      -35.000000
 20
      -44.000015
 30
        0.000000
 11
      -35.000000
 21
      -51.900000
 31
        0.000000
  0
LINE
  8
LVL0000
 62
  3
 10
      397.900000
 20
      -44.000015
 30
        0.000000
 11
      397.900000
 21
      -46.900000
 31
        0.000000
  0
LINE
  8
LVL0000
 62
  3
 10
      397.000000
 20
      -44.000015
 30
        0.000000
 11
      397.000000
 21
      -51.900000
 31
        0.000000
  0
LINE
  8
LVL0000
 62
  3
 10
      -21.500000
 20
       65.000000
 30
        0.000000
 11
      -21.500000
 21
       49.499985
 31
        0.000000
  0
LINE
  8
LVL0000
 62
  3
 10
      383.500000
 20
       65.000000
 30
        0.000000
 11
      383.500000
 21
       49.499985
 31
        0.000000
  0
LINE
  8
LVL0000
 62
  3
 10
      475.299988
 20
      247.800000
 30
        0.000000
 11
      475.500000
 21
      247.800000
 31
        0.000000
  0
LINE
  8
LVL0000
 62
  3
 10
      475.299988
 20
      249.000000
 30
        0.000000
 11
      475.500000
 21
      249.000000
 31
        0.000000
  0
LINE
  8
LVL0000
 62
  3
 10
      475.500000
 20
      249.000000
 30
        0.000000
 11
      482.899994
 21
      249.000000
 31
        0.000000
  0
LINE
  8
LVL0000
 62
  3
 10
      480.099994
 20
      153.100000
 30
        0.000000
 11
      480.099994
 21
      143.500000
 31
        0.000000
  0
ARC
  8
LVL0000
 62
  3
 10
      476.499988
 20
      154.700000
 30
        0.000000
 40
        1.200000
 50
      179.999995
 51
      213.558368
  0
LINE
  8
LVL0000
 62
  3
 10
      475.299988
 20
      164.200000
 30
        0.000000
 11
      475.500000
 21
      164.200000
 31
        0.000000
  0
LINE
  8
LVL0000
 62
  3
 10
      475.500000
 20
      246.300000
 30
        0.000000
 11
      475.299988
 21
      246.300000
 31
        0.000000
  0
LINE
  8
LVL0000
 62
  3
 10
      481.299994
 20
      262.599994
 30
        0.000000
 11
      481.299994
 21
      249.000000
 31
        0.000000
  0
LINE
  8
LVL0000
 62
  3
 10
      481.299988
 20
      152.400003
 30
        0.000000
 11
      481.299988
 21
      153.100000
 31
        0.000000
  0
LINE
  8
LVL0000
 62
  3
 10
      481.299994
 20
      153.100000
 30
        0.000000
 11
      481.299994
 21
      137.399969
 31
        0.000000
  0
LINE
  8
LVL0000
 62
  3
 10
      475.500000
 20
      153.100000
 30
        0.000000
 11
      475.500000
 21
      249.000000
 31
        0.000000
  0
LINE
  8
LVL0000
 62
  3
 10
      475.500000
 20
      153.100000
 30
        0.000000
 11
      482.899994
 21
      153.100000
 31
        0.000000
  0
LINE
  8
LVL0000
 62
  3
 10
      480.099994
 20
      143.500000
 30
        0.000000
 11
      481.299994
 21
      143.500000
 31
        0.000000
  0
LINE
  8
LVL0000
 62
  3
 10
      475.299988
 20
      164.200000
 30
        0.000000
 11
      475.299988
 21
      154.700000
 31
        0.000000
  0
LINE
  8
LVL0000
 62
  3
 10
      474.299988
 20
      145.000000
 30
        0.000000
 11
      472.699982
 21
      145.000000
 31
        0.000000
  0
ARC
  8
LVL0000
 62
  3
 10
      480.499994
 20
      262.599994
 30
        0.000000
 40
        0.800000
 50
        0.000000
 51
       90.000000
  0
ARC
  8
LVL0000
 62
  3
 10
      481.299994
 20
      263.400000
 30
        0.000000
 40
        1.600000
 50
        0.000000
 51
       90.000000
  0
ARC
  8
LVL0000
 62
  3
 10
      480.499994
 20
      137.399969
 30
        0.000000
 40
        0.800000
 50
      270.000000
 51
      360.000000
  0
LINE
  8
LVL0000
 62
  3
 10
      475.099976
 20
      136.599969
 30
        0.000000
 11
      480.499994
 21
      136.599969
 31
        0.000000
  0
LINE
  8
LVL0000
 62
  3
 10
      472.699982
 20
      136.599954
 30
        0.000000
 11
      472.699982
 21
      145.000000
 31
        0.000000
  0
LINE
  8
LVL0000
 62
  3
 10
      474.299988
 20
      137.399972
 30
        0.000000
 11
      474.299988
 21
      145.000000
 31
        0.000000
  0
LINE
  8
LVL0000
 62
  3
 10
      482.899994
 20
      263.400000
 30
        0.000000
 11
      482.899994
 21
      136.599963
 31
        0.000000
  0
ARC
  8
LVL0000
 62
  3
 10
      481.299994
 20
      136.599963
 30
        0.000000
 40
        1.600000
 50
      270.000000
 51
      360.000000
  0
LINE
  8
LVL0000
 62
  3
 10
      474.299988
 20
      134.999963
 30
        0.000000
 11
      481.299994
 21
      134.999963
 31
        0.000000
  0
ARC
  8
LVL0000
 62
  3
 10
      475.099976
 20
      137.399972
 30
        0.000000
 40
        0.799988
 50
      180.000010
 51
      270.000000
  0
ARC
  8
LVL0000
 62
  3
 10
      474.299988
 20
      136.599954
 30
        0.000000
 40
        1.600006
 50
      180.000010
 51
      270.000000
  0
LINE
  8
LVL0000
 62
  3
 10
      473.699982
 20
      254.500100
 30
        0.000000
 11
      475.299988
 21
      254.500100
 31
        0.000000
  0
LINE
  8
LVL0000
 62
  3
 10
      475.299988
 20
      242.000100
 30
        0.000000
 11
      475.299988
 21
      254.500100
 31
        0.000000
  0
LINE
  8
LVL0000
 62
  3
 10
      475.299988
 20
      156.000100
 30
        0.000000
 11
      475.299988
 21
      242.000100
 31
        0.000000
  0
LINE
  8
LVL0000
 62
  3
 10
      473.699982
 20
      156.000100
 30
        0.000000
 11
      475.299988
 21
      156.000100
 31
        0.000000
  0
LINE
  8
LVL0000
 62
  3
 10
      473.699982
 20
      156.000100
 30
        0.000000
 11
      473.699982
 21
      254.500100
 31
        0.000000
  0
LINE
  8
LVL0000
 62
  3
 10
      466.649963
 20
      205.785104
 30
        0.000000
 11
      466.649963
 21
      210.785104
 31
        0.000000
  0
LINE
  8
LVL0000
 62
  3
 10
      466.649963
 20
      205.785104
 30
        0.000000
 11
      473.699982
 21
      205.785104
 31
        0.000000
  0
LINE
  8
LVL0000
 62
  3
 10
      466.649963
 20
      246.315102
 30
        0.000000
 11
      473.699982
 21
      246.315102
 31
        0.000000
  0
LINE
  8
LVL0000
 62
  3
 10
      466.649963
 20
      241.315102
 30
        0.000000
 11
      466.649963
 21
      246.315102
 31
        0.000000
  0
LINE
  8
LVL0000
 62
  3
 10
      462.999969
 20
      241.315102
 30
        0.000000
 11
      466.649963
 21
      241.315102
 31
        0.000000
  0
LINE
  8
LVL0000
 62
  3
 10
      462.999969
 20
      210.785104
 30
        0.000000
 11
      462.999969
 21
      241.315102
 31
        0.000000
  0
LINE
  8
LVL0000
 62
  3
 10
      462.999969
 20
      210.785104
 30
        0.000000
 11
      466.649963
 21
      210.785104
 31
        0.000000
  0
LINE
  8
LVL0000
 62
  3
 10
      473.199982
 20
      162.500100
 30
        0.000000
 11
      473.699982
 21
      162.500100
 31
        0.000000
  0
ARC
  8
LVL0000
 62
  3
 10
      473.199982
 20
      160.500100
 30
        0.000000
 40
        2.000000
 50
       90.000000
 51
      180.000010
  0
LINE
  8
LVL0000
 62
  3
 10
      473.199982
 20
      156.500100
 30
        0.000000
 11
      473.699982
 21
      156.500100
 31
        0.000000
  0
LINE
  8
LVL0000
 62
  3
 10
      471.199982
 20
      158.500100
 30
        0.000000
 11
      471.199982
 21
      160.500100
 31
        0.000000
  0
ARC
  8
LVL0000
 62
  3
 10
      473.199982
 20
      158.500100
 30
        0.000000
 40
        2.000000
 50
      180.000010
 51
      270.000000
  0
LINE
  8
LVL0000
 62
  3
 10
      473.199982
 20
      254.000100
 30
        0.000000
 11
      473.699982
 21
      254.000100
 31
        0.000000
  0
ARC
  8
LVL0000
 62
  3
 10
      473.199982
 20
      252.000100
 30
        0.000000
 40
        2.000000
 50
       90.000000
 51
      180.000010
  0
LINE
  8
LVL0000
 62
  3
 10
      471.199982
 20
      250.000100
 30
        0.000000
 11
      471.199982
 21
      252.000100
 31
        0.000000
  0
LINE
  8
LVL0000
 62
  3
 10
      473.199982
 20
      248.000100
 30
        0.000000
 11
      473.699982
 21
      248.000100
 31
        0.000000
  0
ARC
  8
LVL0000
 62
  3
 10
      473.199982
 20
      250.000100
 30
        0.000000
 40
        2.000000
 50
      180.000010
 51
      270.000000
  0
LINE
  8
LVL0000
 62
  3
 10
      383.500000
 20
      265.000000
 30
        0.000000
 11
      383.500000
 21
      249.499985
 31
        0.000000
  0
LINE
  8
LVL0000
 62
  3
 10
      -21.500000
 20
      265.000000
 30
        0.000000
 11
      -21.500000
 21
      249.499985
 31
        0.000000
  0
LINE
  8
LVL0000
 62
  3
 10
      397.000000
 20
      155.999985
 30
        0.000000
 11
      397.000000
 21
      148.100000
 31
        0.000000
  0
LINE
  8
LVL0000
 62
  3
 10
      397.900000
 20
      155.999985
 30
        0.000000
 11
      397.900000
 21
      153.100000
 31
        0.000000
  0
LINE
  8
LVL0000
 62
  3
 10
      -35.000000
 20
      155.999985
 30
        0.000000
 11
      -35.000000
 21
      148.100000
 31
        0.000000
  0
LINE
  8
LVL0000
 62
  3
 10
      -35.900000
 20
      155.999985
 30
        0.000000
 11
      -35.900000
 21
      153.100000
 31
        0.000000
  0
CIRCLE
  8
LVL0000
 62
  3
 10
      378.500000
 20
      140.500000
 30
        0.000000
 40
        2.000000
  0
CIRCLE
  8
LVL0000
 62
  3
 10
      378.500000
 20
      259.500000
 30
        0.000000
 40
        2.000000
  0
CIRCLE
  8
LVL0000
 62
  3
 10
       52.500000
 20
      140.500000
 30
        0.000000
 40
        2.000000
  0
CIRCLE
  8
LVL0000
 62
  3
 10
      230.000000
 20
      140.500000
 30
        0.000000
 40
        2.000000
  0
CIRCLE
  8
LVL0000
 62
  3
 10
      194.500000
 20
      140.500000
 30
        0.000000
 40
        2.000000
  0
CIRCLE
  8
LVL0000
 62
  3
 10
      159.000000
 20
      140.500000
 30
        0.000000
 40
        2.000000
  0
CIRCLE
  8
LVL0000
 62
  3
 10
      123.500000
 20
      140.500000
 30
        0.000000
 40
        2.000000
  0
CIRCLE
  8
LVL0000
 62
  3
 10
      265.500000
 20
      140.500000
 30
        0.000000
 40
        2.000000
  0
CIRCLE
  8
LVL0000
 62
  3
 10
      301.000000
 20
      140.500000
 30
        0.000000
 40
        2.000000
  0
CIRCLE
  8
LVL0000
 62
  3
 10
      336.500000
 20
      140.500000
 30
        0.000000
 40
        2.000000
  0
LINE
  8
LVL0000
 62
  3
 10
      -35.900000
 20
      153.100000
 30
        0.000000
 11
      -37.500000
 21
      153.100000
 31
        0.000000
  0
LINE
  8
LVL0000
 62
  3
 10
      259.400000
 20
      145.000000
 30
        0.000000
 11
      271.600000
 21
      145.000000
 31
        0.000000
  0
LINE
  8
LVL0000
 62
  3
 10
      223.900000
 20
      145.000000
 30
        0.000000
 11
      236.100000
 21
      145.000000
 31
        0.000000
  0
LINE
  8
LVL0000
 62
  3
 10
      188.400000
 20
      145.000000
 30
        0.000000
 11
      200.600000
 21
      145.000000
 31
        0.000000
  0
LINE
  8
LVL0000
 62
  3
 10
      152.900000
 20
      145.000000
 30
        0.000000
 11
      165.100000
 21
      145.000000
 31
        0.000000
  0
LINE
  8
LVL0000
 62
  3
 10
      117.400000
 20
      145.000000
 30
        0.000000
 11
      129.600000
 21
      145.000000
 31
        0.000000
  0
LINE
  8
LVL0000
 62
  3
 10
       81.900000
 20
      145.000000
 30
        0.000000
 11
       94.100000
 21
      145.000000
 31
        0.000000
  0
LINE
  8
LVL0000
 62
  3
 10
       46.400000
 20
      145.000000
 30
        0.000000
 11
       58.600000
 21
      145.000000
 31
        0.000000
  0
LINE
  8
LVL0000
 62
  3
 10
       10.900000
 20
      145.000000
 30
        0.000000
 11
       23.100000
 21
      145.000000
 31
        0.000000
  0
LINE
  8
LVL0000
 62
  3
 10
      -21.500000
 20
      145.000000
 30
        0.000000
 11
      -12.400000
 21
      145.000000
 31
        0.000000
  0
CIRCLE
  8
LVL0000
 62
  3
 10
      -29.500000
 20
      257.000000
 30
        0.000000
 40
        3.000000
  0
ARC
  8
LVL0000
 62
  3
 10
      -29.500000
 20
      139.000000
 30
        0.000000
 40
        3.000000
 50
        0.000000
 51
      179.999995
  0
LINE
  8
LVL0000
 62
  3
 10
      -21.500000
 20
      145.000000
 30
        0.000000
 11
      -21.500000
 21
      135.000000
 31
        0.000000
  0
LINE
  8
LVL0000
 62
  3
 10
      -35.500000
 20
      263.000000
 30
        0.000000
 11
      -21.500000
 21
      263.000000
 31
        0.000000
  0
LINE
  8
LVL0000
 62
  3
 10
      -35.500000
 20
      263.000000
 30
        0.000000
 11
      -37.500000
 21
      261.000000
 31
        0.000000
  0
LINE
  8
LVL0000
 62
  3
 10
      -37.500000
 20
      261.000000
 30
        0.000000
 11
      -37.500000
 21
      139.000000
 31
        0.000000
  0
LINE
  8
LVL0000
 62
  3
 10
      -37.500000
 20
      139.000000
 30
        0.000000
 11
      -35.500000
 21
      137.000000
 31
        0.000000
  0
LINE
  8
LVL0000
 62
  3
 10
      -26.500000
 20
      139.000000
 30
        0.000000
 11
      -26.500000
 21
      137.000000
 31
        0.000000
  0
LINE
  8
LVL0000
 62
  3
 10
      -32.500000
 20
      139.000000
 30
        0.000000
 11
      -32.500000
 21
      137.000000
 31
        0.000000
  0
LINE
  8
LVL0000
 62
  3
 10
      -26.500000
 20
      137.000000
 30
        0.000000
 11
      -21.500000
 21
      137.000000
 31
        0.000000
  0
LINE
  8
LVL0000
 62
  3
 10
      -35.500000
 20
      137.000000
 30
        0.000000
 11
      -32.500000
 21
      137.000000
 31
        0.000000
  0
LINE
  8
LVL0000
 62
  3
 10
      -21.500000
 20
      148.100000
 30
        0.000000
 11
      -21.500000
 21
      143.500000
 31
        0.000000
  0
LINE
  8
LVL0000
 62
  3
 10
      -21.500000
 20
      148.100000
 30
        0.000000
 11
      -35.000000
 21
      148.100000
 31
        0.000000
  0
CIRCLE
  8
LVL0000
 62
  3
 10
      224.000000
 20
      258.500000
 30
        0.000000
 40
        2.500000
  0
CIRCLE
  8
LVL0000
 62
  3
 10
      259.500000
 20
      258.500000
 30
        0.000000
 40
        2.500000
  0
CIRCLE
  8
LVL0000
 62
  3
 10
      295.000000
 20
      258.500000
 30
        0.000000
 40
        2.500000
  0
CIRCLE
  8
LVL0000
 62
  3
 10
       11.000000
 20
      258.500000
 30
        0.000000
 40
        2.500000
  0
CIRCLE
  8
LVL0000
 62
  3
 10
       46.500000
 20
      258.500000
 30
        0.000000
 40
        2.500000
  0
CIRCLE
  8
LVL0000
 62
  3
 10
       82.000000
 20
      258.500000
 30
        0.000000
 40
        2.500000
  0
CIRCLE
  8
LVL0000
 62
  3
 10
      117.500000
 20
      258.500000
 30
        0.000000
 40
        2.500000
  0
CIRCLE
  8
LVL0000
 62
  3
 10
      153.000000
 20
      258.500000
 30
        0.000000
 40
        2.500000
  0
CIRCLE
  8
LVL0000
 62
  3
 10
      188.500000
 20
      258.500000
 30
        0.000000
 40
        2.500000
  0
LINE
  8
LVL0000
 62
  3
 10
      294.900000
 20
      143.500000
 30
        0.000000
 11
      271.600000
 21
      143.500000
 31
        0.000000
  0
LINE
  8
LVL0000
 62
  3
 10
      259.400000
 20
      143.500000
 30
        0.000000
 11
      236.100000
 21
      143.500000
 31
        0.000000
  0
LINE
  8
LVL0000
 62
  3
 10
      223.900000
 20
      143.500000
 30
        0.000000
 11
      200.600000
 21
      143.500000
 31
        0.000000
  0
LINE
  8
LVL0000
 62
  3
 10
      188.400000
 20
      143.500000
 30
        0.000000
 11
      165.100000
 21
      143.500000
 31
        0.000000
  0
LINE
  8
LVL0000
 62
  3
 10
      152.900000
 20
      143.500000
 30
        0.000000
 11
      129.600000
 21
      143.500000
 31
        0.000000
  0
LINE
  8
LVL0000
 62
  3
 10
      117.400000
 20
      143.500000
 30
        0.000000
 11
       94.100000
 21
      143.500000
 31
        0.000000
  0
LINE
  8
LVL0000
 62
  3
 10
       81.900000
 20
      143.500000
 30
        0.000000
 11
       58.600000
 21
      143.500000
 31
        0.000000
  0
LINE
  8
LVL0000
 62
  3
 10
       46.400000
 20
      143.500000
 30
        0.000000
 11
       23.100000
 21
      143.500000
 31
        0.000000
  0
LINE
  8
LVL0000
 62
  3
 10
       10.900000
 20
      143.500000
 30
        0.000000
 11
      -12.400000
 21
      143.500000
 31
        0.000000
  0
LINE
  8
LVL0000
 62
  3
 10
      294.900000
 20
      145.000000
 30
        0.000000
 11
      307.100000
 21
      145.000000
 31
        0.000000
  0
LINE
  8
LVL0000
 62
  3
 10
      330.400000
 20
      145.000000
 30
        0.000000
 11
      342.600000
 21
      145.000000
 31
        0.000000
  0
LINE
  8
LVL0000
 62
  3
 10
      365.900000
 20
      145.000000
 30
        0.000000
 11
      383.500000
 21
      145.000000
 31
        0.000000
  0
LINE
  8
LVL0000
 62
  3
 10
      365.900000
 20
      143.500000
 30
        0.000000
 11
      342.600000
 21
      143.500000
 31
        0.000000
  0
LINE
  8
LVL0000
 62
  3
 10
      365.900000
 20
      145.000000
 30
        0.000000
 11
      365.900000
 21
      140.000000
 31
        0.000000
  0
LINE
  8
LVL0000
 62
  3
 10
      342.600000
 20
      140.000000
 30
        0.000000
 11
      365.900000
 21
      140.000000
 31
        0.000000
  0
LINE
  8
LVL0000
 62
  3
 10
      342.600000
 20
      145.000000
 30
        0.000000
 11
      342.600000
 21
      140.000000
 31
        0.000000
  0
CIRCLE
  8
LVL0000
 62
  3
 10
      336.500000
 20
      140.500000
 30
        0.000000
 40
        1.500000
  0
CIRCLE
  8
LVL0000
 62
  3
 10
      366.000000
 20
      258.500000
 30
        0.000000
 40
        2.500000
  0
CIRCLE
  8
LVL0000
 62
  3
 10
      330.500000
 20
      258.500000
 30
        0.000000
 40
        2.500000
  0
CIRCLE
  8
LVL0000
 62
  3
 10
      301.000000
 20
      140.500000
 30
        0.000000
 40
        1.500000
  0
LINE
  8
LVL0000
 62
  3
 10
      307.100000
 20
      145.000000
 30
        0.000000
 11
      307.100000
 21
      140.000000
 31
        0.000000
  0
LINE
  8
LVL0000
 62
  3
 10
      307.100000
 20
      140.000000
 30
        0.000000
 11
      330.400000
 21
      140.000000
 31
        0.000000
  0
LINE
  8
LVL0000
 62
  3
 10
      330.400000
 20
      145.000000
 30
        0.000000
 11
      330.400000
 21
      140.000000
 31
        0.000000
  0
LINE
  8
LVL0000
 62
  3
 10
      330.400000
 20
      143.500000
 30
        0.000000
 11
      307.100000
 21
      143.500000
 31
        0.000000
  0
LINE
  8
LVL0000
 62
  3
 10
      383.500000
 20
      148.100000
 30
        0.000000
 11
      383.500000
 21
      143.500000
 31
        0.000000
  0
LINE
  8
LVL0000
 62
  3
 10
      -21.500000
 20
      265.000000
 30
        0.000000
 11
      383.500000
 21
      265.000000
 31
        0.000000
  0
LINE
  8
LVL0000
 62
  3
 10
      383.500000
 20
      145.000000
 30
        0.000000
 11
      383.500000
 21
      135.000000
 31
        0.000000
  0
LINE
  8
LVL0000
 62
  3
 10
      383.500000
 20
      263.000000
 30
        0.000000
 11
      397.500000
 21
      263.000000
 31
        0.000000
  0
LINE
  8
LVL0000
 62
  3
 10
      399.500000
 20
      261.000000
 30
        0.000000
 11
      397.500000
 21
      263.000000
 31
        0.000000
  0
LINE
  8
LVL0000
 62
  3
 10
      383.500000
 20
      137.000000
 30
        0.000000
 11
      388.500000
 21
      137.000000
 31
        0.000000
  0
LINE
  8
LVL0000
 62
  3
 10
      394.500000
 20
      139.000000
 30
        0.000000
 11
      394.500000
 21
      137.000000
 31
        0.000000
  0
LINE
  8
LVL0000
 62
  3
 10
      388.500000
 20
      139.000000
 30
        0.000000
 11
      388.500000
 21
      137.000000
 31
        0.000000
  0
LINE
  8
LVL0000
 62
  3
 10
      394.500000
 20
      137.000000
 30
        0.000000
 11
      397.500000
 21
      137.000000
 31
        0.000000
  0
LINE
  8
LVL0000
 62
  3
 10
      399.500000
 20
      261.000000
 30
        0.000000
 11
      399.500000
 21
      139.000000
 31
        0.000000
  0
LINE
  8
LVL0000
 62
  3
 10
      397.500000
 20
      137.000000
 30
        0.000000
 11
      399.500000
 21
      139.000000
 31
        0.000000
  0
LINE
  8
LVL0000
 62
  3
 10
      -21.500000
 20
      135.000000
 30
        0.000000
 11
      383.500000
 21
      135.000000
 31
        0.000000
  0
CIRCLE
  8
LVL0000
 62
  3
 10
      391.500000
 20
      257.000000
 30
        0.000000
 40
        3.000000
  0
ARC
  8
LVL0000
 62
  3
 10
      391.500000
 20
      139.000000
 30
        0.000000
 40
        3.000000
 50
        0.000000
 51
      179.999995
  0
LINE
  8
LVL0000
 62
  3
 10
      397.000000
 20
      153.100000
 30
        0.000000
 11
      -35.000000
 21
      153.100000
 31
        0.000000
  0
LINE
  8
LVL0000
 62
  3
 10
      397.900000
 20
      153.100000
 30
        0.000000
 11
      399.500000
 21
      153.100000
 31
        0.000000
  0
LINE
  8
LVL0000
 62
  3
 10
      397.000000
 20
      148.100000
 30
        0.000000
 11
      383.500000
 21
      148.100000
 31
        0.000000
  0
CIRCLE
  8
LVL0000
 62
  3
 10
       52.500000
 20
      140.500000
 30
        0.000000
 40
        1.500000
  0
CIRCLE
  8
LVL0000
 62
  3
 10
      123.500000
 20
      140.500000
 30
        0.000000
 40
        1.500000
  0
CIRCLE
  8
LVL0000
 62
  3
 10
      159.000000
 20
      140.500000
 30
        0.000000
 40
        1.500000
  0
CIRCLE
  8
LVL0000
 62
  3
 10
      194.500000
 20
      140.500000
 30
        0.000000
 40
        1.500000
  0
CIRCLE
  8
LVL0000
 62
  3
 10
      230.000000
 20
      140.500000
 30
        0.000000
 40
        1.500000
  0
CIRCLE
  8
LVL0000
 62
  3
 10
      265.500000
 20
      140.500000
 30
        0.000000
 40
        1.500000
  0
LINE
  8
LVL0000
 62
  3
 10
      -12.400000
 20
      140.000000
 30
        0.000000
 11
       10.900000
 21
      140.000000
 31
        0.000000
  0
LINE
  8
LVL0000
 62
  3
 10
       23.100000
 20
      140.000000
 30
        0.000000
 11
       46.400000
 21
      140.000000
 31
        0.000000
  0
LINE
  8
LVL0000
 62
  3
 10
       58.600000
 20
      140.000000
 30
        0.000000
 11
       81.900000
 21
      140.000000
 31
        0.000000
  0
LINE
  8
LVL0000
 62
  3
 10
       94.100000
 20
      140.000000
 30
        0.000000
 11
      117.400000
 21
      140.000000
 31
        0.000000
  0
LINE
  8
LVL0000
 62
  3
 10
      129.600000
 20
      140.000000
 30
        0.000000
 11
      152.900000
 21
      140.000000
 31
        0.000000
  0
LINE
  8
LVL0000
 62
  3
 10
      165.100000
 20
      140.000000
 30
        0.000000
 11
      188.400000
 21
      140.000000
 31
        0.000000
  0
LINE
  8
LVL0000
 62
  3
 10
      200.600000
 20
      140.000000
 30
        0.000000
 11
      223.900000
 21
      140.000000
 31
        0.000000
  0
LINE
  8
LVL0000
 62
  3
 10
      236.100000
 20
      140.000000
 30
        0.000000
 11
      259.400000
 21
      140.000000
 31
        0.000000
  0
LINE
  8
LVL0000
 62
  3
 10
      271.600000
 20
      140.000000
 30
        0.000000
 11
      294.900000
 21
      140.000000
 31
        0.000000
  0
LINE
  8
LVL0000
 62
  3
 10
      294.900000
 20
      145.000000
 30
        0.000000
 11
      294.900000
 21
      140.000000
 31
        0.000000
  0
LINE
  8
LVL0000
 62
  3
 10
      271.600000
 20
      145.000000
 30
        0.000000
 11
      271.600000
 21
      140.000000
 31
        0.000000
  0
LINE
  8
LVL0000
 62
  3
 10
      236.100000
 20
      145.000000
 30
        0.000000
 11
      236.100000
 21
      140.000000
 31
        0.000000
  0
LINE
  8
LVL0000
 62
  3
 10
      259.400000
 20
      145.000000
 30
        0.000000
 11
      259.400000
 21
      140.000000
 31
        0.000000
  0
LINE
  8
LVL0000
 62
  3
 10
      223.900000
 20
      145.000000
 30
        0.000000
 11
      223.900000
 21
      140.000000
 31
        0.000000
  0
LINE
  8
LVL0000
 62
  3
 10
      200.600000
 20
      145.000000
 30
        0.000000
 11
      200.600000
 21
      140.000000
 31
        0.000000
  0
LINE
  8
LVL0000
 62
  3
 10
      165.100000
 20
      145.000000
 30
        0.000000
 11
      165.100000
 21
      140.000000
 31
        0.000000
  0
LINE
  8
LVL0000
 62
  3
 10
      188.400000
 20
      145.000000
 30
        0.000000
 11
      188.400000
 21
      140.000000
 31
        0.000000
  0
LINE
  8
LVL0000
 62
  3
 10
      152.900000
 20
      145.000000
 30
        0.000000
 11
      152.900000
 21
      140.000000
 31
        0.000000
  0
LINE
  8
LVL0000
 62
  3
 10
      129.600000
 20
      145.000000
 30
        0.000000
 11
      129.600000
 21
      140.000000
 31
        0.000000
  0
LINE
  8
LVL0000
 62
  3
 10
       94.100000
 20
      145.000000
 30
        0.000000
 11
       94.100000
 21
      140.000000
 31
        0.000000
  0
LINE
  8
LVL0000
 62
  3
 10
      117.400000
 20
      145.000000
 30
        0.000000
 11
      117.400000
 21
      140.000000
 31
        0.000000
  0
LINE
  8
LVL0000
 62
  3
 10
       81.900000
 20
      145.000000
 30
        0.000000
 11
       81.900000
 21
      140.000000
 31
        0.000000
  0
LINE
  8
LVL0000
 62
  3
 10
       58.600000
 20
      145.000000
 30
        0.000000
 11
       58.600000
 21
      140.000000
 31
        0.000000
  0
LINE
  8
LVL0000
 62
  3
 10
       23.100000
 20
      145.000000
 30
        0.000000
 11
       23.100000
 21
      140.000000
 31
        0.000000
  0
LINE
  8
LVL0000
 62
  3
 10
       46.400000
 20
      145.000000
 30
        0.000000
 11
       46.400000
 21
      140.000000
 31
        0.000000
  0
LINE
  8
LVL0000
 62
  3
 10
       10.900000
 20
      145.000000
 30
        0.000000
 11
       10.900000
 21
      140.000000
 31
        0.000000
  0
LINE
  8
LVL0000
 62
  3
 10
      -12.400000
 20
      145.000000
 30
        0.000000
 11
      -12.400000
 21
      140.000000
 31
        0.000000
  0
CIRCLE
  8
LVL0000
 62
  3
 10
      378.500000
 20
      259.500000
 30
        0.000000
 40
        1.500000
  0
CIRCLE
  8
LVL0000
 62
  3
 10
      378.500000
 20
      140.500000
 30
        0.000000
 40
        1.500000
  0
CIRCLE
  8
LVL0000
 62
  3
 10
        0.000000
 20
      259.500000
 30
        0.000000
 40
        1.500000
  0
CIRCLE
  8
LVL0000
 62
  3
 10
        0.000000
 20
      259.500000
 30
        0.000000
 40
        2.000000
  0
CIRCLE
  8
LVL0000
 62
  3
 10
       35.500000
 20
      259.500000
 30
        0.000000
 40
        1.500000
  0
CIRCLE
  8
LVL0000
 62
  3
 10
       35.500000
 20
      259.500000
 30
        0.000000
 40
        2.000000
  0
CIRCLE
  8
LVL0000
 62
  3
 10
       71.000000
 20
      259.500000
 30
        0.000000
 40
        1.500000
  0
CIRCLE
  8
LVL0000
 62
  3
 10
       71.000000
 20
      259.500000
 30
        0.000000
 40
        2.000000
  0
CIRCLE
  8
LVL0000
 62
  3
 10
      106.500000
 20
      259.500000
 30
        0.000000
 40
        1.500000
  0
CIRCLE
  8
LVL0000
 62
  3
 10
      106.500000
 20
      259.500000
 30
        0.000000
 40
        2.000000
  0
CIRCLE
  8
LVL0000
 62
  3
 10
      142.000000
 20
      259.500000
 30
        0.000000
 40
        1.500000
  0
CIRCLE
  8
LVL0000
 62
  3
 10
      142.000000
 20
      259.500000
 30
        0.000000
 40
        2.000000
  0
CIRCLE
  8
LVL0000
 62
  3
 10
      177.500000
 20
      259.500000
 30
        0.000000
 40
        1.500000
  0
CIRCLE
  8
LVL0000
 62
  3
 10
      177.500000
 20
      259.500000
 30
        0.000000
 40
        2.000000
  0
CIRCLE
  8
LVL0000
 62
  3
 10
      213.000000
 20
      259.500000
 30
        0.000000
 40
        1.500000
  0
CIRCLE
  8
LVL0000
 62
  3
 10
      213.000000
 20
      259.500000
 30
        0.000000
 40
        2.000000
  0
CIRCLE
  8
LVL0000
 62
  3
 10
      248.500000
 20
      259.500000
 30
        0.000000
 40
        1.500000
  0
CIRCLE
  8
LVL0000
 62
  3
 10
      248.500000
 20
      259.500000
 30
        0.000000
 40
        2.000000
  0
CIRCLE
  8
LVL0000
 62
  3
 10
      284.000000
 20
      259.500000
 30
        0.000000
 40
        1.500000
  0
CIRCLE
  8
LVL0000
 62
  3
 10
      284.000000
 20
      259.500000
 30
        0.000000
 40
        2.000000
  0
CIRCLE
  8
LVL0000
 62
  3
 10
      319.500000
 20
      259.500000
 30
        0.000000
 40
        1.500000
  0
CIRCLE
  8
LVL0000
 62
  3
 10
      319.500000
 20
      259.500000
 30
        0.000000
 40
        2.000000
  0
CIRCLE
  8
LVL0000
 62
  3
 10
      355.000000
 20
      259.500000
 30
        0.000000
 40
        2.000000
  0
CIRCLE
  8
LVL0000
 62
  3
 10
      355.000000
 20
      259.500000
 30
        0.000000
 40
        1.500000
  0
LINE
  8
LVL0000
  6
CENTER
 62
  3
 10
       53.250000
 20
      -65.000000
 30
        0.000000
 11
       53.250000
 21
       65.000000
 31
        0.000000
  0
ENDSEC
  0
EOF
