  0
SECTION
  2
HEADER
  9
$ACADVER
  1
AC1006
  9
$INSBASE
 10
0.0
 20
0.0
 30
0.0
  9
$EXTMIN
 10
      -65.000000
 20
      -65.000000
  9
$EXTMAX
 10
      321.112518
 20
      327.067108
  9
$LIMMIN
 10
      -65.000000
 20
      -65.000000
  9
$LIMMAX
 10
      321.112518
 20
      327.067108
  9
$VIEWCTR
 10
      128.056259
 20
      128.056259
  9
$ORTHOMODE
 70
     0
  9
$ANGBASE
 50
0.0
  9
$ANGDIR
 70
     0
  9
$SPLINETYPE
 70
     6
  9
$SPLINESEGS
 70
     8
9
$DIMASZ
 40
        4.000000
9
$DIMEXE
 40
        0.500000
9
$DIMEXO
 40
        1.000000
9
$DIMTXT
 40
        4.000000
9
$DIMGAP
 40
        0.500000
9
$DIMTAD
 70
1
9
$DIMTIH
 70
0
9
$DIMTOH
 70
0
  0
ENDSEC
  0
SECTION
  2
TABLES
  0
TABLE
  2
LTYPE
 70
     5
  0
LTYPE
  2
CONTINUOUS
 70
    64
  3
SOLID LINE
 72
    65
 73
     0
 40
0.0
  0
LTYPE
  2
DASHED
 70
    64
  3
-- -- -- -- -- --
 72
    65
 73
     2
 40
  0.75  
 49
  0.50  
 49
 -0.25  
  0
LTYPE
  2
DOT
 70
    64
  3
....................
 72
    65
 73
     2
 40
  0.25  
 49
  0.02  
 49
 -0.23  
  0
LTYPE
  2
CENTER
 70
    64
  3
-- . -- . -- . -- .
 72
    65
 73
    4
 40
  2.00  
 49
  1.25  
 49
 -0.25  
 49
  0.25  
 49
 -0.25  
  0
LTYPE
  2
PHANTOM
 70
    64
  3
-- .. -- .. -- ..
 72
    65
 73
    6
 40
  2.50  
 49
  1.25  
 49
 -0.25  
 49
  0.25  
 49
 -0.25  
 49
  0.25  
 49
 -0.25  
  0
ENDTAB
  0
TABLE
  2
LAYER
 70
     1
  0
LAYER
  2
LVL0000
 70
    64
 62
     3
  6
CONTINUOUS
  0
ENDTAB
  0
TABLE
  2
STYLE
 70
     2
  0
STYLE
  2
STANDARD
 70
    64
 40
0.0
 41
1.0
 50
0.0
 71
     0
 42
5.0
  3
ROMANS
  4
BIGFONT
  0
STYLE
  2
BIGFONT
 70
    64
 40
0.0
 41
1.0
 50
0.0
 71
     0
 42
5.0
  3
ROMANS
  4
BIGFONT
  0
ENDTAB
  0
TABLE
  2
VIEW
 70
     0
  0
ENDTAB
  0
TABLE
  2
UCS
 70
     0
  0
ENDTAB
  0
TABLE
  2
DWGMGR
 70
     0
  0
ENDTAB
  0
ENDSEC
  0
SECTION
  2
BLOCKS
  0
BLOCK
  8
0
  2
BLK0001
 70
    64
 10
        0.000000
 20
        0.000000
  0
TEXT
  8
LVL0000
 62
  2
 10
      325.306335
 20
      272.862427
 30
        0.000000
 40
        4.000000
  1
７．６
 50
        0.000000
 41
        0.835000
 51
        0.000000
  7
BIGFONT
  0
LINE
  8
LVL0000
 62
  2
 10
      321.112518
 20
      264.399994
 30
        0.000000
 11
      321.112518
 21
      272.862427
 31
        0.000000
  0
LINE
  8
LVL0000
 62
  2
 10
      313.512512
 20
      264.399994
 30
        0.000000
 11
      313.512512
 21
      272.862427
 31
        0.000000
  0
LINE
  8
LVL0000
 62
  2
 10
      325.112518
 20
      273.409637
 30
        0.000000
 11
      321.112518
 21
      272.362427
 31
        0.000000
  0
LINE
  8
LVL0000
 62
  2
 10
      321.112518
 20
      272.362427
 30
        0.000000
 11
      325.112518
 21
      271.315216
 31
        0.000000
  0
LINE
  8
LVL0000
 62
  2
 10
      309.512512
 20
      271.315216
 30
        0.000000
 11
      313.512512
 21
      272.362427
 31
        0.000000
  0
LINE
  8
LVL0000
 62
  2
 10
      313.512512
 20
      272.362427
 30
        0.000000
 11
      309.512512
 21
      273.409637
 31
        0.000000
  0
LINE
  8
LVL0000
 62
  2
 10
      337.306335
 20
      272.362427
 30
        0.000000
 11
      307.512512
 21
      272.362427
 31
        0.000000
  0
ENDBLK
  0
BLOCK
  8
0
  2
BLK0002
 70
    64
 10
        0.000000
 20
        0.000000
  0
TEXT
  8
LVL0000
 62
  2
 10
      105.000000
 20
      108.294289
 30
        0.000000
 40
        4.000000
  1
２９７
 50
        0.000000
 41
        0.835000
 51
        0.000000
  7
BIGFONT
  0
LINE
  8
LVL0000
 62
  2
 10
      -37.500004
 20
      138.000000
 30
        0.000000
 11
      -37.500004
 21
      107.294289
 31
        0.000000
  0
LINE
  8
LVL0000
 62
  2
 10
      259.500000
 20
      138.000000
 30
        0.000000
 11
      259.500000
 21
      107.294289
 31
        0.000000
  0
LINE
  8
LVL0000
 62
  2
 10
      -33.500004
 20
      108.841484
 30
        0.000000
 11
      -37.500004
 21
      107.794289
 31
        0.000000
  0
LINE
  8
LVL0000
 62
  2
 10
      -37.500004
 20
      107.794289
 30
        0.000000
 11
      -33.500004
 21
      106.747093
 31
        0.000000
  0
LINE
  8
LVL0000
 62
  2
 10
      255.500000
 20
      106.747093
 30
        0.000000
 11
      259.500000
 21
      107.794289
 31
        0.000000
  0
LINE
  8
LVL0000
 62
  2
 10
      259.500000
 20
      107.794289
 30
        0.000000
 11
      255.500000
 21
      108.841484
 31
        0.000000
  0
LINE
  8
LVL0000
 62
  2
 10
      -37.500004
 20
      107.794289
 30
        0.000000
 11
      259.500000
 21
      107.794289
 31
        0.000000
  0
ENDBLK
  0
BLOCK
  8
0
  2
BLK0003
 70
    64
 10
        0.000000
 20
        0.000000
  0
TEXT
  8
LVL0000
 62
  2
 10
      105.000000
 20
      118.591934
 30
        0.000000
 40
        4.000000
  1
２８１
 50
        0.000000
 41
        0.835000
 51
        0.000000
  7
BIGFONT
  0
LINE
  8
LVL0000
 62
  2
 10
      251.500000
 20
      138.000000
 30
        0.000000
 11
      251.500000
 21
      117.591934
 31
        0.000000
  0
LINE
  8
LVL0000
 62
  2
 10
      -29.500002
 20
      138.000000
 30
        0.000000
 11
      -29.500002
 21
      117.591934
 31
        0.000000
  0
LINE
  8
LVL0000
 62
  2
 10
      248.500000
 20
      117.306534
 30
        0.000000
 11
      251.500000
 21
      118.091934
 31
        0.000000
  0
LINE
  8
LVL0000
 62
  2
 10
      251.500000
 20
      118.091934
 30
        0.000000
 11
      248.500000
 21
      118.877335
 31
        0.000000
  0
LINE
  8
LVL0000
 62
  2
 10
      -26.500002
 20
      118.877335
 30
        0.000000
 11
      -29.500002
 21
      118.091934
 31
        0.000000
  0
LINE
  8
LVL0000
 62
  2
 10
      -29.500002
 20
      118.091934
 30
        0.000000
 11
      -26.500002
 21
      117.306534
 31
        0.000000
  0
LINE
  8
LVL0000
 62
  2
 10
      251.500000
 20
      118.091934
 30
        0.000000
 11
      -29.500002
 21
      118.091934
 31
        0.000000
  0
ENDBLK
  0
BLOCK
  8
0
  2
BLK0004
 70
    64
 10
        0.000000
 20
        0.000000
  0
TEXT
  8
LVL0000
 62
  2
 10
      289.821838
 20
      194.000000
 30
        0.000000
 40
        4.000000
  1
１３０
 50
       90.000000
 41
        0.835000
 51
        0.000000
  7
BIGFONT
  0
LINE
  8
LVL0000
 62
  2
 10
      244.500000
 20
      265.000000
 30
        0.000000
 11
      290.821838
 21
      265.000000
 31
        0.000000
  0
LINE
  8
LVL0000
 62
  2
 10
      244.500000
 20
      135.000000
 30
        0.000000
 11
      290.821838
 21
      135.000000
 31
        0.000000
  0
LINE
  8
LVL0000
 62
  2
 10
      291.107239
 20
      262.000000
 30
        0.000000
 11
      290.321838
 21
      265.000000
 31
        0.000000
  0
LINE
  8
LVL0000
 62
  2
 10
      290.321838
 20
      265.000000
 30
        0.000000
 11
      289.536438
 21
      262.000000
 31
        0.000000
  0
LINE
  8
LVL0000
 62
  2
 10
      289.536438
 20
      138.000000
 30
        0.000000
 11
      290.321838
 21
      135.000000
 31
        0.000000
  0
LINE
  8
LVL0000
 62
  2
 10
      290.321838
 20
      135.000000
 30
        0.000000
 11
      291.107239
 21
      138.000000
 31
        0.000000
  0
LINE
  8
LVL0000
 62
  2
 10
      290.321838
 20
      265.000000
 30
        0.000000
 11
      290.321838
 21
      135.000000
 31
        0.000000
  0
ENDBLK
  0
BLOCK
  8
0
  2
BLK0005
 70
    64
 10
        0.000000
 20
        0.000000
  0
TEXT
  8
LVL0000
 62
  2
 10
      278.835358
 20
      192.000000
 30
        0.000000
 40
        4.000000
  1
１１８
 50
       90.000000
 41
        0.835000
 51
        0.000000
  7
BIGFONT
  0
LINE
  8
LVL0000
 62
  2
 10
      252.500000
 20
      257.000000
 30
        0.000000
 11
      279.835358
 21
      257.000000
 31
        0.000000
  0
LINE
  8
LVL0000
 62
  2
 10
      252.500000
 20
      139.000000
 30
        0.000000
 11
      279.835358
 21
      139.000000
 31
        0.000000
  0
LINE
  8
LVL0000
 62
  2
 10
      280.120758
 20
      254.000000
 30
        0.000000
 11
      279.335358
 21
      257.000000
 31
        0.000000
  0
LINE
  8
LVL0000
 62
  2
 10
      279.335358
 20
      257.000000
 30
        0.000000
 11
      278.549957
 21
      254.000000
 31
        0.000000
  0
LINE
  8
LVL0000
 62
  2
 10
      278.549957
 20
      142.000000
 30
        0.000000
 11
      279.335358
 21
      139.000000
 31
        0.000000
  0
LINE
  8
LVL0000
 62
  2
 10
      279.335358
 20
      139.000000
 30
        0.000000
 11
      280.120758
 21
      142.000000
 31
        0.000000
  0
LINE
  8
LVL0000
 62
  2
 10
      279.335358
 20
      257.000000
 30
        0.000000
 11
      279.335358
 21
      139.000000
 31
        0.000000
  0
ENDBLK
  0
BLOCK
  8
0
  2
BLK0006
 70
    64
 10
        0.000000
 20
        0.000000
  0
TEXT
  8
LVL0000
 62
  2
 10
      278.835358
 20
      259.000000
 30
        0.000000
 40
        4.000000
  1
８
 50
       90.000000
 41
        0.835000
 51
        0.000000
  7
BIGFONT
  0
LINE
  8
LVL0000
 62
  2
 10
      244.500000
 20
      265.000000
 30
        0.000000
 11
      279.835358
 21
      265.000000
 31
        0.000000
  0
LINE
  8
LVL0000
 62
  2
 10
      252.500000
 20
      257.000000
 30
        0.000000
 11
      279.835358
 21
      257.000000
 31
        0.000000
  0
LINE
  8
LVL0000
 62
  2
 10
      278.549957
 20
      268.000000
 30
        0.000000
 11
      279.335358
 21
      265.000000
 31
        0.000000
  0
LINE
  8
LVL0000
 62
  2
 10
      279.335358
 20
      265.000000
 30
        0.000000
 11
      280.120758
 21
      268.000000
 31
        0.000000
  0
LINE
  8
LVL0000
 62
  2
 10
      280.120758
 20
      254.000000
 30
        0.000000
 11
      279.335358
 21
      257.000000
 31
        0.000000
  0
LINE
  8
LVL0000
 62
  2
 10
      279.335358
 20
      257.000000
 30
        0.000000
 11
      278.549957
 21
      254.000000
 31
        0.000000
  0
LINE
  8
LVL0000
 62
  2
 10
      279.335358
 20
      271.000000
 30
        0.000000
 11
      279.335358
 21
      251.000000
 31
        0.000000
  0
ENDBLK
  0
ENDSEC
  0
SECTION
  2
ENTITIES
  0
LINE
  8
LVL0000
 10
        5.707106
 20
      240.457901
 30
        0.000000
 11
        7.121321
 21
      239.043686
 31
        0.000000
  0
ARC
  8
LVL0000
 10
        4.999998
 20
      239.750793
 30
        0.000000
 40
        1.000001
 50
       45.000000
 51
      180.000010
  0
ARC
  8
LVL0000
 10
        4.999998
 20
      236.922363
 30
        0.000000
 40
        3.000000
 50
        0.000000
 51
       45.000051
  0
LINE
  8
LVL0000
 10
        2.999998
 20
      243.565002
 30
        0.000000
 11
        8.999998
 21
      243.565002
 31
        0.000000
  0
LINE
  8
LVL0000
 10
        2.999998
 20
      209.065002
 30
        0.000000
 11
        8.999998
 21
      209.065002
 31
        0.000000
  0
LINE
  8
LVL0000
 10
        8.999998
 20
      243.565002
 30
        0.000000
 11
        8.999998
 21
      209.065002
 31
        0.000000
  0
LINE
  8
LVL0000
 10
        2.999998
 20
      243.565002
 30
        0.000000
 11
        2.999998
 21
      209.065002
 31
        0.000000
  0
ARC
  8
LVL0000
 10
        4.999998
 20
      212.879211
 30
        0.000000
 40
        1.000000
 50
      180.000010
 51
      315.000020
  0
LINE
  8
LVL0000
 10
        3.999998
 20
      239.750793
 30
        0.000000
 11
        3.999998
 21
      212.879211
 31
        0.000000
  0
LINE
  8
LVL0000
 10
        5.707106
 20
      212.172104
 30
        0.000000
 11
        7.121321
 21
      213.586319
 31
        0.000000
  0
ARC
  8
LVL0000
 10
        4.999998
 20
      215.707642
 30
        0.000000
 40
        3.000004
 50
      315.000020
 51
      360.000000
  0
LINE
  8
LVL0000
 10
        7.999998
 20
      236.922363
 30
        0.000000
 11
        7.999998
 21
      215.707642
 31
        0.000000
  0
LINE
  8
LVL0000
 10
      216.899992
 20
      241.130005
 30
        0.000000
 11
      219.699995
 21
      241.130005
 31
        0.000000
  0
LINE
  8
LVL0000
 10
      216.899992
 20
      215.000015
 30
        0.000000
 11
      219.699995
 21
      215.000015
 31
        0.000000
  0
LINE
  8
LVL0000
 10
      216.899992
 20
      215.000015
 30
        0.000000
 11
      216.899992
 21
      241.130005
 31
        0.000000
  0
LINE
  8
LVL0000
 10
      219.699995
 20
      215.000015
 30
        0.000000
 11
      219.699995
 21
      241.130005
 31
        0.000000
  0
LINE
  8
LVL0000
 10
      221.600004
 20
      214.500015
 30
        0.000000
 11
      221.600004
 21
      241.630005
 31
        0.000000
  0
LINE
  8
LVL0000
 10
      214.999998
 20
      209.000015
 30
        0.000000
 11
      214.999998
 21
      247.130005
 31
        0.000000
  0
LINE
  8
LVL0000
 10
      215.899992
 20
      214.000015
 30
        0.000000
 11
      215.899992
 21
      242.130005
 31
        0.000000
  0
LINE
  8
LVL0000
 10
      220.699995
 20
      214.000015
 30
        0.000000
 11
      220.699995
 21
      242.130005
 31
        0.000000
  0
LINE
  8
LVL0000
 10
      221.600004
 20
      214.500015
 30
        0.000000
 11
      221.999998
 21
      214.500015
 31
        0.000000
  0
LINE
  8
LVL0000
 10
      221.999998
 20
      214.500015
 30
        0.000000
 11
      221.999998
 21
      209.000015
 31
        0.000000
  0
LINE
  8
LVL0000
 10
      214.999998
 20
      209.000015
 30
        0.000000
 11
      221.999998
 21
      209.000015
 31
        0.000000
  0
LINE
  8
LVL0000
 10
      220.149992
 20
      212.550018
 30
        0.000000
 11
      220.149992
 21
      209.700012
 31
        0.000000
  0
LINE
  8
LVL0000
 10
      216.449995
 20
      212.550018
 30
        0.000000
 11
      216.449995
 21
      209.700012
 31
        0.000000
  0
LINE
  8
LVL0000
 10
      220.149992
 20
      212.550018
 30
        0.000000
 11
      221.999998
 21
      212.550018
 31
        0.000000
  0
LINE
  8
LVL0000
 10
      214.999998
 20
      212.550018
 30
        0.000000
 11
      216.449995
 21
      212.550018
 31
        0.000000
  0
LINE
  8
LVL0000
 10
      216.449995
 20
      209.700012
 30
        0.000000
 11
      220.149992
 21
      209.700012
 31
        0.000000
  0
CIRCLE
  8
LVL0000
 10
      218.300001
 20
      211.555023
 30
        0.000000
 40
        1.149994
  0
LINE
  8
LVL0000
 10
      215.899992
 20
      214.000015
 30
        0.000000
 11
      220.699995
 21
      214.000015
 31
        0.000000
  0
LINE
  8
LVL0000
 10
      214.999998
 20
      247.130005
 30
        0.000000
 11
      221.999998
 21
      247.130005
 31
        0.000000
  0
LINE
  8
LVL0000
 10
      221.600004
 20
      241.630005
 30
        0.000000
 11
      221.999998
 21
      241.630005
 31
        0.000000
  0
LINE
  8
LVL0000
 10
      221.999998
 20
      241.630005
 30
        0.000000
 11
      221.999998
 21
      247.130005
 31
        0.000000
  0
LINE
  8
LVL0000
 10
      220.149992
 20
      243.580002
 30
        0.000000
 11
      220.149992
 21
      246.430008
 31
        0.000000
  0
LINE
  8
LVL0000
 10
      216.449995
 20
      243.580002
 30
        0.000000
 11
      216.449995
 21
      246.430008
 31
        0.000000
  0
LINE
  8
LVL0000
 10
      215.899992
 20
      242.130005
 30
        0.000000
 11
      220.699995
 21
      242.130005
 31
        0.000000
  0
LINE
  8
LVL0000
 10
      220.149992
 20
      243.580002
 30
        0.000000
 11
      221.999998
 21
      243.580002
 31
        0.000000
  0
LINE
  8
LVL0000
 10
      214.999998
 20
      243.580002
 30
        0.000000
 11
      216.449995
 21
      243.580002
 31
        0.000000
  0
LINE
  8
LVL0000
 10
      216.449995
 20
      246.430008
 30
        0.000000
 11
      220.149992
 21
      246.430008
 31
        0.000000
  0
CIRCLE
  8
LVL0000
 10
      218.300001
 20
      244.574997
 30
        0.000000
 40
        1.149994
  0
LINE
  8
LVL0000
 10
      181.399992
 20
      241.130005
 30
        0.000000
 11
      184.199995
 21
      241.130005
 31
        0.000000
  0
LINE
  8
LVL0000
 10
      181.399992
 20
      215.000015
 30
        0.000000
 11
      184.199995
 21
      215.000015
 31
        0.000000
  0
LINE
  8
LVL0000
 10
      181.399992
 20
      215.000015
 30
        0.000000
 11
      181.399992
 21
      241.130005
 31
        0.000000
  0
LINE
  8
LVL0000
 10
      184.199995
 20
      215.000015
 30
        0.000000
 11
      184.199995
 21
      241.130005
 31
        0.000000
  0
LINE
  8
LVL0000
 10
      186.100004
 20
      214.500015
 30
        0.000000
 11
      186.100004
 21
      241.630005
 31
        0.000000
  0
LINE
  8
LVL0000
 10
      179.499998
 20
      209.000015
 30
        0.000000
 11
      179.499998
 21
      247.130005
 31
        0.000000
  0
LINE
  8
LVL0000
 10
      180.399992
 20
      214.000015
 30
        0.000000
 11
      180.399992
 21
      242.130005
 31
        0.000000
  0
LINE
  8
LVL0000
 10
      185.199995
 20
      214.000015
 30
        0.000000
 11
      185.199995
 21
      242.130005
 31
        0.000000
  0
LINE
  8
LVL0000
 10
      186.100004
 20
      214.500015
 30
        0.000000
 11
      186.499998
 21
      214.500015
 31
        0.000000
  0
LINE
  8
LVL0000
 10
      186.499998
 20
      214.500015
 30
        0.000000
 11
      186.499998
 21
      209.000015
 31
        0.000000
  0
LINE
  8
LVL0000
 10
      179.499998
 20
      209.000015
 30
        0.000000
 11
      186.499998
 21
      209.000015
 31
        0.000000
  0
LINE
  8
LVL0000
 10
      184.649992
 20
      212.550018
 30
        0.000000
 11
      184.649992
 21
      209.700012
 31
        0.000000
  0
LINE
  8
LVL0000
 10
      180.949995
 20
      212.550018
 30
        0.000000
 11
      180.949995
 21
      209.700012
 31
        0.000000
  0
LINE
  8
LVL0000
 10
      184.649992
 20
      212.550018
 30
        0.000000
 11
      186.499998
 21
      212.550018
 31
        0.000000
  0
LINE
  8
LVL0000
 10
      179.499998
 20
      212.550018
 30
        0.000000
 11
      180.949995
 21
      212.550018
 31
        0.000000
  0
LINE
  8
LVL0000
 10
      180.949995
 20
      209.700012
 30
        0.000000
 11
      184.649992
 21
      209.700012
 31
        0.000000
  0
CIRCLE
  8
LVL0000
 10
      182.800001
 20
      211.555023
 30
        0.000000
 40
        1.149994
  0
LINE
  8
LVL0000
 10
      180.399992
 20
      214.000015
 30
        0.000000
 11
      185.199995
 21
      214.000015
 31
        0.000000
  0
LINE
  8
LVL0000
 10
      179.499998
 20
      247.130005
 30
        0.000000
 11
      186.499998
 21
      247.130005
 31
        0.000000
  0
LINE
  8
LVL0000
 10
      186.100004
 20
      241.630005
 30
        0.000000
 11
      186.499998
 21
      241.630005
 31
        0.000000
  0
LINE
  8
LVL0000
 10
      186.499998
 20
      241.630005
 30
        0.000000
 11
      186.499998
 21
      247.130005
 31
        0.000000
  0
LINE
  8
LVL0000
 10
      184.649992
 20
      243.580002
 30
        0.000000
 11
      184.649992
 21
      246.430008
 31
        0.000000
  0
LINE
  8
LVL0000
 10
      180.949995
 20
      243.580002
 30
        0.000000
 11
      180.949995
 21
      246.430008
 31
        0.000000
  0
LINE
  8
LVL0000
 10
      180.399992
 20
      242.130005
 30
        0.000000
 11
      185.199995
 21
      242.130005
 31
        0.000000
  0
LINE
  8
LVL0000
 10
      184.649992
 20
      243.580002
 30
        0.000000
 11
      186.499998
 21
      243.580002
 31
        0.000000
  0
LINE
  8
LVL0000
 10
      179.499998
 20
      243.580002
 30
        0.000000
 11
      180.949995
 21
      243.580002
 31
        0.000000
  0
LINE
  8
LVL0000
 10
      180.949995
 20
      246.430008
 30
        0.000000
 11
      184.649992
 21
      246.430008
 31
        0.000000
  0
CIRCLE
  8
LVL0000
 10
      182.800001
 20
      244.574997
 30
        0.000000
 40
        1.149994
  0
LINE
  8
LVL0000
 10
      247.499986
 20
      204.114988
 30
        0.000000
 11
      247.499986
 21
      199.814985
 31
        0.000000
  0
LINE
  8
LVL0000
 10
      242.900010
 20
      204.114988
 30
        0.000000
 11
      242.900010
 21
      199.814985
 31
        0.000000
  0
LINE
  8
LVL0000
 10
      247.499986
 20
      169.284986
 30
        0.000000
 11
      247.499986
 21
      164.984983
 31
        0.000000
  0
LINE
  8
LVL0000
 10
      242.900010
 20
      169.284986
 30
        0.000000
 11
      242.900010
 21
      164.984983
 31
        0.000000
  0
LINE
  8
LVL0000
 10
      243.449998
 20
      168.299985
 30
        0.000000
 11
      246.949998
 21
      168.299985
 31
        0.000000
  0
LINE
  8
LVL0000
 10
      243.449998
 20
      200.799985
 30
        0.000000
 11
      246.949998
 21
      200.799985
 31
        0.000000
  0
LINE
  8
LVL0000
 10
      242.900010
 20
      204.114988
 30
        0.000000
 11
      247.499986
 21
      204.114988
 31
        0.000000
  0
LINE
  8
LVL0000
 10
      242.900010
 20
      164.984983
 30
        0.000000
 11
      247.499986
 21
      164.984983
 31
        0.000000
  0
LINE
  8
LVL0000
 10
      246.949998
 20
      169.284986
 30
        0.000000
 11
      246.949998
 21
      168.299985
 31
        0.000000
  0
LINE
  8
LVL0000
 10
      243.449998
 20
      169.284986
 30
        0.000000
 11
      243.449998
 21
      168.299985
 31
        0.000000
  0
LINE
  8
LVL0000
 10
      246.949998
 20
      200.799985
 30
        0.000000
 11
      246.949998
 21
      199.814985
 31
        0.000000
  0
LINE
  8
LVL0000
 10
      243.449998
 20
      200.799985
 30
        0.000000
 11
      243.449998
 21
      199.814985
 31
        0.000000
  0
LINE
  8
LVL0000
 10
      248.499986
 20
      199.814985
 30
        0.000000
 11
      248.499986
 21
      169.284986
 31
        0.000000
  0
LINE
  8
LVL0000
 10
      241.899980
 20
      169.284986
 30
        0.000000
 11
      248.900010
 21
      169.284986
 31
        0.000000
  0
LINE
  8
LVL0000
 10
      241.899980
 20
      199.814985
 30
        0.000000
 11
      248.900010
 21
      199.814985
 31
        0.000000
  0
LINE
  8
LVL0000
 10
      248.499986
 20
      197.614988
 30
        0.000000
 11
      248.900010
 21
      197.614988
 31
        0.000000
  0
LINE
  8
LVL0000
 10
      248.499986
 20
      171.484983
 30
        0.000000
 11
      248.900010
 21
      171.484983
 31
        0.000000
  0
LINE
  8
LVL0000
 10
      248.900010
 20
      171.484983
 30
        0.000000
 11
      248.900010
 21
      164.284986
 31
        0.000000
  0
LINE
  8
LVL0000
 10
      248.900010
 20
      204.814985
 30
        0.000000
 11
      248.900010
 21
      197.614988
 31
        0.000000
  0
LINE
  8
LVL0000
 10
      241.899980
 20
      199.814985
 30
        0.000000
 11
      248.900010
 21
      199.814985
 31
        0.000000
  0
LINE
  8
LVL0000
 10
      241.899980
 20
      164.284986
 30
        0.000000
 11
      248.900010
 21
      164.284986
 31
        0.000000
  0
LINE
  8
LVL0000
 10
      241.899980
 20
      204.814985
 30
        0.000000
 11
      248.900010
 21
      204.814985
 31
        0.000000
  0
LINE
  8
LVL0000
 10
      241.899980
 20
      204.814985
 30
        0.000000
 11
      241.899980
 21
      164.284986
 31
        0.000000
  0
LINE
  8
LVL0000
 10
      244.247483
 20
      197.464979
 30
        0.000000
 11
      244.247483
 21
      171.634984
 31
        0.000000
  0
LINE
  8
LVL0000
 10
      246.152513
 20
      197.464979
 30
        0.000000
 11
      246.152513
 21
      171.634984
 31
        0.000000
  0
CIRCLE
  8
LVL0000
 10
      245.199998
 20
      166.769987
 30
        0.000000
 40
        1.149994
  0
CIRCLE
  8
LVL0000
 10
      245.199998
 20
      202.329984
 30
        0.000000
 40
        1.149994
  0
LINE
  8
LVL0000
 10
      243.949998
 20
      197.464979
 30
        0.000000
 11
      243.949998
 21
      171.634984
 31
        0.000000
  0
LINE
  8
LVL0000
 10
      246.449998
 20
      197.464979
 30
        0.000000
 11
      246.449998
 21
      171.634984
 31
        0.000000
  0
LINE
  8
LVL0000
 10
      242.699998
 20
      198.814985
 30
        0.000000
 11
      242.699998
 21
      170.284986
 31
        0.000000
  0
LINE
  8
LVL0000
 10
      247.699998
 20
      198.814985
 30
        0.000000
 11
      247.699998
 21
      170.284986
 31
        0.000000
  0
LINE
  8
LVL0000
 10
      243.949998
 20
      171.634984
 30
        0.000000
 11
      246.449998
 21
      171.634984
 31
        0.000000
  0
LINE
  8
LVL0000
 10
      243.949998
 20
      197.464979
 30
        0.000000
 11
      246.449998
 21
      197.464979
 31
        0.000000
  0
LINE
  8
LVL0000
 10
      242.699998
 20
      170.284986
 30
        0.000000
 11
      247.699998
 21
      170.284986
 31
        0.000000
  0
LINE
  8
LVL0000
 10
      242.699998
 20
      198.814985
 30
        0.000000
 11
      247.699998
 21
      198.814985
 31
        0.000000
  0
LINE
  8
LVL0000
 10
      239.699998
 20
      245.615005
 30
        0.000000
 11
      239.699998
 21
      241.315002
 31
        0.000000
  0
LINE
  8
LVL0000
 10
      235.100023
 20
      245.615005
 30
        0.000000
 11
      235.100023
 21
      241.315002
 31
        0.000000
  0
LINE
  8
LVL0000
 10
      239.699998
 20
      210.785004
 30
        0.000000
 11
      239.699998
 21
      206.485001
 31
        0.000000
  0
LINE
  8
LVL0000
 10
      235.100023
 20
      210.785004
 30
        0.000000
 11
      235.100023
 21
      206.485001
 31
        0.000000
  0
LINE
  8
LVL0000
 10
      235.650010
 20
      209.800003
 30
        0.000000
 11
      239.150010
 21
      209.800003
 31
        0.000000
  0
LINE
  8
LVL0000
 10
      235.650010
 20
      242.300003
 30
        0.000000
 11
      239.150010
 21
      242.300003
 31
        0.000000
  0
LINE
  8
LVL0000
 10
      235.100023
 20
      245.615005
 30
        0.000000
 11
      239.699998
 21
      245.615005
 31
        0.000000
  0
LINE
  8
LVL0000
 10
      235.100023
 20
      206.485001
 30
        0.000000
 11
      239.699998
 21
      206.485001
 31
        0.000000
  0
LINE
  8
LVL0000
 10
      239.150010
 20
      210.785004
 30
        0.000000
 11
      239.150010
 21
      209.800003
 31
        0.000000
  0
LINE
  8
LVL0000
 10
      235.650010
 20
      210.785004
 30
        0.000000
 11
      235.650010
 21
      209.800003
 31
        0.000000
  0
LINE
  8
LVL0000
 10
      239.150010
 20
      242.300003
 30
        0.000000
 11
      239.150010
 21
      241.315002
 31
        0.000000
  0
LINE
  8
LVL0000
 10
      235.650010
 20
      242.300003
 30
        0.000000
 11
      235.650010
 21
      241.315002
 31
        0.000000
  0
LINE
  8
LVL0000
 10
      240.699998
 20
      241.315002
 30
        0.000000
 11
      240.699998
 21
      210.785004
 31
        0.000000
  0
LINE
  8
LVL0000
 10
      234.099992
 20
      210.785004
 30
        0.000000
 11
      241.100023
 21
      210.785004
 31
        0.000000
  0
LINE
  8
LVL0000
 10
      234.099992
 20
      241.315002
 30
        0.000000
 11
      241.100023
 21
      241.315002
 31
        0.000000
  0
LINE
  8
LVL0000
 10
      240.699998
 20
      239.115005
 30
        0.000000
 11
      241.100023
 21
      239.115005
 31
        0.000000
  0
LINE
  8
LVL0000
 10
      240.699998
 20
      212.985001
 30
        0.000000
 11
      241.100023
 21
      212.985001
 31
        0.000000
  0
LINE
  8
LVL0000
 10
      241.100023
 20
      212.985001
 30
        0.000000
 11
      241.100023
 21
      205.785004
 31
        0.000000
  0
LINE
  8
LVL0000
 10
      241.100023
 20
      246.315002
 30
        0.000000
 11
      241.100023
 21
      239.115005
 31
        0.000000
  0
LINE
  8
LVL0000
 10
      234.099992
 20
      241.315002
 30
        0.000000
 11
      241.100023
 21
      241.315002
 31
        0.000000
  0
LINE
  8
LVL0000
 10
      234.099992
 20
      205.785004
 30
        0.000000
 11
      241.100023
 21
      205.785004
 31
        0.000000
  0
LINE
  8
LVL0000
 10
      234.099992
 20
      246.315002
 30
        0.000000
 11
      241.100023
 21
      246.315002
 31
        0.000000
  0
LINE
  8
LVL0000
 10
      234.099992
 20
      246.315002
 30
        0.000000
 11
      234.099992
 21
      205.785004
 31
        0.000000
  0
LINE
  8
LVL0000
 10
      236.447496
 20
      238.964996
 30
        0.000000
 11
      236.447496
 21
      213.135002
 31
        0.000000
  0
LINE
  8
LVL0000
 10
      238.352525
 20
      238.964996
 30
        0.000000
 11
      238.352525
 21
      213.135002
 31
        0.000000
  0
CIRCLE
  8
LVL0000
 10
      237.400010
 20
      208.270004
 30
        0.000000
 40
        1.149994
  0
CIRCLE
  8
LVL0000
 10
      237.400010
 20
      243.830002
 30
        0.000000
 40
        1.149994
  0
LINE
  8
LVL0000
 10
      236.150010
 20
      238.964996
 30
        0.000000
 11
      236.150010
 21
      213.135002
 31
        0.000000
  0
LINE
  8
LVL0000
 10
      238.650010
 20
      238.964996
 30
        0.000000
 11
      238.650010
 21
      213.135002
 31
        0.000000
  0
LINE
  8
LVL0000
 10
      234.900010
 20
      240.315002
 30
        0.000000
 11
      234.900010
 21
      211.785004
 31
        0.000000
  0
LINE
  8
LVL0000
 10
      239.900010
 20
      240.315002
 30
        0.000000
 11
      239.900010
 21
      211.785004
 31
        0.000000
  0
LINE
  8
LVL0000
 10
      236.150010
 20
      213.135002
 30
        0.000000
 11
      238.650010
 21
      213.135002
 31
        0.000000
  0
LINE
  8
LVL0000
 10
      236.150010
 20
      238.964996
 30
        0.000000
 11
      238.650010
 21
      238.964996
 31
        0.000000
  0
LINE
  8
LVL0000
 10
      234.900010
 20
      211.785004
 30
        0.000000
 11
      239.900010
 21
      211.785004
 31
        0.000000
  0
LINE
  8
LVL0000
 10
      234.900010
 20
      240.315002
 30
        0.000000
 11
      239.900010
 21
      240.315002
 31
        0.000000
  0
LINE
  8
LVL0000
 10
       39.399992
 20
      241.130005
 30
        0.000000
 11
       42.199995
 21
      241.130005
 31
        0.000000
  0
LINE
  8
LVL0000
 10
       39.399992
 20
      215.000015
 30
        0.000000
 11
       42.199995
 21
      215.000015
 31
        0.000000
  0
LINE
  8
LVL0000
 10
       39.399992
 20
      215.000015
 30
        0.000000
 11
       39.399992
 21
      241.130005
 31
        0.000000
  0
LINE
  8
LVL0000
 10
       42.199995
 20
      215.000015
 30
        0.000000
 11
       42.199995
 21
      241.130005
 31
        0.000000
  0
LINE
  8
LVL0000
 10
       44.099997
 20
      214.500015
 30
        0.000000
 11
       44.099997
 21
      241.630005
 31
        0.000000
  0
LINE
  8
LVL0000
 10
       37.499998
 20
      209.000015
 30
        0.000000
 11
       37.499998
 21
      247.130005
 31
        0.000000
  0
LINE
  8
LVL0000
 10
       38.399992
 20
      214.000015
 30
        0.000000
 11
       38.399992
 21
      242.130005
 31
        0.000000
  0
LINE
  8
LVL0000
 10
       43.199995
 20
      214.000015
 30
        0.000000
 11
       43.199995
 21
      242.130005
 31
        0.000000
  0
LINE
  8
LVL0000
 10
       44.099997
 20
      214.500015
 30
        0.000000
 11
       44.499998
 21
      214.500015
 31
        0.000000
  0
LINE
  8
LVL0000
 10
       44.499998
 20
      214.500015
 30
        0.000000
 11
       44.499998
 21
      209.000015
 31
        0.000000
  0
LINE
  8
LVL0000
 10
       37.499998
 20
      209.000015
 30
        0.000000
 11
       44.499998
 21
      209.000015
 31
        0.000000
  0
LINE
  8
LVL0000
 10
       42.649992
 20
      212.550018
 30
        0.000000
 11
       42.649992
 21
      209.700012
 31
        0.000000
  0
LINE
  8
LVL0000
 10
       38.949995
 20
      212.550018
 30
        0.000000
 11
       38.949995
 21
      209.700012
 31
        0.000000
  0
LINE
  8
LVL0000
 10
       42.649992
 20
      212.550018
 30
        0.000000
 11
       44.499998
 21
      212.550018
 31
        0.000000
  0
LINE
  8
LVL0000
 10
       37.499998
 20
      212.550018
 30
        0.000000
 11
       38.949995
 21
      212.550018
 31
        0.000000
  0
LINE
  8
LVL0000
 10
       38.949995
 20
      209.700012
 30
        0.000000
 11
       42.649992
 21
      209.700012
 31
        0.000000
  0
CIRCLE
  8
LVL0000
 10
       40.800001
 20
      211.555023
 30
        0.000000
 40
        1.149994
  0
LINE
  8
LVL0000
 10
       38.399992
 20
      214.000015
 30
        0.000000
 11
       43.199995
 21
      214.000015
 31
        0.000000
  0
LINE
  8
LVL0000
 10
       37.499998
 20
      247.130005
 30
        0.000000
 11
       44.499998
 21
      247.130005
 31
        0.000000
  0
LINE
  8
LVL0000
 10
       44.099997
 20
      241.630005
 30
        0.000000
 11
       44.499998
 21
      241.630005
 31
        0.000000
  0
LINE
  8
LVL0000
 10
       44.499998
 20
      241.630005
 30
        0.000000
 11
       44.499998
 21
      247.130005
 31
        0.000000
  0
LINE
  8
LVL0000
 10
       42.649992
 20
      243.580002
 30
        0.000000
 11
       42.649992
 21
      246.430008
 31
        0.000000
  0
LINE
  8
LVL0000
 10
       38.949995
 20
      243.580002
 30
        0.000000
 11
       38.949995
 21
      246.430008
 31
        0.000000
  0
LINE
  8
LVL0000
 10
       38.399992
 20
      242.130005
 30
        0.000000
 11
       43.199995
 21
      242.130005
 31
        0.000000
  0
LINE
  8
LVL0000
 10
       42.649992
 20
      243.580002
 30
        0.000000
 11
       44.499998
 21
      243.580002
 31
        0.000000
  0
LINE
  8
LVL0000
 10
       37.499998
 20
      243.580002
 30
        0.000000
 11
       38.949995
 21
      243.580002
 31
        0.000000
  0
LINE
  8
LVL0000
 10
       38.949995
 20
      246.430008
 30
        0.000000
 11
       42.649992
 21
      246.430008
 31
        0.000000
  0
CIRCLE
  8
LVL0000
 10
       40.800001
 20
      244.574997
 30
        0.000000
 40
        1.149994
  0
LINE
  8
LVL0000
 10
       74.899992
 20
      241.130005
 30
        0.000000
 11
       77.699995
 21
      241.130005
 31
        0.000000
  0
LINE
  8
LVL0000
 10
       74.899992
 20
      215.000015
 30
        0.000000
 11
       77.699995
 21
      215.000015
 31
        0.000000
  0
LINE
  8
LVL0000
 10
       74.899992
 20
      215.000015
 30
        0.000000
 11
       74.899992
 21
      241.130005
 31
        0.000000
  0
LINE
  8
LVL0000
 10
       77.699995
 20
      215.000015
 30
        0.000000
 11
       77.699995
 21
      241.130005
 31
        0.000000
  0
LINE
  8
LVL0000
 10
       79.599997
 20
      214.500015
 30
        0.000000
 11
       79.599997
 21
      241.630005
 31
        0.000000
  0
LINE
  8
LVL0000
 10
       72.999998
 20
      209.000015
 30
        0.000000
 11
       72.999998
 21
      247.130005
 31
        0.000000
  0
LINE
  8
LVL0000
 10
       73.899992
 20
      214.000015
 30
        0.000000
 11
       73.899992
 21
      242.130005
 31
        0.000000
  0
LINE
  8
LVL0000
 10
       78.699995
 20
      214.000015
 30
        0.000000
 11
       78.699995
 21
      242.130005
 31
        0.000000
  0
LINE
  8
LVL0000
 10
       79.599997
 20
      214.500015
 30
        0.000000
 11
       79.999998
 21
      214.500015
 31
        0.000000
  0
LINE
  8
LVL0000
 10
       79.999998
 20
      214.500015
 30
        0.000000
 11
       79.999998
 21
      209.000015
 31
        0.000000
  0
LINE
  8
LVL0000
 10
       72.999998
 20
      209.000015
 30
        0.000000
 11
       79.999998
 21
      209.000015
 31
        0.000000
  0
LINE
  8
LVL0000
 10
       78.149992
 20
      212.550018
 30
        0.000000
 11
       78.149992
 21
      209.700012
 31
        0.000000
  0
LINE
  8
LVL0000
 10
       74.449995
 20
      212.550018
 30
        0.000000
 11
       74.449995
 21
      209.700012
 31
        0.000000
  0
LINE
  8
LVL0000
 10
       78.149992
 20
      212.550018
 30
        0.000000
 11
       79.999998
 21
      212.550018
 31
        0.000000
  0
LINE
  8
LVL0000
 10
       72.999998
 20
      212.550018
 30
        0.000000
 11
       74.449995
 21
      212.550018
 31
        0.000000
  0
LINE
  8
LVL0000
 10
       74.449995
 20
      209.700012
 30
        0.000000
 11
       78.149992
 21
      209.700012
 31
        0.000000
  0
CIRCLE
  8
LVL0000
 10
       76.300001
 20
      211.555023
 30
        0.000000
 40
        1.149994
  0
LINE
  8
LVL0000
 10
       73.899992
 20
      214.000015
 30
        0.000000
 11
       78.699995
 21
      214.000015
 31
        0.000000
  0
LINE
  8
LVL0000
 10
       72.999998
 20
      247.130005
 30
        0.000000
 11
       79.999998
 21
      247.130005
 31
        0.000000
  0
LINE
  8
LVL0000
 10
       79.599997
 20
      241.630005
 30
        0.000000
 11
       79.999998
 21
      241.630005
 31
        0.000000
  0
LINE
  8
LVL0000
 10
       79.999998
 20
      241.630005
 30
        0.000000
 11
       79.999998
 21
      247.130005
 31
        0.000000
  0
LINE
  8
LVL0000
 10
       78.149992
 20
      243.580002
 30
        0.000000
 11
       78.149992
 21
      246.430008
 31
        0.000000
  0
LINE
  8
LVL0000
 10
       74.449995
 20
      243.580002
 30
        0.000000
 11
       74.449995
 21
      246.430008
 31
        0.000000
  0
LINE
  8
LVL0000
 10
       73.899992
 20
      242.130005
 30
        0.000000
 11
       78.699995
 21
      242.130005
 31
        0.000000
  0
LINE
  8
LVL0000
 10
       78.149992
 20
      243.580002
 30
        0.000000
 11
       79.999998
 21
      243.580002
 31
        0.000000
  0
LINE
  8
LVL0000
 10
       72.999998
 20
      243.580002
 30
        0.000000
 11
       74.449995
 21
      243.580002
 31
        0.000000
  0
LINE
  8
LVL0000
 10
       74.449995
 20
      246.430008
 30
        0.000000
 11
       78.149992
 21
      246.430008
 31
        0.000000
  0
CIRCLE
  8
LVL0000
 10
       76.300001
 20
      244.574997
 30
        0.000000
 40
        1.149994
  0
LINE
  8
LVL0000
 10
      145.899992
 20
      241.130005
 30
        0.000000
 11
      148.699995
 21
      241.130005
 31
        0.000000
  0
LINE
  8
LVL0000
 10
      145.899992
 20
      215.000015
 30
        0.000000
 11
      148.699995
 21
      215.000015
 31
        0.000000
  0
LINE
  8
LVL0000
 10
      145.899992
 20
      215.000015
 30
        0.000000
 11
      145.899992
 21
      241.130005
 31
        0.000000
  0
LINE
  8
LVL0000
 10
      148.699995
 20
      215.000015
 30
        0.000000
 11
      148.699995
 21
      241.130005
 31
        0.000000
  0
LINE
  8
LVL0000
 10
      150.600004
 20
      214.500015
 30
        0.000000
 11
      150.600004
 21
      241.630005
 31
        0.000000
  0
LINE
  8
LVL0000
 10
      143.999998
 20
      209.000015
 30
        0.000000
 11
      143.999998
 21
      247.130005
 31
        0.000000
  0
LINE
  8
LVL0000
 10
      144.899992
 20
      214.000015
 30
        0.000000
 11
      144.899992
 21
      242.130005
 31
        0.000000
  0
LINE
  8
LVL0000
 10
      149.699995
 20
      214.000015
 30
        0.000000
 11
      149.699995
 21
      242.130005
 31
        0.000000
  0
LINE
  8
LVL0000
 10
      150.600004
 20
      214.500015
 30
        0.000000
 11
      150.999998
 21
      214.500015
 31
        0.000000
  0
LINE
  8
LVL0000
 10
      150.999998
 20
      214.500015
 30
        0.000000
 11
      150.999998
 21
      209.000015
 31
        0.000000
  0
LINE
  8
LVL0000
 10
      143.999998
 20
      209.000015
 30
        0.000000
 11
      150.999998
 21
      209.000015
 31
        0.000000
  0
LINE
  8
LVL0000
 10
      149.149992
 20
      212.550018
 30
        0.000000
 11
      149.149992
 21
      209.700012
 31
        0.000000
  0
LINE
  8
LVL0000
 10
      145.449995
 20
      212.550018
 30
        0.000000
 11
      145.449995
 21
      209.700012
 31
        0.000000
  0
LINE
  8
LVL0000
 10
      149.149992
 20
      212.550018
 30
        0.000000
 11
      150.999998
 21
      212.550018
 31
        0.000000
  0
LINE
  8
LVL0000
 10
      143.999998
 20
      212.550018
 30
        0.000000
 11
      145.449995
 21
      212.550018
 31
        0.000000
  0
LINE
  8
LVL0000
 10
      145.449995
 20
      209.700012
 30
        0.000000
 11
      149.149992
 21
      209.700012
 31
        0.000000
  0
CIRCLE
  8
LVL0000
 10
      147.300001
 20
      211.555023
 30
        0.000000
 40
        1.149994
  0
LINE
  8
LVL0000
 10
      144.899992
 20
      214.000015
 30
        0.000000
 11
      149.699995
 21
      214.000015
 31
        0.000000
  0
LINE
  8
LVL0000
 10
      143.999998
 20
      247.130005
 30
        0.000000
 11
      150.999998
 21
      247.130005
 31
        0.000000
  0
LINE
  8
LVL0000
 10
      150.600004
 20
      241.630005
 30
        0.000000
 11
      150.999998
 21
      241.630005
 31
        0.000000
  0
LINE
  8
LVL0000
 10
      150.999998
 20
      241.630005
 30
        0.000000
 11
      150.999998
 21
      247.130005
 31
        0.000000
  0
LINE
  8
LVL0000
 10
      149.149992
 20
      243.580002
 30
        0.000000
 11
      149.149992
 21
      246.430008
 31
        0.000000
  0
LINE
  8
LVL0000
 10
      145.449995
 20
      243.580002
 30
        0.000000
 11
      145.449995
 21
      246.430008
 31
        0.000000
  0
LINE
  8
LVL0000
 10
      144.899992
 20
      242.130005
 30
        0.000000
 11
      149.699995
 21
      242.130005
 31
        0.000000
  0
LINE
  8
LVL0000
 10
      149.149992
 20
      243.580002
 30
        0.000000
 11
      150.999998
 21
      243.580002
 31
        0.000000
  0
LINE
  8
LVL0000
 10
      143.999998
 20
      243.580002
 30
        0.000000
 11
      145.449995
 21
      243.580002
 31
        0.000000
  0
LINE
  8
LVL0000
 10
      145.449995
 20
      246.430008
 30
        0.000000
 11
      149.149992
 21
      246.430008
 31
        0.000000
  0
CIRCLE
  8
LVL0000
 10
      147.300001
 20
      244.574997
 30
        0.000000
 40
        1.149994
  0
LINE
  8
LVL0000
 10
      110.399992
 20
      241.130005
 30
        0.000000
 11
      113.199995
 21
      241.130005
 31
        0.000000
  0
LINE
  8
LVL0000
 10
      110.399992
 20
      215.000015
 30
        0.000000
 11
      113.199995
 21
      215.000015
 31
        0.000000
  0
LINE
  8
LVL0000
 10
      110.399992
 20
      215.000015
 30
        0.000000
 11
      110.399992
 21
      241.130005
 31
        0.000000
  0
LINE
  8
LVL0000
 10
      113.199995
 20
      215.000015
 30
        0.000000
 11
      113.199995
 21
      241.130005
 31
        0.000000
  0
LINE
  8
LVL0000
 10
      115.099997
 20
      214.500015
 30
        0.000000
 11
      115.099997
 21
      241.630005
 31
        0.000000
  0
LINE
  8
LVL0000
 10
      108.499998
 20
      209.000015
 30
        0.000000
 11
      108.499998
 21
      247.130005
 31
        0.000000
  0
LINE
  8
LVL0000
 10
      109.399992
 20
      214.000015
 30
        0.000000
 11
      109.399992
 21
      242.130005
 31
        0.000000
  0
LINE
  8
LVL0000
 10
      114.199995
 20
      214.000015
 30
        0.000000
 11
      114.199995
 21
      242.130005
 31
        0.000000
  0
LINE
  8
LVL0000
 10
      115.099997
 20
      214.500015
 30
        0.000000
 11
      115.499998
 21
      214.500015
 31
        0.000000
  0
LINE
  8
LVL0000
 10
      115.499998
 20
      214.500015
 30
        0.000000
 11
      115.499998
 21
      209.000015
 31
        0.000000
  0
LINE
  8
LVL0000
 10
      108.499998
 20
      209.000015
 30
        0.000000
 11
      115.499998
 21
      209.000015
 31
        0.000000
  0
LINE
  8
LVL0000
 10
      113.649992
 20
      212.550018
 30
        0.000000
 11
      113.649992
 21
      209.700012
 31
        0.000000
  0
LINE
  8
LVL0000
 10
      109.949995
 20
      212.550018
 30
        0.000000
 11
      109.949995
 21
      209.700012
 31
        0.000000
  0
LINE
  8
LVL0000
 10
      113.649992
 20
      212.550018
 30
        0.000000
 11
      115.499998
 21
      212.550018
 31
        0.000000
  0
LINE
  8
LVL0000
 10
      108.499998
 20
      212.550018
 30
        0.000000
 11
      109.949995
 21
      212.550018
 31
        0.000000
  0
LINE
  8
LVL0000
 10
      109.949995
 20
      209.700012
 30
        0.000000
 11
      113.649992
 21
      209.700012
 31
        0.000000
  0
CIRCLE
  8
LVL0000
 10
      111.800001
 20
      211.555023
 30
        0.000000
 40
        1.149994
  0
LINE
  8
LVL0000
 10
      109.399992
 20
      214.000015
 30
        0.000000
 11
      114.199995
 21
      214.000015
 31
        0.000000
  0
LINE
  8
LVL0000
 10
      108.499998
 20
      247.130005
 30
        0.000000
 11
      115.499998
 21
      247.130005
 31
        0.000000
  0
LINE
  8
LVL0000
 10
      115.099997
 20
      241.630005
 30
        0.000000
 11
      115.499998
 21
      241.630005
 31
        0.000000
  0
LINE
  8
LVL0000
 10
      115.499998
 20
      241.630005
 30
        0.000000
 11
      115.499998
 21
      247.130005
 31
        0.000000
  0
LINE
  8
LVL0000
 10
      113.649992
 20
      243.580002
 30
        0.000000
 11
      113.649992
 21
      246.430008
 31
        0.000000
  0
LINE
  8
LVL0000
 10
      109.949995
 20
      243.580002
 30
        0.000000
 11
      109.949995
 21
      246.430008
 31
        0.000000
  0
LINE
  8
LVL0000
 10
      109.399992
 20
      242.130005
 30
        0.000000
 11
      114.199995
 21
      242.130005
 31
        0.000000
  0
LINE
  8
LVL0000
 10
      113.649992
 20
      243.580002
 30
        0.000000
 11
      115.499998
 21
      243.580002
 31
        0.000000
  0
LINE
  8
LVL0000
 10
      108.499998
 20
      243.580002
 30
        0.000000
 11
      109.949995
 21
      243.580002
 31
        0.000000
  0
LINE
  8
LVL0000
 10
      109.949995
 20
      246.430008
 30
        0.000000
 11
      113.649992
 21
      246.430008
 31
        0.000000
  0
CIRCLE
  8
LVL0000
 10
      111.800001
 20
      244.574997
 30
        0.000000
 40
        1.149994
  0
LINE
  8
LVL0000
 10
      247.499986
 20
        4.114988
 30
        0.000000
 11
      247.499986
 21
       -0.185015
 31
        0.000000
  0
LINE
  8
LVL0000
 10
      242.900010
 20
        4.114988
 30
        0.000000
 11
      242.900010
 21
       -0.185015
 31
        0.000000
  0
LINE
  8
LVL0000
 10
      247.499986
 20
      -30.715014
 30
        0.000000
 11
      247.499986
 21
      -35.015017
 31
        0.000000
  0
LINE
  8
LVL0000
 10
      242.900010
 20
      -30.715014
 30
        0.000000
 11
      242.900010
 21
      -35.015017
 31
        0.000000
  0
LINE
  8
LVL0000
 10
      243.449998
 20
      -31.700015
 30
        0.000000
 11
      246.949998
 21
      -31.700015
 31
        0.000000
  0
LINE
  8
LVL0000
 10
      243.449998
 20
        0.799985
 30
        0.000000
 11
      246.949998
 21
        0.799985
 31
        0.000000
  0
LINE
  8
LVL0000
 10
      242.900010
 20
        4.114988
 30
        0.000000
 11
      247.499986
 21
        4.114988
 31
        0.000000
  0
LINE
  8
LVL0000
 10
      242.900010
 20
      -35.015017
 30
        0.000000
 11
      247.499986
 21
      -35.015017
 31
        0.000000
  0
LINE
  8
LVL0000
 10
      246.949998
 20
      -30.715014
 30
        0.000000
 11
      246.949998
 21
      -31.700015
 31
        0.000000
  0
LINE
  8
LVL0000
 10
      243.449998
 20
      -30.715014
 30
        0.000000
 11
      243.449998
 21
      -31.700015
 31
        0.000000
  0
LINE
  8
LVL0000
 10
      246.949998
 20
        0.799985
 30
        0.000000
 11
      246.949998
 21
       -0.185015
 31
        0.000000
  0
LINE
  8
LVL0000
 10
      243.449998
 20
        0.799985
 30
        0.000000
 11
      243.449998
 21
       -0.185015
 31
        0.000000
  0
LINE
  8
LVL0000
 10
      248.499986
 20
       -0.185015
 30
        0.000000
 11
      248.499986
 21
      -30.715014
 31
        0.000000
  0
LINE
  8
LVL0000
 10
      241.899980
 20
      -30.715014
 30
        0.000000
 11
      248.900010
 21
      -30.715014
 31
        0.000000
  0
LINE
  8
LVL0000
 10
      241.899980
 20
       -0.185015
 30
        0.000000
 11
      248.900010
 21
       -0.185015
 31
        0.000000
  0
LINE
  8
LVL0000
 10
      248.499986
 20
       -2.385012
 30
        0.000000
 11
      248.900010
 21
       -2.385012
 31
        0.000000
  0
LINE
  8
LVL0000
 10
      248.499986
 20
      -28.515017
 30
        0.000000
 11
      248.900010
 21
      -28.515017
 31
        0.000000
  0
LINE
  8
LVL0000
 10
      248.900010
 20
      -28.515017
 30
        0.000000
 11
      248.900010
 21
      -35.715014
 31
        0.000000
  0
LINE
  8
LVL0000
 10
      248.900010
 20
        4.814985
 30
        0.000000
 11
      248.900010
 21
       -2.385012
 31
        0.000000
  0
LINE
  8
LVL0000
 10
      241.899980
 20
       -0.185015
 30
        0.000000
 11
      248.900010
 21
       -0.185015
 31
        0.000000
  0
LINE
  8
LVL0000
 10
      241.899980
 20
      -35.715014
 30
        0.000000
 11
      248.900010
 21
      -35.715014
 31
        0.000000
  0
LINE
  8
LVL0000
 10
      241.899980
 20
        4.814985
 30
        0.000000
 11
      248.900010
 21
        4.814985
 31
        0.000000
  0
LINE
  8
LVL0000
 10
      241.899980
 20
        4.814985
 30
        0.000000
 11
      241.899980
 21
      -35.715014
 31
        0.000000
  0
LINE
  8
LVL0000
 10
      244.247483
 20
       -2.535021
 30
        0.000000
 11
      244.247483
 21
      -28.365016
 31
        0.000000
  0
LINE
  8
LVL0000
 10
      246.152513
 20
       -2.535021
 30
        0.000000
 11
      246.152513
 21
      -28.365016
 31
        0.000000
  0
CIRCLE
  8
LVL0000
 10
      245.199998
 20
      -33.230013
 30
        0.000000
 40
        1.149994
  0
CIRCLE
  8
LVL0000
 10
      245.199998
 20
        2.329984
 30
        0.000000
 40
        1.149994
  0
LINE
  8
LVL0000
 10
      243.949998
 20
       -2.535021
 30
        0.000000
 11
      243.949998
 21
      -28.365016
 31
        0.000000
  0
LINE
  8
LVL0000
 10
      246.449998
 20
       -2.535021
 30
        0.000000
 11
      246.449998
 21
      -28.365016
 31
        0.000000
  0
LINE
  8
LVL0000
 10
      242.699998
 20
       -1.185015
 30
        0.000000
 11
      242.699998
 21
      -29.715014
 31
        0.000000
  0
LINE
  8
LVL0000
 10
      247.699998
 20
       -1.185015
 30
        0.000000
 11
      247.699998
 21
      -29.715014
 31
        0.000000
  0
LINE
  8
LVL0000
 10
      243.949998
 20
      -28.365016
 30
        0.000000
 11
      246.449998
 21
      -28.365016
 31
        0.000000
  0
LINE
  8
LVL0000
 10
      243.949998
 20
       -2.535021
 30
        0.000000
 11
      246.449998
 21
       -2.535021
 31
        0.000000
  0
LINE
  8
LVL0000
 10
      242.699998
 20
      -29.715014
 30
        0.000000
 11
      247.699998
 21
      -29.715014
 31
        0.000000
  0
LINE
  8
LVL0000
 10
      242.699998
 20
       -1.185015
 30
        0.000000
 11
      247.699998
 21
       -1.185015
 31
        0.000000
  0
LINE
  8
LVL0000
 10
      239.699998
 20
       45.615005
 30
        0.000000
 11
      239.699998
 21
       41.315002
 31
        0.000000
  0
LINE
  8
LVL0000
 10
      235.100023
 20
       45.615005
 30
        0.000000
 11
      235.100023
 21
       41.315002
 31
        0.000000
  0
LINE
  8
LVL0000
 10
      239.699998
 20
       10.785004
 30
        0.000000
 11
      239.699998
 21
        6.485001
 31
        0.000000
  0
LINE
  8
LVL0000
 10
      235.100023
 20
       10.785004
 30
        0.000000
 11
      235.100023
 21
        6.485001
 31
        0.000000
  0
LINE
  8
LVL0000
 10
      235.650010
 20
        9.800003
 30
        0.000000
 11
      239.150010
 21
        9.800003
 31
        0.000000
  0
LINE
  8
LVL0000
 10
      235.650010
 20
       42.300003
 30
        0.000000
 11
      239.150010
 21
       42.300003
 31
        0.000000
  0
LINE
  8
LVL0000
 10
      235.100023
 20
       45.615005
 30
        0.000000
 11
      239.699998
 21
       45.615005
 31
        0.000000
  0
LINE
  8
LVL0000
 10
      235.100023
 20
        6.485001
 30
        0.000000
 11
      239.699998
 21
        6.485001
 31
        0.000000
  0
LINE
  8
LVL0000
 10
      239.150010
 20
       10.785004
 30
        0.000000
 11
      239.150010
 21
        9.800003
 31
        0.000000
  0
LINE
  8
LVL0000
 10
      235.650010
 20
       10.785004
 30
        0.000000
 11
      235.650010
 21
        9.800003
 31
        0.000000
  0
LINE
  8
LVL0000
 10
      239.150010
 20
       42.300003
 30
        0.000000
 11
      239.150010
 21
       41.315002
 31
        0.000000
  0
LINE
  8
LVL0000
 10
      235.650010
 20
       42.300003
 30
        0.000000
 11
      235.650010
 21
       41.315002
 31
        0.000000
  0
LINE
  8
LVL0000
 10
      240.699998
 20
       41.315002
 30
        0.000000
 11
      240.699998
 21
       10.785004
 31
        0.000000
  0
LINE
  8
LVL0000
 10
      234.099992
 20
       10.785004
 30
        0.000000
 11
      241.100023
 21
       10.785004
 31
        0.000000
  0
LINE
  8
LVL0000
 10
      234.099992
 20
       41.315002
 30
        0.000000
 11
      241.100023
 21
       41.315002
 31
        0.000000
  0
LINE
  8
LVL0000
 10
      240.699998
 20
       39.115005
 30
        0.000000
 11
      241.100023
 21
       39.115005
 31
        0.000000
  0
LINE
  8
LVL0000
 10
      240.699998
 20
       12.985001
 30
        0.000000
 11
      241.100023
 21
       12.985001
 31
        0.000000
  0
LINE
  8
LVL0000
 10
      241.100023
 20
       12.985001
 30
        0.000000
 11
      241.100023
 21
        5.785004
 31
        0.000000
  0
LINE
  8
LVL0000
 10
      241.100023
 20
       46.315002
 30
        0.000000
 11
      241.100023
 21
       39.115005
 31
        0.000000
  0
LINE
  8
LVL0000
 10
      234.099992
 20
       41.315002
 30
        0.000000
 11
      241.100023
 21
       41.315002
 31
        0.000000
  0
LINE
  8
LVL0000
 10
      234.099992
 20
        5.785004
 30
        0.000000
 11
      241.100023
 21
        5.785004
 31
        0.000000
  0
LINE
  8
LVL0000
 10
      234.099992
 20
       46.315002
 30
        0.000000
 11
      241.100023
 21
       46.315002
 31
        0.000000
  0
LINE
  8
LVL0000
 10
      234.099992
 20
       46.315002
 30
        0.000000
 11
      234.099992
 21
        5.785004
 31
        0.000000
  0
LINE
  8
LVL0000
 10
      236.447496
 20
       38.964996
 30
        0.000000
 11
      236.447496
 21
       13.135002
 31
        0.000000
  0
LINE
  8
LVL0000
 10
      238.352525
 20
       38.964996
 30
        0.000000
 11
      238.352525
 21
       13.135002
 31
        0.000000
  0
CIRCLE
  8
LVL0000
 10
      237.400010
 20
        8.270004
 30
        0.000000
 40
        1.149994
  0
CIRCLE
  8
LVL0000
 10
      237.400010
 20
       43.830002
 30
        0.000000
 40
        1.149994
  0
LINE
  8
LVL0000
 10
      236.150010
 20
       38.964996
 30
        0.000000
 11
      236.150010
 21
       13.135002
 31
        0.000000
  0
LINE
  8
LVL0000
 10
      238.650010
 20
       38.964996
 30
        0.000000
 11
      238.650010
 21
       13.135002
 31
        0.000000
  0
LINE
  8
LVL0000
 10
      234.900010
 20
       40.315002
 30
        0.000000
 11
      234.900010
 21
       11.785004
 31
        0.000000
  0
LINE
  8
LVL0000
 10
      239.900010
 20
       40.315002
 30
        0.000000
 11
      239.900010
 21
       11.785004
 31
        0.000000
  0
LINE
  8
LVL0000
 10
      236.150010
 20
       13.135002
 30
        0.000000
 11
      238.650010
 21
       13.135002
 31
        0.000000
  0
LINE
  8
LVL0000
 10
      236.150010
 20
       38.964996
 30
        0.000000
 11
      238.650010
 21
       38.964996
 31
        0.000000
  0
LINE
  8
LVL0000
 10
      234.900010
 20
       11.785004
 30
        0.000000
 11
      239.900010
 21
       11.785004
 31
        0.000000
  0
LINE
  8
LVL0000
 10
      234.900010
 20
       40.315002
 30
        0.000000
 11
      239.900010
 21
       40.315002
 31
        0.000000
  0
LINE
  8
LVL0000
 10
      -32.500000
 20
      290.800000
 30
        0.000000
 11
      -19.500000
 21
      290.800000
 31
        0.000000
  0
LINE
  8
LVL0000
 10
      -19.500000
 20
      290.800000
 30
        0.000000
 11
      -19.500000
 21
      305.800000
 31
        0.000000
  0
LINE
  8
LVL0000
 10
      -32.500000
 20
      290.800000
 30
        0.000000
 11
      -32.500000
 21
      305.800000
 31
        0.000000
  0
LINE
  8
LVL0000
 10
        9.000000
 20
      301.800000
 30
        0.000000
 11
        9.000000
 21
      305.800000
 31
        0.000000
  0
LINE
  8
LVL0000
 10
        3.000000
 20
      301.800000
 30
        0.000000
 11
        3.000000
 21
      305.800000
 31
        0.000000
  0
LINE
  8
LVL0000
 10
        8.000000
 20
      296.100000
 30
        0.000000
 11
        4.000000
 21
      296.100000
 31
        0.000000
  0
LINE
  8
LVL0000
 10
        9.000000
 20
      301.800000
 30
        0.000000
 11
        3.000000
 21
      301.800000
 31
        0.000000
  0
LINE
  8
LVL0000
 10
        4.000000
 20
      296.100000
 30
        0.000000
 11
        4.000000
 21
      301.800000
 31
        0.000000
  0
LINE
  8
LVL0000
 10
        8.000000
 20
      296.100000
 30
        0.000000
 11
        8.000000
 21
      301.800000
 31
        0.000000
  0
LINE
  8
LVL0000
 10
       44.500031
 20
      295.099976
 30
        0.000000
 11
       37.500000
 21
      295.099976
 31
        0.000000
  0
LINE
  8
LVL0000
 10
       44.500031
 20
      298.749969
 30
        0.000000
 11
       37.500000
 21
      298.749969
 31
        0.000000
  0
LINE
  8
LVL0000
 10
       44.500031
 20
      295.099976
 30
        0.000000
 11
       44.500031
 21
      305.800000
 31
        0.000000
  0
LINE
  8
LVL0000
 10
       37.500000
 20
      295.099976
 30
        0.000000
 11
       37.500000
 21
      305.800000
 31
        0.000000
  0
LINE
  8
LVL0000
 10
       80.000031
 20
      295.099976
 30
        0.000000
 11
       73.000000
 21
      295.099976
 31
        0.000000
  0
LINE
  8
LVL0000
 10
       80.000031
 20
      298.749969
 30
        0.000000
 11
       73.000000
 21
      298.749969
 31
        0.000000
  0
LINE
  8
LVL0000
 10
       80.000031
 20
      295.099976
 30
        0.000000
 11
       80.000031
 21
      305.800000
 31
        0.000000
  0
LINE
  8
LVL0000
 10
       73.000000
 20
      295.099976
 30
        0.000000
 11
       73.000000
 21
      305.800000
 31
        0.000000
  0
LINE
  8
LVL0000
 10
      115.500031
 20
      295.099976
 30
        0.000000
 11
      108.500000
 21
      295.099976
 31
        0.000000
  0
LINE
  8
LVL0000
 10
      115.500031
 20
      298.749969
 30
        0.000000
 11
      108.500000
 21
      298.749969
 31
        0.000000
  0
LINE
  8
LVL0000
 10
      115.500031
 20
      295.099976
 30
        0.000000
 11
      115.500031
 21
      305.800000
 31
        0.000000
  0
LINE
  8
LVL0000
 10
      108.500000
 20
      295.099976
 30
        0.000000
 11
      108.500000
 21
      305.800000
 31
        0.000000
  0
LINE
  8
LVL0000
 10
      151.000031
 20
      295.099976
 30
        0.000000
 11
      144.000000
 21
      295.099976
 31
        0.000000
  0
LINE
  8
LVL0000
 10
      151.000031
 20
      298.749969
 30
        0.000000
 11
      144.000000
 21
      298.749969
 31
        0.000000
  0
LINE
  8
LVL0000
 10
      151.000031
 20
      295.099976
 30
        0.000000
 11
      151.000031
 21
      305.800000
 31
        0.000000
  0
LINE
  8
LVL0000
 10
      144.000000
 20
      295.099976
 30
        0.000000
 11
      144.000000
 21
      305.800000
 31
        0.000000
  0
LINE
  8
LVL0000
 10
      186.500031
 20
      295.099976
 30
        0.000000
 11
      179.500000
 21
      295.099976
 31
        0.000000
  0
LINE
  8
LVL0000
 10
      186.500031
 20
      298.749969
 30
        0.000000
 11
      179.500000
 21
      298.749969
 31
        0.000000
  0
LINE
  8
LVL0000
 10
      186.500031
 20
      295.099976
 30
        0.000000
 11
      186.500031
 21
      305.800000
 31
        0.000000
  0
LINE
  8
LVL0000
 10
      179.500000
 20
      295.099976
 30
        0.000000
 11
      179.500000
 21
      305.800000
 31
        0.000000
  0
LINE
  8
LVL0000
 10
      222.000031
 20
      295.099976
 30
        0.000000
 11
      215.000000
 21
      295.099976
 31
        0.000000
  0
LINE
  8
LVL0000
 10
      222.000031
 20
      298.749969
 30
        0.000000
 11
      215.000000
 21
      298.749969
 31
        0.000000
  0
LINE
  8
LVL0000
 10
      222.000031
 20
      295.099976
 30
        0.000000
 11
      222.000031
 21
      305.800000
 31
        0.000000
  0
LINE
  8
LVL0000
 10
      215.000000
 20
      295.099976
 30
        0.000000
 11
      215.000000
 21
      305.800000
 31
        0.000000
  0
LINE
  8
LVL0000
 10
      248.900024
 20
      295.099976
 30
        0.000000
 11
      241.899994
 21
      295.099976
 31
        0.000000
  0
LINE
  8
LVL0000
 10
      248.900024
 20
      298.749969
 30
        0.000000
 11
      241.899994
 21
      298.749969
 31
        0.000000
  0
LINE
  8
LVL0000
 10
      248.900024
 20
      295.099976
 30
        0.000000
 11
      248.900024
 21
      305.800000
 31
        0.000000
  0
LINE
  8
LVL0000
 10
      241.899994
 20
      295.099976
 30
        0.000000
 11
      241.899994
 21
      305.800000
 31
        0.000000
  0
LINE
  8
LVL0000
 10
      311.912506
 20
      156.000100
 30
        0.000000
 11
      311.912506
 21
      254.500100
 31
        0.000000
  0
LINE
  8
LVL0000
 10
      311.912506
 20
      156.000100
 30
        0.000000
 11
      313.512512
 21
      156.000100
 31
        0.000000
  0
LINE
  8
LVL0000
 10
      313.512512
 20
      156.000100
 30
        0.000000
 11
      313.512512
 21
      242.000100
 31
        0.000000
  0
LINE
  8
LVL0000
 10
      313.512512
 20
      242.000100
 30
        0.000000
 11
      313.512512
 21
      254.500100
 31
        0.000000
  0
LINE
  8
LVL0000
 10
      311.912506
 20
      254.500100
 30
        0.000000
 11
      313.512512
 21
      254.500100
 31
        0.000000
  0
LINE
  8
LVL0000
 10
      311.412506
 20
      248.000100
 30
        0.000000
 11
      311.912506
 21
      248.000100
 31
        0.000000
  0
ARC
  8
LVL0000
 10
      311.412506
 20
      250.000100
 30
        0.000000
 40
        2.000000
 50
      180.000010
 51
      270.000000
  0
LINE
  8
LVL0000
 10
      311.412506
 20
      254.000100
 30
        0.000000
 11
      311.912506
 21
      254.000100
 31
        0.000000
  0
ARC
  8
LVL0000
 10
      311.412506
 20
      252.000100
 30
        0.000000
 40
        2.000000
 50
       90.000000
 51
      180.000010
  0
LINE
  8
LVL0000
 10
      309.412506
 20
      250.000100
 30
        0.000000
 11
      309.412506
 21
      252.000100
 31
        0.000000
  0
LINE
  8
LVL0000
 10
      304.862488
 20
      246.315102
 30
        0.000000
 11
      311.912506
 21
      246.315102
 31
        0.000000
  0
LINE
  8
LVL0000
 10
      304.862488
 20
      241.315102
 30
        0.000000
 11
      304.862488
 21
      246.315102
 31
        0.000000
  0
LINE
  8
LVL0000
 10
      301.212494
 20
      241.315102
 30
        0.000000
 11
      304.862488
 21
      241.315102
 31
        0.000000
  0
LINE
  8
LVL0000
 10
      301.212494
 20
      210.785104
 30
        0.000000
 11
      301.212494
 21
      241.315102
 31
        0.000000
  0
LINE
  8
LVL0000
 10
      301.212494
 20
      198.000100
 30
        0.000000
 11
      304.862488
 21
      198.000100
 31
        0.000000
  0
LINE
  8
LVL0000
 10
      304.862488
 20
      198.000100
 30
        0.000000
 11
      304.862488
 21
      203.000100
 31
        0.000000
  0
LINE
  8
LVL0000
 10
      304.862488
 20
      203.000100
 30
        0.000000
 11
      311.912506
 21
      203.000100
 31
        0.000000
  0
LINE
  8
LVL0000
 10
      304.862488
 20
      205.785104
 30
        0.000000
 11
      304.862488
 21
      210.785104
 31
        0.000000
  0
LINE
  8
LVL0000
 10
      304.862488
 20
      205.785104
 30
        0.000000
 11
      311.912506
 21
      205.785104
 31
        0.000000
  0
LINE
  8
LVL0000
 10
      301.212494
 20
      210.785104
 30
        0.000000
 11
      304.862488
 21
      210.785104
 31
        0.000000
  0
LINE
  8
LVL0000
 10
      301.212494
 20
      167.470101
 30
        0.000000
 11
      304.862488
 21
      167.470101
 31
        0.000000
  0
LINE
  8
LVL0000
 10
      301.212494
 20
      167.470101
 30
        0.000000
 11
      301.212494
 21
      198.000100
 31
        0.000000
  0
LINE
  8
LVL0000
 10
      304.862488
 20
      162.470101
 30
        0.000000
 11
      304.862488
 21
      167.470101
 31
        0.000000
  0
ARC
  8
LVL0000
 10
      311.412506
 20
      158.500100
 30
        0.000000
 40
        2.000000
 50
      180.000010
 51
      270.000000
  0
LINE
  8
LVL0000
 10
      304.862488
 20
      162.470101
 30
        0.000000
 11
      311.912506
 21
      162.470101
 31
        0.000000
  0
ARC
  8
LVL0000
 10
      311.412506
 20
      160.500100
 30
        0.000000
 40
        2.000000
 50
       90.000000
 51
      180.000010
  0
LINE
  8
LVL0000
 10
      309.412506
 20
      158.500100
 30
        0.000000
 11
      309.412506
 21
      160.500100
 31
        0.000000
  0
POINT
  8
LVL0000
 10
      -25.000002
 20
      182.250000
 30
        0.000000
  0
POINT
  8
LVL0000
 10
      -25.000002
 20
      173.750000
 30
        0.000000
  0
LINE
  8
LVL0000
 10
      -21.350008
 20
      205.075012
 30
        0.000000
 11
      -21.350008
 21
      195.924988
 31
        0.000000
  0
LINE
  8
LVL0000
 10
      -21.350008
 20
      205.075012
 30
        0.000000
 11
      -30.949984
 21
      205.075012
 31
        0.000000
  0
LINE
  8
LVL0000
 10
      -21.350008
 20
      195.924988
 30
        0.000000
 11
      -30.949984
 21
      195.924988
 31
        0.000000
  0
LINE
  8
LVL0000
 10
      -30.949984
 20
      205.075012
 30
        0.000000
 11
      -30.949984
 21
      195.924988
 31
        0.000000
  0
LINE
  8
LVL0000
 10
      -23.649996
 20
      203.789978
 30
        0.000000
 11
      -28.649996
 21
      203.789978
 31
        0.000000
  0
LINE
  8
LVL0000
 10
      -23.649996
 20
      202.289978
 30
        0.000000
 11
      -28.649996
 21
      202.289978
 31
        0.000000
  0
LINE
  8
LVL0000
 10
      -23.649996
 20
      203.789978
 30
        0.000000
 11
      -23.649996
 21
      202.289978
 31
        0.000000
  0
LINE
  8
LVL0000
 10
      -28.649996
 20
      203.789978
 30
        0.000000
 11
      -28.649996
 21
      202.289978
 31
        0.000000
  0
LINE
  8
LVL0000
 10
      -23.649996
 20
      199.749969
 30
        0.000000
 11
      -28.649996
 21
      199.749969
 31
        0.000000
  0
LINE
  8
LVL0000
 10
      -23.649996
 20
      201.249969
 30
        0.000000
 11
      -28.649996
 21
      201.249969
 31
        0.000000
  0
LINE
  8
LVL0000
 10
      -23.649996
 20
      201.249969
 30
        0.000000
 11
      -23.649996
 21
      199.749969
 31
        0.000000
  0
LINE
  8
LVL0000
 10
      -28.649996
 20
      201.249969
 30
        0.000000
 11
      -28.649996
 21
      199.749969
 31
        0.000000
  0
LINE
  8
LVL0000
 10
      -23.649996
 20
      197.209991
 30
        0.000000
 11
      -28.649996
 21
      197.209991
 31
        0.000000
  0
LINE
  8
LVL0000
 10
      -23.649996
 20
      198.709991
 30
        0.000000
 11
      -28.649996
 21
      198.709991
 31
        0.000000
  0
LINE
  8
LVL0000
 10
      -23.649996
 20
      198.709991
 30
        0.000000
 11
      -23.649996
 21
      197.209991
 31
        0.000000
  0
LINE
  8
LVL0000
 10
      -28.649996
 20
      198.709991
 30
        0.000000
 11
      -28.649996
 21
      197.209991
 31
        0.000000
  0
CIRCLE
  8
LVL0000
 10
      233.499998
 20
      159.500000
 30
        0.000000
 40
        1.750000
  0
CIRCLE
  8
LVL0000
 10
      223.999998
 20
      251.000000
 30
        0.000000
 40
        1.750000
  0
LINE
  8
LVL0000
 10
      259.499998
 20
      249.500000
 30
        0.000000
 11
      259.499998
 21
      156.000000
 31
        0.000000
  0
LINE
  8
LVL0000
 10
      -37.500002
 20
      156.000000
 30
        0.000000
 11
      259.499998
 21
      156.000000
 31
        0.000000
  0
LINE
  8
LVL0000
 10
      259.499998
 20
      249.500000
 30
        0.000000
 11
      238.499998
 21
      249.500000
 31
        0.000000
  0
LINE
  8
LVL0000
 10
      238.499998
 20
      254.500000
 30
        0.000000
 11
      238.499998
 21
      249.500000
 31
        0.000000
  0
LINE
  8
LVL0000
 10
      -21.500002
 20
      254.500000
 30
        0.000000
 11
      238.499998
 21
      254.500000
 31
        0.000000
  0
CIRCLE
  8
LVL0000
 10
      234.000015
 20
      250.999985
 30
        0.000000
 40
        2.750000
  0
CIRCLE
  8
LVL0000
 10
      -17.500000
 20
      250.999985
 30
        0.000000
 40
        2.750000
  0
CIRCLE
  8
LVL0000
 10
       59.500000
 20
      250.999985
 30
        0.000000
 40
        2.750000
  0
CIRCLE
  8
LVL0000
 10
      130.500000
 20
      250.999985
 30
        0.000000
 40
        2.750000
  0
CIRCLE
  8
LVL0000
 10
      243.599987
 20
      159.499985
 30
        0.000000
 40
        2.750000
  0
CIRCLE
  8
LVL0000
 10
      130.500000
 20
      159.500000
 30
        0.000000
 40
        2.750000
  0
CIRCLE
  8
LVL0000
 10
       59.500000
 20
      159.500000
 30
        0.000000
 40
        2.750000
  0
CIRCLE
  8
LVL0000
 10
      -25.500000
 20
      159.500000
 30
        0.000000
 40
        2.750000
  0
LINE
  8
LVL0000
 10
      -19.299984
 20
      250.999994
 30
        0.000000
 11
      -15.700016
 21
      250.999975
 31
        0.000000
  0
LINE
  8
LVL0000
 10
      -17.500000
 20
      252.799974
 30
        0.000000
 11
      -17.500000
 21
      249.199976
 31
        0.000000
  0
LINE
  8
LVL0000
 10
      -25.500000
 20
      161.299990
 30
        0.000000
 11
      -25.500000
 21
      157.699991
 31
        0.000000
  0
LINE
  8
LVL0000
 10
      -27.299984
 20
      159.500010
 30
        0.000000
 11
      -23.700016
 21
      159.499990
 31
        0.000000
  0
LINE
  8
LVL0000
 10
       57.700016
 20
      159.500010
 30
        0.000000
 11
       61.299984
 21
      159.499990
 31
        0.000000
  0
LINE
  8
LVL0000
 10
       59.500000
 20
      161.299990
 30
        0.000000
 11
       59.500000
 21
      157.699991
 31
        0.000000
  0
LINE
  8
LVL0000
 10
       59.500000
 20
      252.799974
 30
        0.000000
 11
       59.500000
 21
      249.199976
 31
        0.000000
  0
LINE
  8
LVL0000
 10
       57.700016
 20
      250.999994
 30
        0.000000
 11
       61.299984
 21
      250.999975
 31
        0.000000
  0
LINE
  8
LVL0000
 10
      128.700016
 20
      159.500010
 30
        0.000000
 11
      132.299984
 21
      159.499990
 31
        0.000000
  0
LINE
  8
LVL0000
 10
      130.500000
 20
      161.299990
 30
        0.000000
 11
      130.500000
 21
      157.699991
 31
        0.000000
  0
LINE
  8
LVL0000
 10
      130.500000
 20
      252.799974
 30
        0.000000
 11
      130.500000
 21
      249.199976
 31
        0.000000
  0
LINE
  8
LVL0000
 10
      128.700016
 20
      250.999994
 30
        0.000000
 11
      132.299984
 21
      250.999975
 31
        0.000000
  0
LINE
  8
LVL0000
 10
      232.200031
 20
      250.999994
 30
        0.000000
 11
      235.799999
 21
      250.999975
 31
        0.000000
  0
LINE
  8
LVL0000
 10
      234.000015
 20
      252.799974
 30
        0.000000
 11
      234.000015
 21
      249.199976
 31
        0.000000
  0
LINE
  8
LVL0000
 10
      243.599987
 20
      161.299984
 30
        0.000000
 11
      243.599987
 21
      157.699986
 31
        0.000000
  0
LINE
  8
LVL0000
 10
      241.800003
 20
      159.500004
 30
        0.000000
 11
      245.399971
 21
      159.499985
 31
        0.000000
  0
LINE
  8
LVL0000
 10
      -21.500000
 20
      254.499985
 30
        0.000000
 11
      238.500015
 21
      254.499985
 31
        0.000000
  0
LINE
  8
LVL0000
 10
      -37.500002
 20
      156.000000
 30
        0.000000
 11
      259.500015
 21
      156.000000
 31
        0.000000
  0
CIRCLE
  8
LVL0000
 10
      -15.500002
 20
      159.500000
 30
        0.000000
 40
        1.750000
  0
CIRCLE
  8
LVL0000
 10
       -7.500002
 20
      251.000000
 30
        0.000000
 40
        1.750000
  0
LINE
  8
LVL0000
 10
      -32.000002
 20
      188.000000
 30
        0.000000
 11
      -19.000002
 21
      188.000000
 31
        0.000000
  0
LINE
  8
LVL0000
 10
      -32.000002
 20
      188.000000
 30
        0.000000
 11
      -32.000002
 21
      168.000000
 31
        0.000000
  0
LINE
  8
LVL0000
 10
      -19.000002
 20
      188.000000
 30
        0.000000
 11
      -19.000002
 21
      168.000000
 31
        0.000000
  0
LINE
  8
LVL0000
 10
      -32.000002
 20
      168.000000
 30
        0.000000
 11
      -19.000002
 21
      168.000000
 31
        0.000000
  0
LINE
  8
LVL0000
 10
      -32.000002
 20
      187.149994
 30
        0.000000
 11
      -20.300005
 21
      187.149994
 31
        0.000000
  0
LINE
  8
LVL0000
 10
      -20.300005
 20
      188.000000
 30
        0.000000
 11
      -20.300005
 21
      187.149994
 31
        0.000000
  0
LINE
  8
LVL0000
 10
      -32.000002
 20
      185.850006
 30
        0.000000
 11
      -20.300005
 21
      185.850006
 31
        0.000000
  0
LINE
  8
LVL0000
 10
      -20.300005
 20
      185.850006
 30
        0.000000
 11
      -20.300005
 21
      178.649994
 31
        0.000000
  0
LINE
  8
LVL0000
 10
      -32.000002
 20
      178.649994
 30
        0.000000
 11
      -20.300005
 21
      178.649994
 31
        0.000000
  0
LINE
  8
LVL0000
 10
      -32.000002
 20
      177.350006
 30
        0.000000
 11
      -20.300005
 21
      177.350006
 31
        0.000000
  0
LINE
  8
LVL0000
 10
      -20.300005
 20
      177.350006
 30
        0.000000
 11
      -20.300005
 21
      170.149994
 31
        0.000000
  0
LINE
  8
LVL0000
 10
      -32.000002
 20
      170.149994
 30
        0.000000
 11
      -20.300005
 21
      170.149994
 31
        0.000000
  0
LINE
  8
LVL0000
 10
      -32.000002
 20
      168.850006
 30
        0.000000
 11
      -20.300005
 21
      168.850006
 31
        0.000000
  0
LINE
  8
LVL0000
 10
      -20.300005
 20
      168.850006
 30
        0.000000
 11
      -20.300005
 21
      168.000000
 31
        0.000000
  0
LINE
  8
LVL0000
 10
      -28.600000
 20
      185.850006
 30
        0.000000
 11
      -28.600000
 21
      178.649994
 31
        0.000000
  0
LINE
  8
LVL0000
 10
      -28.600000
 20
      177.350006
 30
        0.000000
 11
      -28.600000
 21
      170.149994
 31
        0.000000
  0
LINE
  8
LVL0000
 10
      -21.400003
 20
      185.850006
 30
        0.000000
 11
      -21.400003
 21
      178.649994
 31
        0.000000
  0
LINE
  8
LVL0000
 10
      -21.400003
 20
      177.350006
 30
        0.000000
 11
      -21.400003
 21
      170.149994
 31
        0.000000
  0
CIRCLE
  8
LVL0000
 10
      -25.000002
 20
      182.250000
 30
        0.000000
 40
        3.000000
  0
CIRCLE
  8
LVL0000
 10
      -25.000002
 20
      173.750000
 30
        0.000000
 40
        3.000000
  0
LINE
  8
LVL0000
 10
      -28.600000
 20
      176.250000
 30
        0.000000
 11
      -29.100000
 21
      176.250000
 31
        0.000000
  0
LINE
  8
LVL0000
 10
      -29.100000
 20
      176.250000
 30
        0.000000
 11
      -29.100000
 21
      171.250000
 31
        0.000000
  0
LINE
  8
LVL0000
 10
      -20.900003
 20
      176.250000
 30
        0.000000
 11
      -21.400003
 21
      176.250000
 31
        0.000000
  0
LINE
  8
LVL0000
 10
      -20.900003
 20
      176.250000
 30
        0.000000
 11
      -20.900003
 21
      171.250000
 31
        0.000000
  0
LINE
  8
LVL0000
 10
      -20.900003
 20
      184.750000
 30
        0.000000
 11
      -21.400003
 21
      184.750000
 31
        0.000000
  0
LINE
  8
LVL0000
 10
      -20.900003
 20
      184.750000
 30
        0.000000
 11
      -20.900003
 21
      179.750000
 31
        0.000000
  0
LINE
  8
LVL0000
 10
      -28.600000
 20
      184.750000
 30
        0.000000
 11
      -29.100000
 21
      184.750000
 31
        0.000000
  0
LINE
  8
LVL0000
 10
      -29.100000
 20
      184.750000
 30
        0.000000
 11
      -29.100000
 21
      179.750000
 31
        0.000000
  0
LINE
  8
LVL0000
 10
      -28.600000
 20
      179.750000
 30
        0.000000
 11
      -29.100000
 21
      179.750000
 31
        0.000000
  0
LINE
  8
LVL0000
 10
      -20.900003
 20
      179.750000
 30
        0.000000
 11
      -21.400003
 21
      179.750000
 31
        0.000000
  0
LINE
  8
LVL0000
 10
      -20.900003
 20
      171.250000
 30
        0.000000
 11
      -21.400003
 21
      171.250000
 31
        0.000000
  0
LINE
  8
LVL0000
 10
      -28.600000
 20
      171.250000
 30
        0.000000
 11
      -29.100000
 21
      171.250000
 31
        0.000000
  0
LINE
  8
LVL0000
 10
      -27.121325
 20
      180.128677
 30
        0.000000
 11
      -22.878679
 21
      184.371323
 31
        0.000000
  0
LINE
  8
LVL0000
 10
      -26.060663
 20
      183.310669
 30
        0.000000
 11
      -23.939348
 21
      181.189331
 31
        0.000000
  0
LINE
  8
LVL0000
 10
      -27.121325
 20
      171.628677
 30
        0.000000
 11
      -22.878679
 21
      175.871323
 31
        0.000000
  0
LINE
  8
LVL0000
 10
      -26.060663
 20
      174.810669
 30
        0.000000
 11
      -23.939348
 21
      172.689331
 31
        0.000000
  0
LINE
  8
LVL0000
 10
      -37.500002
 20
      249.500000
 30
        0.000000
 11
      -37.500002
 21
      156.000000
 31
        0.000000
  0
LINE
  8
LVL0000
 10
      -37.500002
 20
      249.500000
 30
        0.000000
 11
      -21.500002
 21
      249.500000
 31
        0.000000
  0
LINE
  8
LVL0000
 10
      -21.500002
 20
      254.500000
 30
        0.000000
 11
      -21.500002
 21
      249.500000
 31
        0.000000
  0
LINE
  8
LVL0000
 10
      241.100023
 20
      295.099976
 30
        0.000000
 11
      234.099992
 21
      295.099976
 31
        0.000000
  0
LINE
  8
LVL0000
 10
      241.100023
 20
      298.749969
 30
        0.000000
 11
      234.099992
 21
      298.749969
 31
        0.000000
  0
LINE
  8
LVL0000
 10
      241.100023
 20
      295.099976
 30
        0.000000
 11
      241.100023
 21
      305.800000
 31
        0.000000
  0
LINE
  8
LVL0000
 10
      234.099992
 20
      295.099976
 30
        0.000000
 11
      234.099992
 21
      305.800000
 31
        0.000000
  0
LINE
  8
LVL0000
 10
      -21.350008
 20
      298.800000
 30
        0.000000
 11
      -30.949984
 21
      298.800000
 31
        0.000000
  0
LINE
  8
LVL0000
 10
      -30.949984
 20
      298.800000
 30
        0.000000
 11
      -30.949984
 21
      305.800000
 31
        0.000000
  0
LINE
  8
LVL0000
 10
      -21.350008
 20
      298.800000
 30
        0.000000
 11
      -21.350008
 21
      305.800000
 31
        0.000000
  0
LINE
  8
LVL0000
 10
      -28.649996
 20
       -1.290009
 30
        0.000000
 11
      -28.649996
 21
       -2.790009
 31
        0.000000
  0
LINE
  8
LVL0000
 10
      -23.649996
 20
       -1.290009
 30
        0.000000
 11
      -23.649996
 21
       -2.790009
 31
        0.000000
  0
LINE
  8
LVL0000
 10
      -23.649996
 20
       -1.290009
 30
        0.000000
 11
      -28.649996
 21
       -1.290009
 31
        0.000000
  0
LINE
  8
LVL0000
 10
      -23.649996
 20
       -2.790009
 30
        0.000000
 11
      -28.649996
 21
       -2.790009
 31
        0.000000
  0
LINE
  8
LVL0000
 10
      -28.649996
 20
        1.249969
 30
        0.000000
 11
      -28.649996
 21
       -0.250031
 31
        0.000000
  0
LINE
  8
LVL0000
 10
      -23.649996
 20
        1.249969
 30
        0.000000
 11
      -23.649996
 21
       -0.250031
 31
        0.000000
  0
LINE
  8
LVL0000
 10
      -23.649996
 20
        1.249969
 30
        0.000000
 11
      -28.649996
 21
        1.249969
 31
        0.000000
  0
LINE
  8
LVL0000
 10
      -23.649996
 20
       -0.250031
 30
        0.000000
 11
      -28.649996
 21
       -0.250031
 31
        0.000000
  0
LINE
  8
LVL0000
 10
      -28.649996
 20
        3.789978
 30
        0.000000
 11
      -28.649996
 21
        2.289978
 31
        0.000000
  0
LINE
  8
LVL0000
 10
      -23.649996
 20
        3.789978
 30
        0.000000
 11
      -23.649996
 21
        2.289978
 31
        0.000000
  0
LINE
  8
LVL0000
 10
      -23.649996
 20
        2.289978
 30
        0.000000
 11
      -28.649996
 21
        2.289978
 31
        0.000000
  0
LINE
  8
LVL0000
 10
      -23.649996
 20
        3.789978
 30
        0.000000
 11
      -28.649996
 21
        3.789978
 31
        0.000000
  0
LINE
  8
LVL0000
 10
      -30.949984
 20
        5.075012
 30
        0.000000
 11
      -30.949984
 21
       -4.075012
 31
        0.000000
  0
LINE
  8
LVL0000
 10
      -21.350008
 20
       -4.075012
 30
        0.000000
 11
      -30.949984
 21
       -4.075012
 31
        0.000000
  0
LINE
  8
LVL0000
 10
      -21.350008
 20
        5.075012
 30
        0.000000
 11
      -30.949984
 21
        5.075012
 31
        0.000000
  0
LINE
  8
LVL0000
 10
      -21.350008
 20
        5.075012
 30
        0.000000
 11
      -21.350008
 21
       -4.075012
 31
        0.000000
  0
LINE
  8
LVL0000
  6
CENTER
 10
       71.000000
 20
      -65.000000
 30
        0.000000
 11
       71.000000
 21
       65.000000
 31
        0.000000
  0
LINE
  8
LVL0000
 10
       53.500000
 20
      -65.000000
 30
        0.000000
 11
       53.500000
 21
       65.000000
 31
        0.000000
  0
LINE
  8
LVL0000
 10
       53.000000
 20
      -65.000000
 30
        0.000000
 11
       53.000000
 21
       65.000000
 31
        0.000000
  0
LINE
  8
LVL0000
  6
CENTER
 10
       35.500000
 20
      -65.000000
 30
        0.000000
 11
       35.500000
 21
       65.000000
 31
        0.000000
  0
CIRCLE
  8
LVL0000
 10
       52.499998
 20
      140.500000
 30
        0.000000
 40
        2.000000
  0
LINE
  8
LVL0000
 10
      188.399998
 20
      145.000000
 30
        0.000000
 11
      188.399998
 21
      140.000000
 31
        0.000000
  0
CIRCLE
  8
LVL0000
 10
      194.499998
 20
      140.500000
 30
        0.000000
 40
        1.500000
  0
LINE
  8
LVL0000
 10
      200.599998
 20
      145.000000
 30
        0.000000
 11
      200.599998
 21
      140.000000
 31
        0.000000
  0
LINE
  8
LVL0000
 10
      200.599998
 20
      140.000000
 30
        0.000000
 11
      223.899998
 21
      140.000000
 31
        0.000000
  0
LINE
  8
LVL0000
 10
      223.899998
 20
      145.000000
 30
        0.000000
 11
      223.899998
 21
      140.000000
 31
        0.000000
  0
LINE
  8
LVL0000
 10
      223.899998
 20
      143.500000
 30
        0.000000
 11
      200.599998
 21
      143.500000
 31
        0.000000
  0
LINE
  8
LVL0000
 10
      223.899998
 20
      145.000000
 30
        0.000000
 11
      243.499998
 21
      145.000000
 31
        0.000000
  0
LINE
  8
LVL0000
 10
      188.399998
 20
      145.000000
 30
        0.000000
 11
      200.599998
 21
      145.000000
 31
        0.000000
  0
CIRCLE
  8
LVL0000
 10
      194.499998
 20
      140.500000
 30
        0.000000
 40
        2.000000
  0
CIRCLE
  8
LVL0000
 10
      212.999998
 20
      259.500000
 30
        0.000000
 40
        2.000000
  0
CIRCLE
  8
LVL0000
 10
      212.999998
 20
      259.500000
 30
        0.000000
 40
        1.500000
  0
CIRCLE
  8
LVL0000
 10
      238.499998
 20
      140.500000
 30
        0.000000
 40
        1.500000
  0
CIRCLE
  8
LVL0000
 10
      238.499998
 20
      259.500000
 30
        0.000000
 40
        1.500000
  0
LINE
  8
LVL0000
 10
      256.999998
 20
      148.100000
 30
        0.000000
 11
      243.499998
 21
      148.100000
 31
        0.000000
  0
LINE
  8
LVL0000
 10
      257.899998
 20
      153.100000
 30
        0.000000
 11
      259.499998
 21
      153.100000
 31
        0.000000
  0
LINE
  8
LVL0000
 10
      256.999998
 20
      153.100000
 30
        0.000000
 11
      -35.000002
 21
      153.100000
 31
        0.000000
  0
ARC
  8
LVL0000
 10
      251.499998
 20
      139.000000
 30
        0.000000
 40
        3.000000
 50
        0.000000
 51
      179.999995
  0
CIRCLE
  8
LVL0000
 10
      251.499998
 20
      257.000000
 30
        0.000000
 40
        3.000000
  0
LINE
  8
LVL0000
 10
      -21.500002
 20
      135.000000
 30
        0.000000
 11
      243.499998
 21
      135.000000
 31
        0.000000
  0
LINE
  8
LVL0000
 10
      257.499998
 20
      137.000000
 30
        0.000000
 11
      259.499998
 21
      139.000000
 31
        0.000000
  0
LINE
  8
LVL0000
 10
      259.499998
 20
      261.000000
 30
        0.000000
 11
      259.499998
 21
      139.000000
 31
        0.000000
  0
LINE
  8
LVL0000
 10
      254.499998
 20
      137.000000
 30
        0.000000
 11
      257.499998
 21
      137.000000
 31
        0.000000
  0
LINE
  8
LVL0000
 10
      248.499998
 20
      139.000000
 30
        0.000000
 11
      248.499998
 21
      137.000000
 31
        0.000000
  0
LINE
  8
LVL0000
 10
      254.499998
 20
      139.000000
 30
        0.000000
 11
      254.499998
 21
      137.000000
 31
        0.000000
  0
LINE
  8
LVL0000
 10
      243.499998
 20
      137.000000
 30
        0.000000
 11
      248.499998
 21
      137.000000
 31
        0.000000
  0
LINE
  8
LVL0000
 10
      259.499998
 20
      261.000000
 30
        0.000000
 11
      257.499998
 21
      263.000000
 31
        0.000000
  0
LINE
  8
LVL0000
 10
      243.499998
 20
      263.000000
 30
        0.000000
 11
      257.499998
 21
      263.000000
 31
        0.000000
  0
LINE
  8
LVL0000
 10
      243.499998
 20
      145.000000
 30
        0.000000
 11
      243.499998
 21
      135.000000
 31
        0.000000
  0
LINE
  8
LVL0000
 10
      -21.500002
 20
      265.000000
 30
        0.000000
 11
      243.499998
 21
      265.000000
 31
        0.000000
  0
LINE
  8
LVL0000
 10
      243.499998
 20
      148.100000
 30
        0.000000
 11
      243.499998
 21
      143.500000
 31
        0.000000
  0
CIRCLE
  8
LVL0000
 10
      225.999998
 20
      258.500000
 30
        0.000000
 40
        2.500000
  0
CIRCLE
  8
LVL0000
 10
      238.499998
 20
      259.500000
 30
        0.000000
 40
        2.000000
  0
CIRCLE
  8
LVL0000
 10
      238.499998
 20
      140.500000
 30
        0.000000
 40
        2.000000
  0
CIRCLE
  8
LVL0000
 10
       87.999998
 20
      140.500000
 30
        0.000000
 40
        1.500000
  0
CIRCLE
  8
LVL0000
 10
       87.999998
 20
      140.500000
 30
        0.000000
 40
        2.000000
  0
CIRCLE
  8
LVL0000
 10
      177.499998
 20
      259.500000
 30
        0.000000
 40
        2.000000
  0
CIRCLE
  8
LVL0000
 10
      177.499998
 20
      259.500000
 30
        0.000000
 40
        1.500000
  0
CIRCLE
  8
LVL0000
 10
      141.999998
 20
      259.500000
 30
        0.000000
 40
        2.000000
  0
CIRCLE
  8
LVL0000
 10
      141.999998
 20
      259.500000
 30
        0.000000
 40
        1.500000
  0
CIRCLE
  8
LVL0000
 10
      106.499998
 20
      259.500000
 30
        0.000000
 40
        2.000000
  0
CIRCLE
  8
LVL0000
 10
      106.499998
 20
      259.500000
 30
        0.000000
 40
        1.500000
  0
CIRCLE
  8
LVL0000
 10
       70.999998
 20
      259.500000
 30
        0.000000
 40
        2.000000
  0
CIRCLE
  8
LVL0000
 10
       70.999998
 20
      259.500000
 30
        0.000000
 40
        1.500000
  0
CIRCLE
  8
LVL0000
 10
       35.499998
 20
      259.500000
 30
        0.000000
 40
        2.000000
  0
CIRCLE
  8
LVL0000
 10
       35.499998
 20
      259.500000
 30
        0.000000
 40
        1.500000
  0
CIRCLE
  8
LVL0000
 10
       -0.000002
 20
      259.500000
 30
        0.000000
 40
        2.000000
  0
CIRCLE
  8
LVL0000
 10
       -0.000002
 20
      259.500000
 30
        0.000000
 40
        1.500000
  0
LINE
  8
LVL0000
 10
      -12.400002
 20
      145.000000
 30
        0.000000
 11
      -12.400002
 21
      140.000000
 31
        0.000000
  0
LINE
  8
LVL0000
 10
       10.899998
 20
      145.000000
 30
        0.000000
 11
       10.899998
 21
      140.000000
 31
        0.000000
  0
LINE
  8
LVL0000
 10
       46.399998
 20
      145.000000
 30
        0.000000
 11
       46.399998
 21
      140.000000
 31
        0.000000
  0
LINE
  8
LVL0000
 10
       23.099998
 20
      145.000000
 30
        0.000000
 11
       23.099998
 21
      140.000000
 31
        0.000000
  0
LINE
  8
LVL0000
 10
       58.599998
 20
      145.000000
 30
        0.000000
 11
       58.599998
 21
      140.000000
 31
        0.000000
  0
LINE
  8
LVL0000
 10
       81.899998
 20
      145.000000
 30
        0.000000
 11
       81.899998
 21
      140.000000
 31
        0.000000
  0
LINE
  8
LVL0000
 10
      117.399998
 20
      145.000000
 30
        0.000000
 11
      117.399998
 21
      140.000000
 31
        0.000000
  0
LINE
  8
LVL0000
 10
       94.099998
 20
      145.000000
 30
        0.000000
 11
       94.099998
 21
      140.000000
 31
        0.000000
  0
LINE
  8
LVL0000
 10
      129.599998
 20
      145.000000
 30
        0.000000
 11
      129.599998
 21
      140.000000
 31
        0.000000
  0
LINE
  8
LVL0000
 10
      152.899998
 20
      145.000000
 30
        0.000000
 11
      152.899998
 21
      140.000000
 31
        0.000000
  0
LINE
  8
LVL0000
 10
      165.099998
 20
      145.000000
 30
        0.000000
 11
      165.099998
 21
      140.000000
 31
        0.000000
  0
LINE
  8
LVL0000
 10
      165.099998
 20
      140.000000
 30
        0.000000
 11
      188.399998
 21
      140.000000
 31
        0.000000
  0
LINE
  8
LVL0000
 10
      129.599998
 20
      140.000000
 30
        0.000000
 11
      152.899998
 21
      140.000000
 31
        0.000000
  0
LINE
  8
LVL0000
 10
       94.099998
 20
      140.000000
 30
        0.000000
 11
      117.399998
 21
      140.000000
 31
        0.000000
  0
LINE
  8
LVL0000
 10
       58.599998
 20
      140.000000
 30
        0.000000
 11
       81.899998
 21
      140.000000
 31
        0.000000
  0
LINE
  8
LVL0000
 10
       23.099998
 20
      140.000000
 30
        0.000000
 11
       46.399998
 21
      140.000000
 31
        0.000000
  0
LINE
  8
LVL0000
 10
      -12.400002
 20
      140.000000
 30
        0.000000
 11
       10.899998
 21
      140.000000
 31
        0.000000
  0
CIRCLE
  8
LVL0000
 10
      158.999998
 20
      140.500000
 30
        0.000000
 40
        1.500000
  0
CIRCLE
  8
LVL0000
 10
      123.499998
 20
      140.500000
 30
        0.000000
 40
        1.500000
  0
CIRCLE
  8
LVL0000
 10
       52.499998
 20
      140.500000
 30
        0.000000
 40
        1.500000
  0
LINE
  8
LVL0000
 10
       10.899998
 20
      143.500000
 30
        0.000000
 11
      -12.400002
 21
      143.500000
 31
        0.000000
  0
LINE
  8
LVL0000
 10
       46.399998
 20
      143.500000
 30
        0.000000
 11
       23.099998
 21
      143.500000
 31
        0.000000
  0
LINE
  8
LVL0000
 10
       81.899998
 20
      143.500000
 30
        0.000000
 11
       58.599998
 21
      143.500000
 31
        0.000000
  0
LINE
  8
LVL0000
 10
      117.399998
 20
      143.500000
 30
        0.000000
 11
       94.099998
 21
      143.500000
 31
        0.000000
  0
LINE
  8
LVL0000
 10
      152.899998
 20
      143.500000
 30
        0.000000
 11
      129.599998
 21
      143.500000
 31
        0.000000
  0
LINE
  8
LVL0000
 10
      188.399998
 20
      143.500000
 30
        0.000000
 11
      165.099998
 21
      143.500000
 31
        0.000000
  0
CIRCLE
  8
LVL0000
 10
      188.499998
 20
      258.500000
 30
        0.000000
 40
        2.500000
  0
CIRCLE
  8
LVL0000
 10
      152.999998
 20
      258.500000
 30
        0.000000
 40
        2.500000
  0
CIRCLE
  8
LVL0000
 10
      117.499998
 20
      258.500000
 30
        0.000000
 40
        2.500000
  0
CIRCLE
  8
LVL0000
 10
       81.999998
 20
      258.500000
 30
        0.000000
 40
        2.500000
  0
CIRCLE
  8
LVL0000
 10
       46.499998
 20
      258.500000
 30
        0.000000
 40
        2.500000
  0
CIRCLE
  8
LVL0000
 10
       10.999998
 20
      258.500000
 30
        0.000000
 40
        2.500000
  0
LINE
  8
LVL0000
 10
      -21.500002
 20
      148.100000
 30
        0.000000
 11
      -35.000002
 21
      148.100000
 31
        0.000000
  0
LINE
  8
LVL0000
 10
      -21.500002
 20
      148.100000
 30
        0.000000
 11
      -21.500002
 21
      143.500000
 31
        0.000000
  0
LINE
  8
LVL0000
 10
      -35.500002
 20
      137.000000
 30
        0.000000
 11
      -32.500002
 21
      137.000000
 31
        0.000000
  0
LINE
  8
LVL0000
 10
      -26.500002
 20
      137.000000
 30
        0.000000
 11
      -21.500002
 21
      137.000000
 31
        0.000000
  0
LINE
  8
LVL0000
 10
      -32.500002
 20
      139.000000
 30
        0.000000
 11
      -32.500002
 21
      137.000000
 31
        0.000000
  0
LINE
  8
LVL0000
 10
      -26.500002
 20
      139.000000
 30
        0.000000
 11
      -26.500002
 21
      137.000000
 31
        0.000000
  0
LINE
  8
LVL0000
 10
      -37.500002
 20
      139.000000
 30
        0.000000
 11
      -35.500002
 21
      137.000000
 31
        0.000000
  0
LINE
  8
LVL0000
 10
      -37.500002
 20
      261.000000
 30
        0.000000
 11
      -37.500002
 21
      139.000000
 31
        0.000000
  0
LINE
  8
LVL0000
 10
      -35.500002
 20
      263.000000
 30
        0.000000
 11
      -37.500002
 21
      261.000000
 31
        0.000000
  0
LINE
  8
LVL0000
 10
      -35.500002
 20
      263.000000
 30
        0.000000
 11
      -21.500002
 21
      263.000000
 31
        0.000000
  0
LINE
  8
LVL0000
 10
      -21.500002
 20
      145.000000
 30
        0.000000
 11
      -21.500002
 21
      135.000000
 31
        0.000000
  0
ARC
  8
LVL0000
 10
      -29.500002
 20
      139.000000
 30
        0.000000
 40
        3.000000
 50
        0.000000
 51
      179.999995
  0
CIRCLE
  8
LVL0000
 10
      -29.500002
 20
      257.000000
 30
        0.000000
 40
        3.000000
  0
LINE
  8
LVL0000
 10
      -21.500002
 20
      145.000000
 30
        0.000000
 11
      -12.400002
 21
      145.000000
 31
        0.000000
  0
LINE
  8
LVL0000
 10
       10.899998
 20
      145.000000
 30
        0.000000
 11
       23.099998
 21
      145.000000
 31
        0.000000
  0
LINE
  8
LVL0000
 10
       46.399998
 20
      145.000000
 30
        0.000000
 11
       58.599998
 21
      145.000000
 31
        0.000000
  0
LINE
  8
LVL0000
 10
       81.899998
 20
      145.000000
 30
        0.000000
 11
       94.099998
 21
      145.000000
 31
        0.000000
  0
LINE
  8
LVL0000
 10
      117.399998
 20
      145.000000
 30
        0.000000
 11
      129.599998
 21
      145.000000
 31
        0.000000
  0
LINE
  8
LVL0000
 10
      152.899998
 20
      145.000000
 30
        0.000000
 11
      165.099998
 21
      145.000000
 31
        0.000000
  0
LINE
  8
LVL0000
 10
      -35.900002
 20
      153.100000
 30
        0.000000
 11
      -37.500002
 21
      153.100000
 31
        0.000000
  0
CIRCLE
  8
LVL0000
 10
      123.499998
 20
      140.500000
 30
        0.000000
 40
        2.000000
  0
CIRCLE
  8
LVL0000
 10
      158.999998
 20
      140.500000
 30
        0.000000
 40
        2.000000
  0
LINE
  8
LVL0000
 10
      -35.900002
 20
      156.000000
 30
        0.000000
 11
      -35.900002
 21
      153.100000
 31
        0.000000
  0
LINE
  8
LVL0000
 10
      -35.000002
 20
      156.000000
 30
        0.000000
 11
      -35.000002
 21
      148.100000
 31
        0.000000
  0
LINE
  8
LVL0000
 10
      257.899998
 20
      156.000000
 30
        0.000000
 11
      257.899998
 21
      153.100000
 31
        0.000000
  0
LINE
  8
LVL0000
 10
      256.999998
 20
      156.000000
 30
        0.000000
 11
      256.999998
 21
      148.100000
 31
        0.000000
  0
LINE
  8
LVL0000
 10
      -21.500002
 20
      265.000000
 30
        0.000000
 11
      -21.500002
 21
      254.499985
 31
        0.000000
  0
LINE
  8
LVL0000
 10
      243.499998
 20
      265.000000
 30
        0.000000
 11
      243.499998
 21
      249.500000
 31
        0.000000
  0
LINE
  8
LVL0000
 10
      315.112518
 20
      265.000000
 30
        0.000000
 11
      315.112518
 21
      249.000000
 31
        0.000000
  0
ARC
  8
LVL0000
 10
      312.512512
 20
      136.599954
 30
        0.000000
 40
        1.600006
 50
      180.000010
 51
      270.000000
  0
ARC
  8
LVL0000
 10
      313.312500
 20
      137.399972
 30
        0.000000
 40
        0.799988
 50
      180.000010
 51
      270.000000
  0
LINE
  8
LVL0000
 10
      312.512512
 20
      134.999963
 30
        0.000000
 11
      319.512518
 21
      134.999963
 31
        0.000000
  0
ARC
  8
LVL0000
 10
      319.512518
 20
      136.599963
 30
        0.000000
 40
        1.600000
 50
      270.000000
 51
      360.000000
  0
LINE
  8
LVL0000
 10
      321.112518
 20
      263.400000
 30
        0.000000
 11
      321.112518
 21
      136.599963
 31
        0.000000
  0
LINE
  8
LVL0000
 10
      312.512512
 20
      137.399972
 30
        0.000000
 11
      312.512512
 21
      145.000000
 31
        0.000000
  0
LINE
  8
LVL0000
 10
      310.912506
 20
      136.599954
 30
        0.000000
 11
      310.912506
 21
      145.000000
 31
        0.000000
  0
LINE
  8
LVL0000
 10
      313.312500
 20
      136.599969
 30
        0.000000
 11
      318.712518
 21
      136.599969
 31
        0.000000
  0
ARC
  8
LVL0000
 10
      318.712518
 20
      137.399969
 30
        0.000000
 40
        0.800000
 50
      270.000000
 51
      360.000000
  0
ARC
  8
LVL0000
 10
      319.512518
 20
      263.400000
 30
        0.000000
 40
        1.600000
 50
        0.000000
 51
       90.000000
  0
ARC
  8
LVL0000
 10
      318.712518
 20
      262.599994
 30
        0.000000
 40
        0.800000
 50
        0.000000
 51
       90.000000
  0
LINE
  8
LVL0000
 10
      312.512512
 20
      145.000000
 30
        0.000000
 11
      310.912506
 21
      145.000000
 31
        0.000000
  0
LINE
  8
LVL0000
 10
      313.512512
 20
      164.200000
 30
        0.000000
 11
      313.512512
 21
      154.700000
 31
        0.000000
  0
LINE
  8
LVL0000
 10
      318.312518
 20
      143.500000
 30
        0.000000
 11
      319.512518
 21
      143.500000
 31
        0.000000
  0
LINE
  8
LVL0000
 10
      313.712524
 20
      153.100000
 30
        0.000000
 11
      321.112518
 21
      153.100000
 31
        0.000000
  0
LINE
  8
LVL0000
 10
      313.712524
 20
      153.100000
 30
        0.000000
 11
      313.712524
 21
      249.000000
 31
        0.000000
  0
LINE
  8
LVL0000
 10
      319.512518
 20
      153.100000
 30
        0.000000
 11
      319.512518
 21
      137.399969
 31
        0.000000
  0
LINE
  8
LVL0000
 10
      319.512512
 20
      152.400003
 30
        0.000000
 11
      319.512512
 21
      153.100000
 31
        0.000000
  0
LINE
  8
LVL0000
 10
      319.512518
 20
      262.599994
 30
        0.000000
 11
      319.512518
 21
      249.000000
 31
        0.000000
  0
LINE
  8
LVL0000
 10
      313.712524
 20
      246.300000
 30
        0.000000
 11
      313.512512
 21
      246.300000
 31
        0.000000
  0
LINE
  8
LVL0000
 10
      313.512512
 20
      164.200000
 30
        0.000000
 11
      313.712524
 21
      164.200000
 31
        0.000000
  0
ARC
  8
LVL0000
 10
      314.712512
 20
      154.700000
 30
        0.000000
 40
        1.200000
 50
      179.999995
 51
      213.558368
  0
LINE
  8
LVL0000
 10
      318.312518
 20
      153.100000
 30
        0.000000
 11
      318.312518
 21
      143.500000
 31
        0.000000
  0
LINE
  8
LVL0000
 10
      313.712524
 20
      249.000000
 30
        0.000000
 11
      321.112518
 21
      249.000000
 31
        0.000000
  0
LINE
  8
LVL0000
 10
      313.512512
 20
      249.000000
 30
        0.000000
 11
      313.712524
 21
      249.000000
 31
        0.000000
  0
LINE
  8
LVL0000
 10
      313.512512
 20
      247.800000
 30
        0.000000
 11
      313.712524
 21
      247.800000
 31
        0.000000
  0
LINE
  8
LVL0000
 10
      313.512512
 20
      265.000000
 30
        0.000000
 11
      319.512518
 21
      265.000000
 31
        0.000000
  0
LINE
  8
LVL0000
 10
      315.112518
 20
      263.399994
 30
        0.000000
 11
      318.712518
 21
      263.399994
 31
        0.000000
  0
LINE
  8
LVL0000
 10
      313.512512
 20
      265.000000
 30
        0.000000
 11
      313.512512
 21
      246.300000
 31
        0.000000
  0
LINE
  8
LVL0000
 10
      -21.500000
 20
       65.000000
 30
        0.000000
 11
      -21.500000
 21
       49.499985
 31
        0.000000
  0
LINE
  8
LVL0000
 10
      -35.000000
 20
      -44.000015
 30
        0.000000
 11
      -35.000000
 21
      -51.900000
 31
        0.000000
  0
LINE
  8
LVL0000
 10
      -35.900000
 20
      -44.000015
 30
        0.000000
 11
      -35.900000
 21
      -46.900000
 31
        0.000000
  0
LINE
  8
LVL0000
 10
      -35.900000
 20
      -46.900000
 30
        0.000000
 11
      -37.500000
 21
      -46.900000
 31
        0.000000
  0
CIRCLE
  8
LVL0000
 10
      -29.500000
 20
       57.000000
 30
        0.000000
 40
        3.000000
  0
ARC
  8
LVL0000
 10
      -29.500000
 20
      -61.000000
 30
        0.000000
 40
        3.000000
 50
        0.000000
 51
      179.999995
  0
LINE
  8
LVL0000
 10
      -21.500000
 20
      -55.000000
 30
        0.000000
 11
      -21.500000
 21
      -65.000000
 31
        0.000000
  0
LINE
  8
LVL0000
 10
      -35.500000
 20
       63.000000
 30
        0.000000
 11
      -21.500000
 21
       63.000000
 31
        0.000000
  0
LINE
  8
LVL0000
 10
      -35.500000
 20
       63.000000
 30
        0.000000
 11
      -37.500000
 21
       61.000000
 31
        0.000000
  0
LINE
  8
LVL0000
 10
      -37.500000
 20
       61.000000
 30
        0.000000
 11
      -37.500000
 21
      -61.000000
 31
        0.000000
  0
LINE
  8
LVL0000
 10
      -37.500000
 20
      -61.000000
 30
        0.000000
 11
      -35.500000
 21
      -63.000000
 31
        0.000000
  0
LINE
  8
LVL0000
 10
      -26.500000
 20
      -61.000000
 30
        0.000000
 11
      -26.500000
 21
      -63.000000
 31
        0.000000
  0
LINE
  8
LVL0000
 10
      -32.500000
 20
      -61.000000
 30
        0.000000
 11
      -32.500000
 21
      -63.000000
 31
        0.000000
  0
LINE
  8
LVL0000
 10
      -26.500000
 20
      -63.000000
 30
        0.000000
 11
      -21.500000
 21
      -63.000000
 31
        0.000000
  0
LINE
  8
LVL0000
 10
      -35.500000
 20
      -63.000000
 30
        0.000000
 11
      -32.500000
 21
      -63.000000
 31
        0.000000
  0
LINE
  8
LVL0000
 10
      -21.500000
 20
      -51.900000
 30
        0.000000
 11
      -21.500000
 21
      -56.500000
 31
        0.000000
  0
LINE
  8
LVL0000
 10
      -21.500000
 20
      -51.900000
 30
        0.000000
 11
      -35.000000
 21
      -51.900000
 31
        0.000000
  0
LINE
  8
LVL0000
 10
      -37.500000
 20
       49.499985
 30
        0.000000
 11
      -21.500000
 21
       49.499985
 31
        0.000000
  0
LINE
  8
LVL0000
 10
      -21.500000
 20
       54.499985
 30
        0.000000
 11
      -21.500000
 21
       49.499985
 31
        0.000000
  0
LINE
  8
LVL0000
 10
      -17.499998
 20
       52.799978
 30
        0.000000
 11
      -17.499998
 21
       49.199980
 31
        0.000000
  0
LINE
  8
LVL0000
 10
      -27.299982
 20
      -40.500034
 30
        0.000000
 11
      -23.700014
 21
      -40.500015
 31
        0.000000
  0
LINE
  8
LVL0000
 10
      -25.499998
 20
      -38.700016
 30
        0.000000
 11
      -25.499998
 21
      -42.300014
 31
        0.000000
  0
CIRCLE
  8
LVL0000
 10
      -25.499998
 20
      -40.500015
 30
        0.000000
 40
        2.750000
  0
LINE
  8
LVL0000
 10
      -37.500000
 20
      -44.000015
 30
        0.000000
 11
      -37.500000
 21
       49.499969
 31
        0.000000
  0
LINE
  8
LVL0000
 10
      -37.500000
 20
       49.499969
 30
        0.000000
 11
      -21.499998
 21
       49.499969
 31
        0.000000
  0
LINE
  8
LVL0000
 10
      -26.560661
 20
      -25.189346
 30
        0.000000
 11
      -24.439346
 21
      -27.310684
 31
        0.000000
  0
LINE
  8
LVL0000
 10
      -27.621323
 20
      -28.371338
 30
        0.000000
 11
      -23.378677
 21
      -24.128693
 31
        0.000000
  0
LINE
  8
LVL0000
 10
      -26.560661
 20
      -16.689346
 30
        0.000000
 11
      -24.439346
 21
      -18.810684
 31
        0.000000
  0
LINE
  8
LVL0000
 10
      -27.621323
 20
      -19.871338
 30
        0.000000
 11
      -23.378677
 21
      -15.628693
 31
        0.000000
  0
LINE
  8
LVL0000
 10
      -29.099998
 20
      -28.750015
 30
        0.000000
 11
      -29.599998
 21
      -28.750015
 31
        0.000000
  0
LINE
  8
LVL0000
 10
      -21.400002
 20
      -28.750015
 30
        0.000000
 11
      -21.900002
 21
      -28.750015
 31
        0.000000
  0
LINE
  8
LVL0000
 10
      -21.400002
 20
      -20.250015
 30
        0.000000
 11
      -21.900002
 21
      -20.250015
 31
        0.000000
  0
LINE
  8
LVL0000
 10
      -29.099998
 20
      -20.250015
 30
        0.000000
 11
      -29.599998
 21
      -20.250015
 31
        0.000000
  0
LINE
  8
LVL0000
 10
      -29.599998
 20
      -15.250015
 30
        0.000000
 11
      -29.599998
 21
      -20.250015
 31
        0.000000
  0
LINE
  8
LVL0000
 10
      -29.099998
 20
      -15.250015
 30
        0.000000
 11
      -29.599998
 21
      -15.250015
 31
        0.000000
  0
LINE
  8
LVL0000
 10
      -21.400002
 20
      -15.250015
 30
        0.000000
 11
      -21.400002
 21
      -20.250015
 31
        0.000000
  0
LINE
  8
LVL0000
 10
      -21.400002
 20
      -15.250015
 30
        0.000000
 11
      -21.900002
 21
      -15.250015
 31
        0.000000
  0
LINE
  8
LVL0000
 10
      -21.400002
 20
      -23.750015
 30
        0.000000
 11
      -21.400002
 21
      -28.750015
 31
        0.000000
  0
LINE
  8
LVL0000
 10
      -21.400002
 20
      -23.750015
 30
        0.000000
 11
      -21.900002
 21
      -23.750015
 31
        0.000000
  0
LINE
  8
LVL0000
 10
      -29.599998
 20
      -23.750015
 30
        0.000000
 11
      -29.599998
 21
      -28.750015
 31
        0.000000
  0
LINE
  8
LVL0000
 10
      -29.099998
 20
      -23.750015
 30
        0.000000
 11
      -29.599998
 21
      -23.750015
 31
        0.000000
  0
CIRCLE
  8
LVL0000
 10
      -25.500000
 20
      -26.250015
 30
        0.000000
 40
        3.000000
  0
CIRCLE
  8
LVL0000
 10
      -25.500000
 20
      -17.750015
 30
        0.000000
 40
        3.000000
  0
LINE
  8
LVL0000
 10
      -21.900002
 20
      -22.650009
 30
        0.000000
 11
      -21.900002
 21
      -29.850021
 31
        0.000000
  0
LINE
  8
LVL0000
 10
      -21.900002
 20
      -14.150009
 30
        0.000000
 11
      -21.900002
 21
      -21.350021
 31
        0.000000
  0
LINE
  8
LVL0000
 10
      -29.099998
 20
      -22.650009
 30
        0.000000
 11
      -29.099998
 21
      -29.850021
 31
        0.000000
  0
LINE
  8
LVL0000
 10
      -29.099998
 20
      -14.150009
 30
        0.000000
 11
      -29.099998
 21
      -21.350021
 31
        0.000000
  0
LINE
  8
LVL0000
 10
      -20.800003
 20
      -31.150009
 30
        0.000000
 11
      -20.800003
 21
      -32.000015
 31
        0.000000
  0
LINE
  8
LVL0000
 10
      -32.500000
 20
      -31.150009
 30
        0.000000
 11
      -20.800003
 21
      -31.150009
 31
        0.000000
  0
LINE
  8
LVL0000
 10
      -32.500000
 20
      -29.850021
 30
        0.000000
 11
      -20.800003
 21
      -29.850021
 31
        0.000000
  0
LINE
  8
LVL0000
 10
      -20.800003
 20
      -22.650009
 30
        0.000000
 11
      -20.800003
 21
      -29.850021
 31
        0.000000
  0
LINE
  8
LVL0000
 10
      -32.500000
 20
      -22.650009
 30
        0.000000
 11
      -20.800003
 21
      -22.650009
 31
        0.000000
  0
LINE
  8
LVL0000
 10
      -32.500000
 20
      -21.350021
 30
        0.000000
 11
      -20.800003
 21
      -21.350021
 31
        0.000000
  0
LINE
  8
LVL0000
 10
      -20.800003
 20
      -14.150009
 30
        0.000000
 11
      -20.800003
 21
      -21.350021
 31
        0.000000
  0
LINE
  8
LVL0000
 10
      -32.500000
 20
      -14.150009
 30
        0.000000
 11
      -20.800003
 21
      -14.150009
 31
        0.000000
  0
LINE
  8
LVL0000
 10
      -20.800003
 20
      -12.000015
 30
        0.000000
 11
      -20.800003
 21
      -12.850021
 31
        0.000000
  0
LINE
  8
LVL0000
 10
      -32.500000
 20
      -12.850021
 30
        0.000000
 11
      -20.800003
 21
      -12.850021
 31
        0.000000
  0
LINE
  8
LVL0000
 10
      -32.500000
 20
      -32.000015
 30
        0.000000
 11
      -19.500000
 21
      -32.000015
 31
        0.000000
  0
LINE
  8
LVL0000
 10
      -19.500000
 20
      -12.000015
 30
        0.000000
 11
      -19.500000
 21
      -32.000015
 31
        0.000000
  0
LINE
  8
LVL0000
 10
      -32.500000
 20
      -12.000015
 30
        0.000000
 11
      -32.500000
 21
      -32.000015
 31
        0.000000
  0
LINE
  8
LVL0000
 10
      -32.500000
 20
      -12.000015
 30
        0.000000
 11
      -19.500000
 21
      -12.000015
 31
        0.000000
  0
LINE
  8
LVL0000
 10
      -37.500002
 20
       49.499985
 30
        0.000000
 11
      -21.500000
 21
       49.499985
 31
        0.000000
  0
LINE
  8
LVL0000
 10
      -37.500002
 20
      -44.000000
 30
        0.000000
 11
      -37.500002
 21
       49.499985
 31
        0.000000
  0
ARC
  8
LVL0000
 10
      -17.499998
 20
       50.999969
 30
        0.000000
 40
        2.750000
 50
       90.000000
 51
      270.000000
  0
LINE
  8
LVL0000
 10
      -19.299982
 20
       50.999960
 30
        0.000000
 11
      -17.500000
 21
       50.999969
 31
        0.000000
  0
LINE
  8
LVL0000
 10
      -17.500000
 20
      -65.000000
 30
        0.000000
 11
      -17.500000
 21
       65.000000
 31
        0.000000
  0
LINE
  8
LVL0000
 10
       17.500000
 20
      -65.000000
 30
        0.000000
 11
       17.500000
 21
       65.000000
 31
        0.000000
  0
LINE
  8
LVL0000
 10
       18.000000
 20
      -65.000000
 30
        0.000000
 11
       18.000000
 21
       65.000000
 31
        0.000000
  0
LINE
  8
LVL0000
 10
       88.500000
 20
      -65.000000
 30
        0.000000
 11
       88.500000
 21
       65.000000
 31
        0.000000
  0
LINE
  8
LVL0000
 10
       89.000000
 20
      -65.000000
 30
        0.000000
 11
       89.000000
 21
       65.000000
 31
        0.000000
  0
LINE
  8
LVL0000
 10
      124.000000
 20
      -65.000000
 30
        0.000000
 11
      124.000000
 21
       65.000000
 31
        0.000000
  0
LINE
  8
LVL0000
 10
      -21.500000
 20
      -55.000000
 30
        0.000000
 11
      -17.500000
 21
      -55.000000
 31
        0.000000
  0
LINE
  8
LVL0000
 10
      124.500000
 20
      -65.000000
 30
        0.000000
 11
      124.500000
 21
       65.000000
 31
        0.000000
  0
LINE
  8
LVL0000
 10
      159.500000
 20
      -65.000000
 30
        0.000000
 11
      159.500000
 21
       65.000000
 31
        0.000000
  0
LINE
  8
LVL0000
 10
      195.000000
 20
      -65.000000
 30
        0.000000
 11
      195.000000
 21
       65.000000
 31
        0.000000
  0
LINE
  8
LVL0000
 10
      160.000000
 20
      -65.000000
 30
        0.000000
 11
      160.000000
 21
       65.000000
 31
        0.000000
  0
LINE
  8
LVL0000
 10
      195.500000
 20
      -65.000000
 30
        0.000000
 11
      195.500000
 21
       65.000000
 31
        0.000000
  0
LINE
  8
LVL0000
 10
      230.500000
 20
      -65.000000
 30
        0.000000
 11
      230.500000
 21
       65.000000
 31
        0.000000
  0
LINE
  8
LVL0000
 10
      -17.500000
 20
      -46.900000
 30
        0.000000
 11
      -35.000000
 21
      -46.900000
 31
        0.000000
  0
LINE
  8
LVL0000
 10
      -37.500000
 20
      -44.000015
 30
        0.000000
 11
      -17.500000
 21
      -44.000015
 31
        0.000000
  0
LINE
  8
LVL0000
 10
      -21.499998
 20
       54.499969
 30
        0.000000
 11
      -17.500000
 21
       54.499969
 31
        0.000000
  0
LINE
  8
LVL0000
 10
      -37.500000
 20
      -44.000015
 30
        0.000000
 11
      -17.500000
 21
      -44.000015
 31
        0.000000
  0
LINE
  8
LVL0000
 10
      -37.500002
 20
      -44.000000
 30
        0.000000
 11
      -17.500000
 21
      -44.000000
 31
        0.000000
  0
LINE
  8
LVL0000
  6
CENTER
 10
      213.000000
 20
      -65.000000
 30
        0.000000
 11
      213.000000
 21
       65.000000
 31
        0.000000
  0
LINE
  8
LVL0000
  6
CENTER
 10
      177.500000
 20
      -65.000000
 30
        0.000000
 11
      177.500000
 21
       65.000000
 31
        0.000000
  0
LINE
  8
LVL0000
  6
CENTER
 10
      142.000000
 20
      -65.000000
 30
        0.000000
 11
      142.000000
 21
       65.000000
 31
        0.000000
  0
LINE
  8
LVL0000
  6
CENTER
 10
      106.500000
 20
      -65.000000
 30
        0.000000
 11
      106.500000
 21
       65.000000
 31
        0.000000
  0
LINE
  8
LVL0000
  6
CENTER
 10
        0.000000
 20
      -65.000000
 30
        0.000000
 11
        0.000000
 21
       65.000000
 31
        0.000000
  0
LINE
  8
LVL0000
 10
      257.500000
 20
      -63.000000
 30
        0.000000
 11
      259.500000
 21
      -61.000000
 31
        0.000000
  0
LINE
  8
LVL0000
 10
      -21.500000
 20
      -65.000000
 30
        0.000000
 11
      243.500000
 21
      -65.000000
 31
        0.000000
  0
CIRCLE
  8
LVL0000
 10
      251.500000
 20
       57.000000
 30
        0.000000
 40
        3.000000
  0
ARC
  8
LVL0000
 10
      251.500000
 20
      -61.000000
 30
        0.000000
 40
        3.000000
 50
        0.000000
 51
      179.999995
  0
LINE
  8
LVL0000
 10
      257.900000
 20
      -46.900000
 30
        0.000000
 11
      259.500000
 21
      -46.900000
 31
        0.000000
  0
LINE
  8
LVL0000
 10
      257.000000
 20
      -51.900000
 30
        0.000000
 11
      243.500000
 21
      -51.900000
 31
        0.000000
  0
CIRCLE
  8
LVL0000
 10
      238.500000
 20
       59.500000
 30
        0.000000
 40
        1.500000
  0
CIRCLE
  8
LVL0000
 10
      238.500000
 20
      -59.500000
 30
        0.000000
 40
        1.500000
  0
LINE
  8
LVL0000
 10
      259.500000
 20
       49.499985
 30
        0.000000
 11
      238.500000
 21
       49.499985
 31
        0.000000
  0
LINE
  8
LVL0000
 10
      259.500015
 20
      -44.000015
 30
        0.000000
 11
      259.500015
 21
       49.499969
 31
        0.000000
  0
LINE
  8
LVL0000
 10
      238.500015
 20
       49.499969
 30
        0.000000
 11
      238.500015
 21
       54.499969
 31
        0.000000
  0
LINE
  8
LVL0000
 10
      238.500015
 20
       49.499969
 30
        0.000000
 11
      259.500015
 21
       49.499969
 31
        0.000000
  0
LINE
  8
LVL0000
 10
      238.500015
 20
       49.499985
 30
        0.000000
 11
      259.500015
 21
       49.499985
 31
        0.000000
  0
LINE
  8
LVL0000
 10
      238.500000
 20
       54.499985
 30
        0.000000
 11
      238.500000
 21
       49.499985
 31
        0.000000
  0
LINE
  8
LVL0000
 10
      238.500015
 20
       49.499985
 30
        0.000000
 11
      238.500015
 21
       54.499985
 31
        0.000000
  0
LINE
  8
LVL0000
  6
CENTER
 10
      232.500000
 20
        0.000000
 30
        0.000000
 11
      -17.500000
 21
        0.000000
 31
        0.000000
  0
LINE
  8
LVL0000
 10
      243.500000
 20
       65.000000
 30
        0.000000
 11
      243.500000
 21
       49.499985
 31
        0.000000
  0
LINE
  8
LVL0000
 10
      257.000000
 20
      -44.000015
 30
        0.000000
 11
      257.000000
 21
      -51.900000
 31
        0.000000
  0
LINE
  8
LVL0000
 10
      257.900000
 20
      -44.000015
 30
        0.000000
 11
      257.900000
 21
      -46.900000
 31
        0.000000
  0
CIRCLE
  8
LVL0000
 10
      238.500000
 20
      -59.500000
 30
        0.000000
 40
        2.000000
  0
CIRCLE
  8
LVL0000
 10
      238.500000
 20
       59.500000
 30
        0.000000
 40
        2.000000
  0
LINE
  8
LVL0000
 10
      243.500000
 20
      -51.900000
 30
        0.000000
 11
      243.500000
 21
      -56.500000
 31
        0.000000
  0
LINE
  8
LVL0000
 10
      -21.500000
 20
       65.000000
 30
        0.000000
 11
      243.500000
 21
       65.000000
 31
        0.000000
  0
LINE
  8
LVL0000
 10
      243.500000
 20
      -55.000000
 30
        0.000000
 11
      243.500000
 21
      -65.000000
 31
        0.000000
  0
LINE
  8
LVL0000
 10
      243.500000
 20
       63.000000
 30
        0.000000
 11
      257.500000
 21
       63.000000
 31
        0.000000
  0
LINE
  8
LVL0000
 10
      259.500000
 20
       61.000000
 30
        0.000000
 11
      257.500000
 21
       63.000000
 31
        0.000000
  0
LINE
  8
LVL0000
 10
      243.500000
 20
      -63.000000
 30
        0.000000
 11
      248.500000
 21
      -63.000000
 31
        0.000000
  0
LINE
  8
LVL0000
 10
      254.500000
 20
      -61.000000
 30
        0.000000
 11
      254.500000
 21
      -63.000000
 31
        0.000000
  0
LINE
  8
LVL0000
 10
      248.500000
 20
      -61.000000
 30
        0.000000
 11
      248.500000
 21
      -63.000000
 31
        0.000000
  0
LINE
  8
LVL0000
 10
      254.500000
 20
      -63.000000
 30
        0.000000
 11
      257.500000
 21
      -63.000000
 31
        0.000000
  0
LINE
  8
LVL0000
 10
      259.500000
 20
       61.000000
 30
        0.000000
 11
      259.500000
 21
      -61.000000
 31
        0.000000
  0
LINE
  8
LVL0000
 10
      230.500000
 20
      -55.000000
 30
        0.000000
 11
      243.500000
 21
      -55.000000
 31
        0.000000
  0
LINE
  8
LVL0000
 10
      230.500000
 20
      -44.000000
 30
        0.000000
 11
      259.500015
 21
      -44.000000
 31
        0.000000
  0
LINE
  8
LVL0000
 10
      230.500000
 20
      -44.000015
 30
        0.000000
 11
      259.500015
 21
      -44.000015
 31
        0.000000
  0
LINE
  8
LVL0000
 10
      230.500000
 20
      -44.000015
 30
        0.000000
 11
      259.500000
 21
      -44.000015
 31
        0.000000
  0
LINE
  8
LVL0000
 10
      257.000000
 20
      -46.900000
 30
        0.000000
 11
      230.500000
 21
      -46.900000
 31
        0.000000
  0
LINE
  8
LVL0000
 10
      230.500000
 20
       54.499969
 30
        0.000000
 11
      238.500015
 21
       54.499969
 31
        0.000000
  0
CIRCLE
  8
LVL0000
 10
      234.000015
 20
       50.999985
 30
        0.000000
 40
        2.750000
  0
LINE
  8
LVL0000
 10
      232.200031
 20
       50.999975
 30
        0.000000
 11
      235.799999
 21
       50.999994
 31
        0.000000
  0
LINE
  8
LVL0000
 10
      234.000015
 20
       52.799994
 30
        0.000000
 11
      234.000015
 21
       49.199995
 31
        0.000000
  0
CIRCLE
  8
LVL0000
 10
      243.599987
 20
      -40.500015
 30
        0.000000
 40
        2.750000
  0
LINE
  8
LVL0000
 10
      241.800003
 20
      -40.500025
 30
        0.000000
 11
      245.399971
 21
      -40.500006
 31
        0.000000
  0
LINE
  8
LVL0000
 10
      243.599987
 20
      -38.700006
 30
        0.000000
 11
      243.599987
 21
      -42.300005
 31
        0.000000
  0
CIRCLE
  8
LVL0000
 10
      233.500031
 20
      -40.500000
 30
        0.000000
 40
        1.750000
  0
CIRCLE
  8
LVL0000
 10
      233.500015
 20
      -40.500015
 30
        0.000000
 40
        1.750000
  0
CIRCLE
  8
LVL0000
 10
      233.500015
 20
      -40.500015
 30
        0.000000
 40
        1.750000
  0
LINE
  8
LVL0000
 10
      259.500000
 20
      315.000000
 30
        0.000000
 11
      259.500000
 21
      305.800000
 31
        0.000000
  0
LINE
  8
LVL0000
 10
      243.500000
 20
      307.399994
 30
        0.000000
 11
      243.500000
 21
      315.000000
 31
        0.000000
  0
LINE
  8
LVL0000
 10
      259.500000
 20
      313.400000
 30
        0.000000
 11
      243.500000
 21
      313.400000
 31
        0.000000
  0
LINE
  8
LVL0000
 10
      259.500000
 20
      315.000000
 30
        0.000000
 11
      -37.500000
 21
      315.000000
 31
        0.000000
  0
LINE
  8
LVL0000
 10
      259.500000
 20
      307.399994
 30
        0.000000
 11
      -37.500000
 21
      307.399994
 31
        0.000000
  0
LINE
  8
LVL0000
 10
      259.500000
 20
      305.800000
 30
        0.000000
 11
      -37.500000
 21
      305.800000
 31
        0.000000
  0
LINE
  8
LVL0000
 10
      -37.500000
 20
      315.000000
 30
        0.000000
 11
      -37.500000
 21
      305.800000
 31
        0.000000
  0
LINE
  8
LVL0000
 10
      -21.500000
 20
      313.400000
 30
        0.000000
 11
      -37.500000
 21
      313.400000
 31
        0.000000
  0
LINE
  8
LVL0000
 10
      -21.500000
 20
      307.399994
 30
        0.000000
 11
      -21.500000
 21
      315.000000
 31
        0.000000
  0
DIMENSION
  8
LVL0000
 62
  5
  2
BLK0001
 10
      337.306335
 20
      272.362427
 11
      325.306335
 21
      272.862427
 13
      321.112518
 23
      263.399994
 14
      313.512512
 24
      263.399994
 50
        0.0
 70
  0
  0
DIMENSION
  8
LVL0000
 62
  5
  2
BLK0002
 10
      -37.500004
 20
      107.794289
 11
      105.000000
 21
      108.294289
 13
      -37.500004
 23
      139.000000
 14
      259.500000
 24
      139.000000
 50
        0.0
 70
  0
  0
DIMENSION
  8
LVL0000
 62
  5
  2
BLK0003
 10
      251.500000
 20
      118.091934
 11
      105.000000
 21
      118.591934
 13
      251.500000
 23
      139.000000
 14
      -29.500002
 24
      139.000000
 50
        0.0
 70
  0
  0
DIMENSION
  8
LVL0000
 62
  5
  2
BLK0004
 10
      290.321838
 20
      265.000000
 11
      289.821838
 21
      194.000000
 13
      243.500000
 23
      265.000000
 14
      243.500000
 24
      135.000000
 50
       90.0
 70
  0
  0
DIMENSION
  8
LVL0000
 62
  5
  2
BLK0005
 10
      279.335358
 20
      257.000000
 11
      278.835358
 21
      192.000000
 13
      251.500000
 23
      257.000000
 14
      251.500000
 24
      139.000000
 50
       90.0
 70
  0
  0
DIMENSION
  8
LVL0000
 62
  5
  2
BLK0006
 10
      279.335358
 20
      271.000000
 11
      278.835358
 21
      259.000000
 13
      243.500000
 23
      265.000000
 14
      251.500000
 24
      257.000000
 50
       90.0
 70
  0
  0
TEXT
  8
LVL0000
 62
  2
 10
      -40.049348
 20
      327.067106
 30
        0.000000
 40
        5.000000
  1
ＪＷ３６ＺＢ
 50
        0.000000
 41
        0.835000
 51
        0.000000
  7
BIGFONT
  0
ENDSEC
  0
EOF
