  0
SECTION
  2
HEADER
  9
$ACADVER
  1
AC1006
  9
$INSBASE
 10
0.0
 20
0.0
 30
0.0
  9
$EXTMIN
 10
     -110.795006
 20
      -73.055382
  9
$EXTMAX
 10
      181.400009
 20
      150.838135
  9
$LIMMIN
 10
     -110.795006
 20
      -73.055382
  9
$LIMMAX
 10
      181.400009
 20
      150.838135
  9
$VIEWCTR
 10
       35.302502
 20
       35.302502
  9
$ORTHOMODE
 70
     0
  9
$ANGBASE
 50
0.0
  9
$ANGDIR
 70
     0
  9
$SPLINETYPE
 70
     6
  9
$SPLINESEGS
 70
     8
9
$DIMASZ
 40
        3.500000
9
$DIMEXE
 40
        0.933333
9
$DIMEXO
 40
        1.333333
9
$DIMTXT
 40
        4.000000
9
$DIMGAP
 40
        0.933333
9
$DIMTAD
 70
1
9
$DIMTIH
 70
0
9
$DIMTOH
 70
0
  0
ENDSEC
  0
SECTION
  2
TABLES
  0
TABLE
  2
LTYPE
 70
     5
  0
LTYPE
  2
CONTINUOUS
 70
    64
  3
SOLID LINE
 72
    65
 73
     0
 40
0.0
  0
LTYPE
  2
DASHED
 70
    64
  3
-- -- -- -- -- --
 72
    65
 73
     2
 40
  0.75  
 49
  0.50  
 49
 -0.25  
  0
LTYPE
  2
DOT
 70
    64
  3
....................
 72
    65
 73
     2
 40
  0.25  
 49
  0.02  
 49
 -0.23  
  0
LTYPE
  2
CENTER
 70
    64
  3
-- . -- . -- . -- .
 72
    65
 73
    4
 40
  2.00  
 49
  1.25  
 49
 -0.25  
 49
  0.25  
 49
 -0.25  
  0
LTYPE
  2
PHANTOM
 70
    64
  3
-- .. -- .. -- ..
 72
    65
 73
    6
 40
  2.50  
 49
  1.25  
 49
 -0.25  
 49
  0.25  
 49
 -0.25  
 49
  0.25  
 49
 -0.25  
  0
ENDTAB
  0
TABLE
  2
LAYER
 70
     1
  0
LAYER
  2
LVL0000
 70
    64
 62
     2
  6
CONTINUOUS
  0
ENDTAB
  0
TABLE
  2
STYLE
 70
     2
  0
STYLE
  2
STANDARD
 70
    64
 40
0.0
 41
1.0
 50
0.0
 71
     0
 42
5.0
  3
ROMANS
  4
BIGFONT
  0
STYLE
  2
BIGFONT
 70
    64
 40
0.0
 41
1.0
 50
0.0
 71
     0
 42
5.0
  3
ROMANS
  4
BIGFONT
  0
ENDTAB
  0
TABLE
  2
VIEW
 70
     0
  0
ENDTAB
  0
TABLE
  2
UCS
 70
     0
  0
ENDTAB
  0
TABLE
  2
DWGMGR
 70
     0
  0
ENDTAB
  0
ENDSEC
  0
SECTION
  2
BLOCKS
  0
BLOCK
  8
0
  2
BLK0001
 70
    64
 10
        0.000000
 20
        0.000000
  0
POLYLINE
  8
LVL0000
 62
  3
 66
1
 70
4
 75
6
  0
VERTEX
  8
LVL0000
 10
      125.000004
 20
      109.673023
 70
 16
  0
VERTEX
  8
LVL0000
 10
      125.666514
 20
      109.654545
 70
 16
  0
VERTEX
  8
LVL0000
 10
      126.333252
 20
      109.644012
 70
 16
  0
VERTEX
  8
LVL0000
 10
      127.000003
 20
      109.639521
 70
 16
  0
VERTEX
  8
LVL0000
 10
      125.000004
 20
      109.673023
 70
  8
  0
VERTEX
  8
LVL0000
 10
      125.249955
 20
      109.666463
 70
  8
  0
VERTEX
  8
LVL0000
 10
      125.499926
 20
      109.660624
 70
  8
  0
VERTEX
  8
LVL0000
 10
      125.749912
 20
      109.655487
 70
  8
  0
VERTEX
  8
LVL0000
 10
      125.999913
 20
      109.651027
 70
  8
  0
VERTEX
  8
LVL0000
 10
      126.249925
 20
      109.647223
 70
  8
  0
VERTEX
  8
LVL0000
 10
      126.499945
 20
      109.644052
 70
  8
  0
VERTEX
  8
LVL0000
 10
      126.749972
 20
      109.641492
 70
  8
  0
VERTEX
  8
LVL0000
 10
      127.000003
 20
      109.639521
 70
  8
  0
SEQEND
  0
ENDBLK
  0
BLOCK
  8
0
  2
BLK0002
 70
    64
 10
        0.000000
 20
        0.000000
  0
POLYLINE
  8
LVL0000
 62
  3
 66
1
 70
4
 75
6
  0
VERTEX
  8
LVL0000
 10
      121.000003
 20
      109.881050
 70
 16
  0
VERTEX
  8
LVL0000
 10
      121.665983
 20
      109.829571
 70
 16
  0
VERTEX
  8
LVL0000
 10
      122.332808
 20
      109.786978
 70
 16
  0
VERTEX
  8
LVL0000
 10
      123.000003
 20
      109.752447
 70
 16
  0
VERTEX
  8
LVL0000
 10
      121.000003
 20
      109.881050
 70
  8
  0
VERTEX
  8
LVL0000
 10
      121.249784
 20
      109.862160
 70
  8
  0
VERTEX
  8
LVL0000
 10
      121.499639
 20
      109.844094
 70
  8
  0
VERTEX
  8
LVL0000
 10
      121.749562
 20
      109.826841
 70
  8
  0
VERTEX
  8
LVL0000
 10
      121.999547
 20
      109.810393
 70
  8
  0
VERTEX
  8
LVL0000
 10
      122.249590
 20
      109.794739
 70
  8
  0
VERTEX
  8
LVL0000
 10
      122.499683
 20
      109.779870
 70
  8
  0
VERTEX
  8
LVL0000
 10
      122.749823
 20
      109.765776
 70
  8
  0
VERTEX
  8
LVL0000
 10
      123.000003
 20
      109.752447
 70
  8
  0
SEQEND
  0
ENDBLK
  0
BLOCK
  8
0
  2
BLK0003
 70
    64
 10
        0.000000
 20
        0.000000
  0
POLYLINE
  8
LVL0000
 62
  3
 66
1
 70
4
 75
6
  0
VERTEX
  8
LVL0000
 10
      117.000001
 20
      110.314094
 70
 16
  0
VERTEX
  8
LVL0000
 10
      117.000001
 20
      110.314094
 70
 16
  0
VERTEX
  8
LVL0000
 10
      117.000002
 20
      110.314094
 70
 16
  0
VERTEX
  8
LVL0000
 10
      117.000003
 20
      110.314094
 70
 16
  0
VERTEX
  8
LVL0000
 10
      117.000001
 20
      110.314094
 70
  8
  0
VERTEX
  8
LVL0000
 10
      117.000001
 20
      110.314094
 70
  8
  0
VERTEX
  8
LVL0000
 10
      117.000001
 20
      110.314094
 70
  8
  0
VERTEX
  8
LVL0000
 10
      117.000001
 20
      110.314094
 70
  8
  0
VERTEX
  8
LVL0000
 10
      117.000002
 20
      110.314094
 70
  8
  0
VERTEX
  8
LVL0000
 10
      117.000002
 20
      110.314094
 70
  8
  0
VERTEX
  8
LVL0000
 10
      117.000002
 20
      110.314094
 70
  8
  0
VERTEX
  8
LVL0000
 10
      117.000003
 20
      110.314094
 70
  8
  0
VERTEX
  8
LVL0000
 10
      117.000003
 20
      110.314094
 70
  8
  0
SEQEND
  0
POLYLINE
  8
LVL0000
 62
  3
 66
1
 70
4
 75
6
  0
VERTEX
  8
LVL0000
 10
      117.000003
 20
      110.314094
 70
 16
  0
VERTEX
  8
LVL0000
 10
      117.663781
 20
      110.219830
 70
 16
  0
VERTEX
  8
LVL0000
 10
      118.331629
 20
      110.136709
 70
 16
  0
VERTEX
  8
LVL0000
 10
      119.000003
 20
      110.064806
 70
 16
  0
VERTEX
  8
LVL0000
 10
      117.000003
 20
      110.314094
 70
  8
  0
VERTEX
  8
LVL0000
 10
      117.249103
 20
      110.279267
 70
  8
  0
VERTEX
  8
LVL0000
 10
      117.498544
 20
      110.245486
 70
  8
  0
VERTEX
  8
LVL0000
 10
      117.748283
 20
      110.212752
 70
  8
  0
VERTEX
  8
LVL0000
 10
      117.998279
 20
      110.181065
 70
  8
  0
VERTEX
  8
LVL0000
 10
      118.248491
 20
      110.150426
 70
  8
  0
VERTEX
  8
LVL0000
 10
      118.498876
 20
      110.120835
 70
  8
  0
VERTEX
  8
LVL0000
 10
      118.749394
 20
      110.092295
 70
  8
  0
VERTEX
  8
LVL0000
 10
      119.000003
 20
      110.064806
 70
  8
  0
SEQEND
  0
ENDBLK
  0
BLOCK
  8
0
  2
BLK0004
 70
    64
 10
        0.000000
 20
        0.000000
  0
POLYLINE
  8
LVL0000
 62
  3
 66
1
 70
4
 75
6
  0
VERTEX
  8
LVL0000
 10
      113.000004
 20
      111.105082
 70
 16
  0
VERTEX
  8
LVL0000
 10
      113.642093
 20
      110.943611
 70
 16
  0
VERTEX
  8
LVL0000
 10
      114.329222
 20
      110.780936
 70
 16
  0
VERTEX
  8
LVL0000
 10
      115.000003
 20
      110.647765
 70
 16
  0
VERTEX
  8
LVL0000
 10
      113.000004
 20
      111.105082
 70
  8
  0
VERTEX
  8
LVL0000
 10
      113.242779
 20
      111.044534
 70
  8
  0
VERTEX
  8
LVL0000
 10
      113.489056
 20
      110.984233
 70
  8
  0
VERTEX
  8
LVL0000
 10
      113.738118
 20
      110.924538
 70
  8
  0
VERTEX
  8
LVL0000
 10
      113.989244
 20
      110.865811
 70
  8
  0
VERTEX
  8
LVL0000
 10
      114.241715
 20
      110.808410
 70
  8
  0
VERTEX
  8
LVL0000
 10
      114.494811
 20
      110.752696
 70
  8
  0
VERTEX
  8
LVL0000
 10
      114.747813
 20
      110.699027
 70
  8
  0
VERTEX
  8
LVL0000
 10
      115.000003
 20
      110.647765
 70
  8
  0
SEQEND
  0
POLYLINE
  8
LVL0000
 62
  3
 66
1
 70
4
 75
6
  0
VERTEX
  8
LVL0000
 10
      115.000003
 20
      110.647765
 70
 16
  0
VERTEX
  8
LVL0000
 10
      115.000016
 20
      110.647763
 70
 16
  0
VERTEX
  8
LVL0000
 10
      115.000029
 20
      110.647760
 70
 16
  0
VERTEX
  8
LVL0000
 10
      115.000042
 20
      110.647758
 70
 16
  0
VERTEX
  8
LVL0000
 10
      115.000003
 20
      110.647765
 70
  8
  0
VERTEX
  8
LVL0000
 10
      115.000008
 20
      110.647764
 70
  8
  0
VERTEX
  8
LVL0000
 10
      115.000012
 20
      110.647763
 70
  8
  0
VERTEX
  8
LVL0000
 10
      115.000017
 20
      110.647762
 70
  8
  0
VERTEX
  8
LVL0000
 10
      115.000022
 20
      110.647761
 70
  8
  0
VERTEX
  8
LVL0000
 10
      115.000027
 20
      110.647760
 70
  8
  0
VERTEX
  8
LVL0000
 10
      115.000032
 20
      110.647759
 70
  8
  0
VERTEX
  8
LVL0000
 10
      115.000037
 20
      110.647758
 70
  8
  0
VERTEX
  8
LVL0000
 10
      115.000042
 20
      110.647758
 70
  8
  0
SEQEND
  0
ENDBLK
  0
BLOCK
  8
0
  2
BLK0005
 70
    64
 10
        0.000000
 20
        0.000000
  0
POLYLINE
  8
LVL0000
 62
  3
 66
1
 70
4
 75
6
  0
VERTEX
  8
LVL0000
 10
      111.000053
 20
      114.676907
 70
 16
  0
VERTEX
  8
LVL0000
 10
      111.000037
 20
      114.676899
 70
 16
  0
VERTEX
  8
LVL0000
 10
      111.000022
 20
      114.676892
 70
 16
  0
VERTEX
  8
LVL0000
 10
      111.000003
 20
      114.676882
 70
 16
  0
VERTEX
  8
LVL0000
 10
      111.000053
 20
      114.676907
 70
  8
  0
VERTEX
  8
LVL0000
 10
      111.000047
 20
      114.676904
 70
  8
  0
VERTEX
  8
LVL0000
 10
      111.000041
 20
      114.676901
 70
  8
  0
VERTEX
  8
LVL0000
 10
      111.000035
 20
      114.676898
 70
  8
  0
VERTEX
  8
LVL0000
 10
      111.000029
 20
      114.676895
 70
  8
  0
VERTEX
  8
LVL0000
 10
      111.000023
 20
      114.676892
 70
  8
  0
VERTEX
  8
LVL0000
 10
      111.000016
 20
      114.676889
 70
  8
  0
VERTEX
  8
LVL0000
 10
      111.000010
 20
      114.676885
 70
  8
  0
VERTEX
  8
LVL0000
 10
      111.000003
 20
      114.676882
 70
  8
  0
SEQEND
  0
POLYLINE
  8
LVL0000
 62
  3
 66
1
 70
4
 75
6
  0
VERTEX
  8
LVL0000
 10
      111.000003
 20
      114.676882
 70
 16
  0
VERTEX
  8
LVL0000
 10
      110.296317
 20
      114.322336
 70
 16
  0
VERTEX
  8
LVL0000
 10
      109.500003
 20
      113.780234
 70
 16
  0
VERTEX
  8
LVL0000
 10
      109.500003
 20
      113.238132
 70
 16
  0
VERTEX
  8
LVL0000
 10
      111.000003
 20
      114.676882
 70
  8
  0
VERTEX
  8
LVL0000
 10
      110.733515
 20
      114.535502
 70
  8
  0
VERTEX
  8
LVL0000
 10
      110.468760
 20
      114.378737
 70
  8
  0
VERTEX
  8
LVL0000
 10
      110.216157
 20
      114.208783
 70
  8
  0
VERTEX
  8
LVL0000
 10
      109.986121
 20
      114.027841
 70
  8
  0
VERTEX
  8
LVL0000
 10
      109.789070
 20
      113.838106
 70
  8
  0
VERTEX
  8
LVL0000
 10
      109.635422
 20
      113.641778
 70
  8
  0
VERTEX
  8
LVL0000
 10
      109.535594
 20
      113.441054
 70
  8
  0
VERTEX
  8
LVL0000
 10
      109.500003
 20
      113.238132
 70
  8
  0
SEQEND
  0
POLYLINE
  8
LVL0000
 62
  3
 66
1
 70
4
 75
6
  0
VERTEX
  8
LVL0000
 10
      109.500003
 20
      113.238132
 70
 16
  0
VERTEX
  8
LVL0000
 10
      109.500003
 20
      112.696032
 70
 16
  0
VERTEX
  8
LVL0000
 10
      110.296310
 20
      112.153932
 70
 16
  0
VERTEX
  8
LVL0000
 10
      110.999993
 20
      111.799387
 70
 16
  0
VERTEX
  8
LVL0000
 10
      109.500003
 20
      113.238132
 70
  8
  0
VERTEX
  8
LVL0000
 10
      109.535594
 20
      113.035211
 70
  8
  0
VERTEX
  8
LVL0000
 10
      109.635421
 20
      112.834488
 70
  8
  0
VERTEX
  8
LVL0000
 10
      109.789068
 20
      112.638160
 70
  8
  0
VERTEX
  8
LVL0000
 10
      109.986117
 20
      112.448427
 70
  8
  0
VERTEX
  8
LVL0000
 10
      110.216151
 20
      112.267484
 70
  8
  0
VERTEX
  8
LVL0000
 10
      110.468753
 20
      112.097532
 70
  8
  0
VERTEX
  8
LVL0000
 10
      110.733507
 20
      111.940767
 70
  8
  0
VERTEX
  8
LVL0000
 10
      110.999993
 20
      111.799387
 70
  8
  0
SEQEND
  0
ENDBLK
  0
BLOCK
  8
0
  2
BLK0006
 70
    64
 10
        0.000000
 20
        0.000000
  0
POLYLINE
  8
LVL0000
 62
  3
 66
1
 70
4
 75
6
  0
VERTEX
  8
LVL0000
 10
      114.999963
 20
      115.828491
 70
 16
  0
VERTEX
  8
LVL0000
 10
      114.323522
 20
      115.694195
 70
 16
  0
VERTEX
  8
LVL0000
 10
      113.642081
 20
      115.532650
 70
 16
  0
VERTEX
  8
LVL0000
 10
      113.000005
 20
      115.371183
 70
 16
  0
VERTEX
  8
LVL0000
 10
      114.999963
 20
      115.828491
 70
  8
  0
VERTEX
  8
LVL0000
 10
      114.746150
 20
      115.776906
 70
  8
  0
VERTEX
  8
LVL0000
 10
      114.492388
 20
      115.723087
 70
  8
  0
VERTEX
  8
LVL0000
 10
      114.239197
 20
      115.667354
 70
  8
  0
VERTEX
  8
LVL0000
 10
      113.987097
 20
      115.610026
 70
  8
  0
VERTEX
  8
LVL0000
 10
      113.736608
 20
      115.551425
 70
  8
  0
VERTEX
  8
LVL0000
 10
      113.488250
 20
      115.491871
 70
  8
  0
VERTEX
  8
LVL0000
 10
      113.242542
 20
      115.431683
 70
  8
  0
VERTEX
  8
LVL0000
 10
      113.000005
 20
      115.371183
 70
  8
  0
SEQEND
  0
ENDBLK
  0
BLOCK
  8
0
  2
BLK0007
 70
    64
 10
        0.000000
 20
        0.000000
  0
POLYLINE
  8
LVL0000
 62
  3
 66
1
 70
4
 75
6
  0
VERTEX
  8
LVL0000
 10
      119.000002
 20
      116.411458
 70
 16
  0
VERTEX
  8
LVL0000
 10
      118.331631
 20
      116.339555
 70
 16
  0
VERTEX
  8
LVL0000
 10
      117.663786
 20
      116.256435
 70
 16
  0
VERTEX
  8
LVL0000
 10
      117.000012
 20
      116.162172
 70
 16
  0
VERTEX
  8
LVL0000
 10
      119.000002
 20
      116.411458
 70
  8
  0
VERTEX
  8
LVL0000
 10
      118.749395
 20
      116.383969
 70
  8
  0
VERTEX
  8
LVL0000
 10
      118.498878
 20
      116.355429
 70
  8
  0
VERTEX
  8
LVL0000
 10
      118.248494
 20
      116.325839
 70
  8
  0
VERTEX
  8
LVL0000
 10
      117.998283
 20
      116.295200
 70
  8
  0
VERTEX
  8
LVL0000
 10
      117.748289
 20
      116.263513
 70
  8
  0
VERTEX
  8
LVL0000
 10
      117.498551
 20
      116.230778
 70
  8
  0
VERTEX
  8
LVL0000
 10
      117.249111
 20
      116.196998
 70
  8
  0
VERTEX
  8
LVL0000
 10
      117.000012
 20
      116.162172
 70
  8
  0
SEQEND
  0
ENDBLK
  0
BLOCK
  8
0
  2
BLK0008
 70
    64
 10
        0.000000
 20
        0.000000
  0
POLYLINE
  8
LVL0000
 62
  3
 66
1
 70
4
 75
6
  0
VERTEX
  8
LVL0000
 10
      123.000003
 20
      116.723817
 70
 16
  0
VERTEX
  8
LVL0000
 10
      122.332808
 20
      116.689286
 70
 16
  0
VERTEX
  8
LVL0000
 10
      121.665983
 20
      116.646693
 70
 16
  0
VERTEX
  8
LVL0000
 10
      121.000003
 20
      116.595214
 70
 16
  0
VERTEX
  8
LVL0000
 10
      123.000003
 20
      116.723817
 70
  8
  0
VERTEX
  8
LVL0000
 10
      122.749823
 20
      116.710488
 70
  8
  0
VERTEX
  8
LVL0000
 10
      122.499683
 20
      116.696394
 70
  8
  0
VERTEX
  8
LVL0000
 10
      122.249590
 20
      116.681525
 70
  8
  0
VERTEX
  8
LVL0000
 10
      121.999547
 20
      116.665871
 70
  8
  0
VERTEX
  8
LVL0000
 10
      121.749562
 20
      116.649423
 70
  8
  0
VERTEX
  8
LVL0000
 10
      121.499639
 20
      116.632170
 70
  8
  0
VERTEX
  8
LVL0000
 10
      121.249784
 20
      116.614104
 70
  8
  0
VERTEX
  8
LVL0000
 10
      121.000003
 20
      116.595214
 70
  8
  0
SEQEND
  0
ENDBLK
  0
BLOCK
  8
0
  2
BLK0009
 70
    64
 10
        0.000000
 20
        0.000000
  0
POLYLINE
  8
LVL0000
 62
  3
 66
1
 70
4
 75
6
  0
VERTEX
  8
LVL0000
 10
      127.000013
 20
      116.836743
 70
 16
  0
VERTEX
  8
LVL0000
 10
      127.000010
 20
      116.836743
 70
 16
  0
VERTEX
  8
LVL0000
 10
      127.000006
 20
      116.836743
 70
 16
  0
VERTEX
  8
LVL0000
 10
      127.000003
 20
      116.836743
 70
 16
  0
VERTEX
  8
LVL0000
 10
      127.000013
 20
      116.836743
 70
  8
  0
VERTEX
  8
LVL0000
 10
      127.000012
 20
      116.836743
 70
  8
  0
VERTEX
  8
LVL0000
 10
      127.000011
 20
      116.836743
 70
  8
  0
VERTEX
  8
LVL0000
 10
      127.000009
 20
      116.836743
 70
  8
  0
VERTEX
  8
LVL0000
 10
      127.000008
 20
      116.836743
 70
  8
  0
VERTEX
  8
LVL0000
 10
      127.000007
 20
      116.836743
 70
  8
  0
VERTEX
  8
LVL0000
 10
      127.000005
 20
      116.836743
 70
  8
  0
VERTEX
  8
LVL0000
 10
      127.000004
 20
      116.836743
 70
  8
  0
VERTEX
  8
LVL0000
 10
      127.000003
 20
      116.836743
 70
  8
  0
SEQEND
  0
POLYLINE
  8
LVL0000
 62
  3
 66
1
 70
4
 75
6
  0
VERTEX
  8
LVL0000
 10
      127.000003
 20
      116.836743
 70
 16
  0
VERTEX
  8
LVL0000
 10
      126.333251
 20
      116.832252
 70
 16
  0
VERTEX
  8
LVL0000
 10
      125.666513
 20
      116.821719
 70
 16
  0
VERTEX
  8
LVL0000
 10
      125.000003
 20
      116.803241
 70
 16
  0
VERTEX
  8
LVL0000
 10
      127.000003
 20
      116.836743
 70
  8
  0
VERTEX
  8
LVL0000
 10
      126.749972
 20
      116.834772
 70
  8
  0
VERTEX
  8
LVL0000
 10
      126.499945
 20
      116.832212
 70
  8
  0
VERTEX
  8
LVL0000
 10
      126.249924
 20
      116.829041
 70
  8
  0
VERTEX
  8
LVL0000
 10
      125.999912
 20
      116.825237
 70
  8
  0
VERTEX
  8
LVL0000
 10
      125.749912
 20
      116.820777
 70
  8
  0
VERTEX
  8
LVL0000
 10
      125.499925
 20
      116.815639
 70
  8
  0
VERTEX
  8
LVL0000
 10
      125.249954
 20
      116.809801
 70
  8
  0
VERTEX
  8
LVL0000
 10
      125.000003
 20
      116.803241
 70
  8
  0
SEQEND
  0
ENDBLK
  0
BLOCK
  8
0
  2
BLK0010
 70
    64
 10
        0.000000
 20
        0.000000
  0
TEXT
  8
LVL0000
 10
      113.200005
 20
      -78.380020
 30
        0.000000
 40
        4.000000
  1
１０２．４
 50
        0.000000
 41
        0.835000
 51
        0.000000
  7
BIGFONT
  0
LINE
  8
LVL0000
 10
       72.000000
 20
       -0.033333
 30
        0.000000
 11
       72.000000
 21
      -80.246689
 31
        0.000000
  0
LINE
  8
LVL0000
 10
      174.400009
 20
       54.166668
 30
        0.000000
 11
      174.400009
 21
      -80.246689
 31
        0.000000
  0
LINE
  8
LVL0000
 10
       75.500000
 20
      -78.397057
 30
        0.000000
 11
       72.000000
 21
      -79.313354
 31
        0.000000
  0
LINE
  8
LVL0000
 10
       72.000000
 20
      -79.313354
 30
        0.000000
 11
       75.500000
 21
      -80.229652
 31
        0.000000
  0
LINE
  8
LVL0000
 10
      170.900009
 20
      -80.229652
 30
        0.000000
 11
      174.400009
 21
      -79.313354
 31
        0.000000
  0
LINE
  8
LVL0000
 10
      174.400009
 20
      -79.313354
 30
        0.000000
 11
      170.900009
 21
      -78.397057
 31
        0.000000
  0
LINE
  8
LVL0000
 10
       72.000000
 20
      -79.313354
 30
        0.000000
 11
      174.400009
 21
      -79.313354
 31
        0.000000
  0
ENDBLK
  0
BLOCK
  8
0
  2
BLK0011
 70
    64
 10
        0.000000
 20
        0.000000
  0
TEXT
  8
LVL0000
 10
       -3.917326
 20
      -76.753685
 30
        0.000000
 40
        4.000000
  1
５５
 50
        0.000000
 41
        0.835000
 51
        0.000000
  7
BIGFONT
  0
LINE
  8
LVL0000
 10
      -27.500000
 20
      -65.833336
 30
        0.000000
 11
      -27.500000
 21
      -78.620354
 31
        0.000000
  0
LINE
  8
LVL0000
 10
       27.500000
 20
      -65.833336
 30
        0.000000
 11
       27.500000
 21
      -78.620354
 31
        0.000000
  0
LINE
  8
LVL0000
 10
      -24.000000
 20
      -76.770721
 30
        0.000000
 11
      -27.500000
 21
      -77.687019
 31
        0.000000
  0
LINE
  8
LVL0000
 10
      -27.500000
 20
      -77.687019
 30
        0.000000
 11
      -24.000000
 21
      -78.603317
 31
        0.000000
  0
LINE
  8
LVL0000
 10
       24.000000
 20
      -78.603317
 30
        0.000000
 11
       27.500000
 21
      -77.687019
 31
        0.000000
  0
LINE
  8
LVL0000
 10
       27.500000
 20
      -77.687019
 30
        0.000000
 11
       24.000000
 21
      -76.770721
 31
        0.000000
  0
LINE
  8
LVL0000
 10
      -27.500000
 20
      -77.687019
 30
        0.000000
 11
       27.500000
 21
      -77.687019
 31
        0.000000
  0
ENDBLK
  0
BLOCK
  8
0
  2
BLK0012
 70
    64
 10
        0.000000
 20
        0.000000
  0
TEXT
  8
LVL0000
 10
       39.812336
 20
       -6.367106
 30
        0.000000
 40
        4.000000
  1
１３０
 50
       90.000000
 41
        0.835000
 51
        0.000000
  7
BIGFONT
  0
LINE
  8
LVL0000
 10
       28.333334
 20
      -65.000000
 30
        0.000000
 11
       41.679001
 21
      -65.000000
 31
        0.000000
  0
LINE
  8
LVL0000
 10
       28.333334
 20
       65.000000
 30
        0.000000
 11
       41.679001
 21
       65.000000
 31
        0.000000
  0
LINE
  8
LVL0000
 10
       39.829369
 20
      -61.500000
 30
        0.000000
 11
       40.745667
 21
      -65.000000
 31
        0.000000
  0
LINE
  8
LVL0000
 10
       40.745667
 20
      -65.000000
 30
        0.000000
 11
       41.661964
 21
      -61.500000
 31
        0.000000
  0
LINE
  8
LVL0000
 10
       41.661964
 20
       61.500000
 30
        0.000000
 11
       40.745667
 21
       65.000000
 31
        0.000000
  0
LINE
  8
LVL0000
 10
       40.745667
 20
       65.000000
 30
        0.000000
 11
       39.829369
 21
       61.500000
 31
        0.000000
  0
LINE
  8
LVL0000
 10
       40.745667
 20
      -65.000000
 30
        0.000000
 11
       40.745667
 21
       65.000000
 31
        0.000000
  0
ENDBLK
  0
ENDSEC
  0
SECTION
  2
ENTITIES
  0
TEXT
  8
LVL0000
 10
      -11.698114
 20
      123.849040
 30
        0.000000
 40
        5.000000
  1
ＪＷ３０３ＰＵ
 50
        0.000000
 41
        0.835000
 51
        0.000000
  7
BIGFONT
  0
LINE
  8
LVL0000
 62
  3
 10
       -6.000000
 20
       -0.550000
 30
        0.000000
 11
        6.500000
 21
       -0.550000
 31
        0.000000
  0
LINE
  8
LVL0000
 62
  3
 10
       -6.000000
 20
      -61.550000
 30
        0.000000
 11
        6.500000
 21
      -61.550000
 31
        0.000000
  0
LINE
  8
LVL0000
 62
  3
 10
        6.500000
 20
        1.000000
 30
        0.000000
 11
        6.500000
 21
      -65.000000
 31
        0.000000
  0
LINE
  8
LVL0000
  6
CENTER
 62
  3
 10
      -80.000000
 20
       70.508420
 30
        0.000000
 11
      -80.000000
 21
      -73.055383
 31
        0.000000
  0
LINE
  8
LVL0000
  6
CENTER
 62
  3
 10
      -49.175544
 20
        0.000000
 30
        0.000000
 11
     -110.795007
 21
        0.000000
 31
        0.000000
  0
LINE
  8
LVL0000
 62
  3
 10
      -86.000000
 20
       -0.550000
 30
        0.000000
 11
      -86.000000
 21
      -61.550000
 31
        0.000000
  0
LINE
  8
LVL0000
 62
  3
 10
     -107.500000
 20
       64.500000
 30
        0.000000
 11
     -107.500000
 21
      -64.500000
 31
        0.000000
  0
LINE
  8
LVL0000
 62
  3
 10
      -72.300000
 20
      -61.150000
 30
        0.000000
 11
      -55.300000
 21
      -61.150000
 31
        0.000000
  0
LINE
  8
LVL0000
 62
  3
 10
      -57.500000
 20
       -1.850000
 30
        0.000000
 11
      -72.300000
 21
       -1.850000
 31
        0.000000
  0
LINE
  8
LVL0000
 62
  3
 10
      -72.300000
 20
       -0.950000
 30
        0.000000
 11
      -57.500000
 21
       -0.950000
 31
        0.000000
  0
LINE
  8
LVL0000
 62
  3
 10
      -86.000000
 20
      -61.550000
 30
        0.000000
 11
      -55.150000
 21
      -61.550000
 31
        0.000000
  0
LINE
  8
LVL0000
 62
  3
 10
      -67.000000
 20
      -61.550000
 30
        0.000000
 11
      -67.000000
 21
      -62.500000
 31
        0.000000
  0
LINE
  8
LVL0000
 62
  3
 10
      -68.000000
 20
      -61.550000
 30
        0.000000
 11
      -68.000000
 21
      -62.500000
 31
        0.000000
  0
LINE
  8
LVL0000
 62
  3
 10
      -86.000000
 20
       -0.550000
 30
        0.000000
 11
      -57.500000
 21
       -0.550000
 31
        0.000000
  0
LINE
  8
LVL0000
 62
  3
 10
      -64.019615
 20
      -55.619615
 30
        0.000000
 11
      -63.294616
 21
      -56.875351
 31
        0.000000
  0
LINE
  8
LVL0000
 62
  3
 10
      -64.019615
 20
      -46.119615
 30
        0.000000
 11
      -63.294616
 21
      -47.375351
 31
        0.000000
  0
LINE
  8
LVL0000
 62
  3
 10
      -64.019615
 20
      -36.619615
 30
        0.000000
 11
      -63.294616
 21
      -37.875351
 31
        0.000000
  0
LINE
  8
LVL0000
 62
  3
 10
      -64.019615
 20
      -27.119615
 30
        0.000000
 11
      -63.294616
 21
      -28.375351
 31
        0.000000
  0
LINE
  8
LVL0000
 62
  3
 10
      -64.019615
 20
      -17.619615
 30
        0.000000
 11
      -63.294616
 21
      -18.875351
 31
        0.000000
  0
LINE
  8
LVL0000
 62
  3
 10
      -64.019615
 20
      -55.619615
 30
        0.000000
 11
      -66.486218
 21
      -57.043709
 31
        0.000000
  0
LINE
  8
LVL0000
 62
  3
 10
      -64.019615
 20
      -46.119615
 30
        0.000000
 11
      -66.486218
 21
      -47.543709
 31
        0.000000
  0
LINE
  8
LVL0000
 62
  3
 10
      -64.019615
 20
      -36.619615
 30
        0.000000
 11
      -66.486218
 21
      -38.043709
 31
        0.000000
  0
LINE
  8
LVL0000
 62
  3
 10
      -64.019615
 20
      -27.119615
 30
        0.000000
 11
      -66.486218
 21
      -28.543709
 31
        0.000000
  0
LINE
  8
LVL0000
 62
  3
 10
      -64.019615
 20
      -17.619615
 30
        0.000000
 11
      -66.486218
 21
      -19.043709
 31
        0.000000
  0
LINE
  8
LVL0000
 62
  3
 10
      -64.619615
 20
      -54.580385
 30
        0.000000
 11
      -67.086218
 21
      -56.004479
 31
        0.000000
  0
LINE
  8
LVL0000
 62
  3
 10
      -64.619615
 20
      -45.080385
 30
        0.000000
 11
      -67.086218
 21
      -46.504479
 31
        0.000000
  0
LINE
  8
LVL0000
 62
  3
 10
      -64.619615
 20
      -35.580385
 30
        0.000000
 11
      -67.086218
 21
      -37.004479
 31
        0.000000
  0
LINE
  8
LVL0000
 62
  3
 10
      -64.619615
 20
      -26.080385
 30
        0.000000
 11
      -67.086218
 21
      -27.504479
 31
        0.000000
  0
LINE
  8
LVL0000
 62
  3
 10
      -64.619615
 20
      -16.580385
 30
        0.000000
 11
      -67.086218
 21
      -18.004479
 31
        0.000000
  0
LINE
  8
LVL0000
 62
  3
 10
      -65.344615
 20
      -53.324649
 30
        0.000000
 11
      -64.619615
 21
      -54.580385
 31
        0.000000
  0
LINE
  8
LVL0000
 62
  3
 10
      -65.344615
 20
      -43.824649
 30
        0.000000
 11
      -64.619615
 21
      -45.080385
 31
        0.000000
  0
LINE
  8
LVL0000
 62
  3
 10
      -65.344615
 20
      -34.324649
 30
        0.000000
 11
      -64.619615
 21
      -35.580385
 31
        0.000000
  0
LINE
  8
LVL0000
 62
  3
 10
      -65.344615
 20
      -24.824649
 30
        0.000000
 11
      -64.619615
 21
      -26.080385
 31
        0.000000
  0
LINE
  8
LVL0000
 62
  3
 10
      -65.344615
 20
      -15.324649
 30
        0.000000
 11
      -64.619615
 21
      -16.580385
 31
        0.000000
  0
LINE
  8
LVL0000
 62
  3
 10
      -65.344615
 20
      -53.324649
 30
        0.000000
 11
      -64.305384
 21
      -52.724649
 31
        0.000000
  0
LINE
  8
LVL0000
 62
  3
 10
      -65.344615
 20
      -43.824649
 30
        0.000000
 11
      -64.305384
 21
      -43.224649
 31
        0.000000
  0
LINE
  8
LVL0000
 62
  3
 10
      -65.344615
 20
      -34.324649
 30
        0.000000
 11
      -64.305384
 21
      -33.724649
 31
        0.000000
  0
LINE
  8
LVL0000
 62
  3
 10
      -65.344615
 20
      -24.824649
 30
        0.000000
 11
      -64.305384
 21
      -24.224649
 31
        0.000000
  0
LINE
  8
LVL0000
 62
  3
 10
      -65.344615
 20
      -15.324649
 30
        0.000000
 11
      -64.305384
 21
      -14.724649
 31
        0.000000
  0
LINE
  8
LVL0000
 62
  3
 10
      -64.305384
 20
      -52.724649
 30
        0.000000
 11
      -63.580385
 21
      -53.980385
 31
        0.000000
  0
LINE
  8
LVL0000
 62
  3
 10
      -64.305384
 20
      -43.224649
 30
        0.000000
 11
      -63.580385
 21
      -44.480385
 31
        0.000000
  0
LINE
  8
LVL0000
 62
  3
 10
      -64.305384
 20
      -33.724649
 30
        0.000000
 11
      -63.580385
 21
      -34.980385
 31
        0.000000
  0
LINE
  8
LVL0000
 62
  3
 10
      -64.305384
 20
      -24.224649
 30
        0.000000
 11
      -63.580385
 21
      -25.480385
 31
        0.000000
  0
LINE
  8
LVL0000
 62
  3
 10
      -64.305384
 20
      -14.724649
 30
        0.000000
 11
      -63.580385
 21
      -15.980385
 31
        0.000000
  0
LINE
  8
LVL0000
 62
  3
 10
      -61.113782
 20
      -52.556291
 30
        0.000000
 11
      -63.580385
 21
      -53.980385
 31
        0.000000
  0
LINE
  8
LVL0000
 62
  3
 10
      -61.113782
 20
      -43.056291
 30
        0.000000
 11
      -63.580385
 21
      -44.480385
 31
        0.000000
  0
LINE
  8
LVL0000
 62
  3
 10
      -61.113782
 20
      -33.556291
 30
        0.000000
 11
      -63.580385
 21
      -34.980385
 31
        0.000000
  0
LINE
  8
LVL0000
 62
  3
 10
      -61.113782
 20
      -24.056291
 30
        0.000000
 11
      -63.580385
 21
      -25.480385
 31
        0.000000
  0
LINE
  8
LVL0000
 62
  3
 10
      -61.113782
 20
      -14.556291
 30
        0.000000
 11
      -63.580385
 21
      -15.980385
 31
        0.000000
  0
LINE
  8
LVL0000
 62
  3
 10
      -60.513782
 20
      -53.595521
 30
        0.000000
 11
      -62.980385
 21
      -55.019615
 31
        0.000000
  0
LINE
  8
LVL0000
 62
  3
 10
      -60.513782
 20
      -44.095521
 30
        0.000000
 11
      -62.980385
 21
      -45.519615
 31
        0.000000
  0
LINE
  8
LVL0000
 62
  3
 10
      -60.513782
 20
      -34.595521
 30
        0.000000
 11
      -62.980385
 21
      -36.019615
 31
        0.000000
  0
LINE
  8
LVL0000
 62
  3
 10
      -60.513782
 20
      -25.095521
 30
        0.000000
 11
      -62.980385
 21
      -26.519615
 31
        0.000000
  0
LINE
  8
LVL0000
 62
  3
 10
      -60.513782
 20
      -15.595521
 30
        0.000000
 11
      -62.980385
 21
      -17.019615
 31
        0.000000
  0
LINE
  8
LVL0000
 62
  3
 10
      -62.980385
 20
      -55.019615
 30
        0.000000
 11
      -62.255385
 21
      -56.275351
 31
        0.000000
  0
LINE
  8
LVL0000
 62
  3
 10
      -62.980385
 20
      -45.519615
 30
        0.000000
 11
      -62.255385
 21
      -46.775351
 31
        0.000000
  0
LINE
  8
LVL0000
 62
  3
 10
      -62.980385
 20
      -36.019615
 30
        0.000000
 11
      -62.255385
 21
      -37.275351
 31
        0.000000
  0
LINE
  8
LVL0000
 62
  3
 10
      -62.980385
 20
      -26.519615
 30
        0.000000
 11
      -62.255385
 21
      -27.775351
 31
        0.000000
  0
LINE
  8
LVL0000
 62
  3
 10
      -62.980385
 20
      -17.019615
 30
        0.000000
 11
      -62.255385
 21
      -18.275351
 31
        0.000000
  0
LINE
  8
LVL0000
 62
  3
 10
      -63.294616
 20
      -56.875351
 30
        0.000000
 11
      -62.255385
 21
      -56.275351
 31
        0.000000
  0
LINE
  8
LVL0000
 62
  3
 10
      -63.294616
 20
      -47.375351
 30
        0.000000
 11
      -62.255385
 21
      -46.775351
 31
        0.000000
  0
LINE
  8
LVL0000
 62
  3
 10
      -63.294616
 20
      -37.875351
 30
        0.000000
 11
      -62.255385
 21
      -37.275351
 31
        0.000000
  0
LINE
  8
LVL0000
 62
  3
 10
      -63.294616
 20
      -28.375351
 30
        0.000000
 11
      -62.255385
 21
      -27.775351
 31
        0.000000
  0
LINE
  8
LVL0000
 62
  3
 10
      -63.294616
 20
      -18.875351
 30
        0.000000
 11
      -62.255385
 21
      -18.275351
 31
        0.000000
  0
LINE
  8
LVL0000
 62
  3
 10
      -61.113782
 20
       -5.056291
 30
        0.000000
 11
      -63.580385
 21
       -6.480385
 31
        0.000000
  0
LINE
  8
LVL0000
 62
  3
 10
      -64.305384
 20
       -5.224649
 30
        0.000000
 11
      -63.580385
 21
       -6.480385
 31
        0.000000
  0
LINE
  8
LVL0000
 62
  3
 10
      -65.344615
 20
       -5.824649
 30
        0.000000
 11
      -64.305384
 21
       -5.224649
 31
        0.000000
  0
LINE
  8
LVL0000
 62
  3
 10
      -65.344615
 20
       -5.824649
 30
        0.000000
 11
      -64.619615
 21
       -7.080385
 31
        0.000000
  0
LINE
  8
LVL0000
 62
  3
 10
      -64.619615
 20
       -7.080385
 30
        0.000000
 11
      -67.086218
 21
       -8.504479
 31
        0.000000
  0
LINE
  8
LVL0000
 62
  3
 10
      -64.019615
 20
       -8.119615
 30
        0.000000
 11
      -66.486218
 21
       -9.543709
 31
        0.000000
  0
LINE
  8
LVL0000
 62
  3
 10
      -64.019615
 20
       -8.119615
 30
        0.000000
 11
      -63.294616
 21
       -9.375351
 31
        0.000000
  0
LINE
  8
LVL0000
 62
  3
 10
      -63.294616
 20
       -9.375351
 30
        0.000000
 11
      -62.255385
 21
       -8.775351
 31
        0.000000
  0
LINE
  8
LVL0000
 62
  3
 10
      -62.980385
 20
       -7.519615
 30
        0.000000
 11
      -62.255385
 21
       -8.775351
 31
        0.000000
  0
LINE
  8
LVL0000
 62
  3
 10
      -60.513782
 20
       -6.095521
 30
        0.000000
 11
      -62.980385
 21
       -7.519615
 31
        0.000000
  0
ARC
  8
LVL0000
 62
  3
 10
      -56.500000
 20
      -59.500000
 30
        0.000000
 40
        1.000000
 50
      179.999995
 51
      270.000000
  0
LINE
  8
LVL0000
 62
  3
 10
      -52.500000
 20
      -60.500000
 30
        0.000000
 11
      -56.500000
 21
      -60.500000
 31
        0.000000
  0
LINE
  8
LVL0000
 62
  3
 10
      -55.150000
 20
      -60.500000
 30
        0.000000
 11
      -55.150000
 21
      -62.500000
 31
        0.000000
  0
LINE
  8
LVL0000
 62
  3
 10
      -72.300000
 20
       -0.550000
 30
        0.000000
 11
      -72.300000
 21
      -61.550000
 31
        0.000000
  0
LINE
  8
LVL0000
 62
  3
 10
      -55.300000
 20
      -60.500000
 30
        0.000000
 11
      -55.300000
 21
      -61.150000
 31
        0.000000
  0
LINE
  8
LVL0000
 62
  3
 10
      -57.161438
 20
      -60.250000
 30
        0.000000
 11
      -72.300000
 21
      -60.250000
 31
        0.000000
  0
LINE
  8
LVL0000
 62
  3
 10
      -72.300000
 20
      -12.750000
 30
        0.000000
 11
      -57.500000
 21
      -12.750000
 31
        0.000000
  0
LINE
  8
LVL0000
 62
  3
 10
      -72.300000
 20
      -11.350000
 30
        0.000000
 11
      -57.500000
 21
      -11.350000
 31
        0.000000
  0
LINE
  8
LVL0000
 62
  3
 10
      -72.300000
 20
       -3.250000
 30
        0.000000
 11
      -57.500000
 21
       -3.250000
 31
        0.000000
  0
LINE
  8
LVL0000
 62
  3
 10
      -72.300000
 20
      -50.750000
 30
        0.000000
 11
      -57.500000
 21
      -50.750000
 31
        0.000000
  0
LINE
  8
LVL0000
 62
  3
 10
      -72.300000
 20
      -49.350000
 30
        0.000000
 11
      -57.500000
 21
      -49.350000
 31
        0.000000
  0
LINE
  8
LVL0000
 62
  3
 10
      -72.300000
 20
      -41.250000
 30
        0.000000
 11
      -57.500000
 21
      -41.250000
 31
        0.000000
  0
LINE
  8
LVL0000
 62
  3
 10
      -72.300000
 20
      -39.850000
 30
        0.000000
 11
      -57.500000
 21
      -39.850000
 31
        0.000000
  0
LINE
  8
LVL0000
 62
  3
 10
      -72.300000
 20
      -31.750000
 30
        0.000000
 11
      -57.500000
 21
      -31.750000
 31
        0.000000
  0
LINE
  8
LVL0000
 62
  3
 10
      -72.300000
 20
      -30.350000
 30
        0.000000
 11
      -57.500000
 21
      -30.350000
 31
        0.000000
  0
LINE
  8
LVL0000
 62
  3
 10
      -72.300000
 20
      -22.250000
 30
        0.000000
 11
      -57.500000
 21
      -22.250000
 31
        0.000000
  0
LINE
  8
LVL0000
 62
  3
 10
      -72.300000
 20
      -20.850000
 30
        0.000000
 11
      -57.500000
 21
      -20.850000
 31
        0.000000
  0
LINE
  8
LVL0000
 62
  3
 10
      -72.300000
 20
      -58.850000
 30
        0.000000
 11
      -57.500000
 21
      -58.850000
 31
        0.000000
  0
CIRCLE
  8
LVL0000
 62
  3
 10
      -63.800000
 20
      -16.800000
 30
        0.000000
 40
        3.500000
  0
CIRCLE
  8
LVL0000
 62
  3
 10
      -63.800000
 20
      -26.300000
 30
        0.000000
 40
        3.500000
  0
CIRCLE
  8
LVL0000
 62
  3
 10
      -63.800000
 20
      -35.800000
 30
        0.000000
 40
        3.500000
  0
CIRCLE
  8
LVL0000
 62
  3
 10
      -63.800000
 20
      -45.300000
 30
        0.000000
 40
        3.500000
  0
CIRCLE
  8
LVL0000
 62
  3
 10
      -63.800000
 20
      -54.800000
 30
        0.000000
 40
        3.500000
  0
LINE
  8
LVL0000
 62
  3
 10
      -67.850000
 20
       -3.250000
 30
        0.000000
 11
      -67.850000
 21
      -11.350000
 31
        0.000000
  0
LINE
  8
LVL0000
 62
  3
 10
      -59.750000
 20
       -3.250000
 30
        0.000000
 11
      -59.750000
 21
      -11.350000
 31
        0.000000
  0
LINE
  8
LVL0000
 62
  3
 10
      -59.750000
 20
      -12.750000
 30
        0.000000
 11
      -59.750000
 21
      -20.850000
 31
        0.000000
  0
LINE
  8
LVL0000
 62
  3
 10
      -67.850000
 20
      -12.750000
 30
        0.000000
 11
      -67.850000
 21
      -20.850000
 31
        0.000000
  0
LINE
  8
LVL0000
 62
  3
 10
      -59.750000
 20
      -22.250000
 30
        0.000000
 11
      -59.750000
 21
      -30.350000
 31
        0.000000
  0
LINE
  8
LVL0000
 62
  3
 10
      -67.850000
 20
      -22.250000
 30
        0.000000
 11
      -67.850000
 21
      -30.350000
 31
        0.000000
  0
LINE
  8
LVL0000
 62
  3
 10
      -59.750000
 20
      -31.750000
 30
        0.000000
 11
      -59.750000
 21
      -39.850000
 31
        0.000000
  0
LINE
  8
LVL0000
 62
  3
 10
      -67.850000
 20
      -31.750000
 30
        0.000000
 11
      -67.850000
 21
      -39.850000
 31
        0.000000
  0
LINE
  8
LVL0000
 62
  3
 10
      -59.750000
 20
      -41.250000
 30
        0.000000
 11
      -59.750000
 21
      -49.350000
 31
        0.000000
  0
LINE
  8
LVL0000
 62
  3
 10
      -59.750000
 20
      -50.750000
 30
        0.000000
 11
      -59.750000
 21
      -58.850000
 31
        0.000000
  0
LINE
  8
LVL0000
 62
  3
 10
      -67.850000
 20
      -41.250000
 30
        0.000000
 11
      -67.850000
 21
      -49.350000
 31
        0.000000
  0
LINE
  8
LVL0000
 62
  3
 10
      -67.850000
 20
      -50.750000
 30
        0.000000
 11
      -67.850000
 21
      -58.850000
 31
        0.000000
  0
CIRCLE
  8
LVL0000
 62
  3
 10
      -63.800000
 20
       -7.300000
 30
        0.000000
 40
        3.500000
  0
LINE
  8
LVL0000
 62
  3
 10
      -57.500000
 20
        1.000000
 30
        0.000000
 11
      -57.500000
 21
      -59.500000
 31
        0.000000
  0
ARC
  8
LVL0000
 62
  3
 10
      -53.000000
 20
      -64.500000
 30
        0.000000
 40
        0.500000
 50
      270.000000
 51
      360.000000
  0
LINE
  8
LVL0000
 62
  3
 10
      -52.500000
 20
       64.500000
 30
        0.000000
 11
      -52.500000
 21
      -64.500000
 31
        0.000000
  0
LINE
  8
LVL0000
 62
  3
 10
      -87.500000
 20
       64.500000
 30
        0.000000
 11
      -87.500000
 21
        1.000000
 31
        0.000000
  0
LINE
  8
LVL0000
 62
  3
 10
      -87.500000
 20
       38.000000
 30
        0.000000
 11
      -52.500000
 21
       38.000000
 31
        0.000000
  0
LINE
  8
LVL0000
 62
  3
 10
      -87.500000
 20
       39.000000
 30
        0.000000
 11
      -52.500000
 21
       39.000000
 31
        0.000000
  0
LINE
  8
LVL0000
 62
  3
 10
      -86.100006
 20
       63.500000
 30
        0.000000
 11
      -53.899994
 21
       63.500000
 31
        0.000000
  0
LINE
  8
LVL0000
 62
  3
 10
      -53.899994
 20
       58.000000
 30
        0.000000
 11
      -53.899994
 21
       63.500000
 31
        0.000000
  0
LINE
  8
LVL0000
 62
  3
 10
      -86.100006
 20
       58.000000
 30
        0.000000
 11
      -53.899994
 21
       58.000000
 31
        0.000000
  0
LINE
  8
LVL0000
 62
  3
 10
      -86.100006
 20
       58.000000
 30
        0.000000
 11
      -86.100006
 21
       63.500000
 31
        0.000000
  0
LINE
  8
LVL0000
 62
  3
 10
      -52.500000
 20
       57.000000
 30
        0.000000
 11
      -87.500000
 21
       57.000000
 31
        0.000000
  0
ARC
  8
LVL0000
 62
  3
 10
     -107.000000
 20
      -64.500000
 30
        0.000000
 40
        0.500000
 50
      179.999995
 51
      270.000000
  0
LINE
  8
LVL0000
 62
  3
 10
      -72.000000
 20
      -62.500000
 30
        0.000000
 11
      -72.000000
 21
      -62.900000
 31
        0.000000
  0
LINE
  8
LVL0000
 62
  3
 10
      -68.500000
 20
      -62.900000
 30
        0.000000
 11
      -72.000000
 21
      -62.900000
 31
        0.000000
  0
LINE
  8
LVL0000
 62
  3
 10
      -59.000000
 20
      -62.500000
 30
        0.000000
 11
      -59.000000
 21
      -62.900000
 31
        0.000000
  0
LINE
  8
LVL0000
 62
  3
 10
      -55.500000
 20
      -62.500000
 30
        0.000000
 11
      -55.500000
 21
      -62.900000
 31
        0.000000
  0
LINE
  8
LVL0000
 62
  3
 10
      -68.500000
 20
      -62.500000
 30
        0.000000
 11
      -68.500000
 21
      -62.900000
 31
        0.000000
  0
LINE
  8
LVL0000
 62
  3
 10
      -55.500000
 20
      -62.900000
 30
        0.000000
 11
      -59.000000
 21
      -62.900000
 31
        0.000000
  0
LINE
  8
LVL0000
 62
  3
 10
      -68.000000
 20
      -63.700000
 30
        0.000000
 11
      -68.000000
 21
      -65.000000
 31
        0.000000
  0
LINE
  8
LVL0000
 62
  3
 10
      -58.000000
 20
      -63.700000
 30
        0.000000
 11
      -68.000000
 21
      -63.700000
 31
        0.000000
  0
LINE
  8
LVL0000
 62
  3
 10
      -58.000000
 20
      -63.700000
 30
        0.000000
 11
      -58.000000
 21
      -65.000000
 31
        0.000000
  0
LINE
  8
LVL0000
 62
  3
 10
      -53.000000
 20
      -65.000000
 30
        0.000000
 11
     -107.000000
 21
      -65.000000
 31
        0.000000
  0
ARC
  8
LVL0000
 62
  3
 10
      -73.200000
 20
      -64.700000
 30
        0.000000
 40
        0.300000
 50
      179.999995
 51
      270.000000
  0
LINE
  8
LVL0000
 62
  3
 10
      -73.500000
 20
      -62.800000
 30
        0.000000
 11
      -73.500000
 21
      -64.700000
 31
        0.000000
  0
LINE
  8
LVL0000
 62
  3
 10
      -55.150000
 20
      -62.500000
 30
        0.000000
 11
      -73.200000
 21
      -62.500000
 31
        0.000000
  0
ARC
  8
LVL0000
 62
  3
 10
      -73.200000
 20
      -62.800000
 30
        0.000000
 40
        0.300000
 50
       90.000000
 51
      179.999995
  0
CIRCLE
  8
LVL0000
 62
  3
 10
      -64.500000
 20
       52.500000
 30
        0.000000
 40
        1.500000
  0
CIRCLE
  8
LVL0000
 62
  3
 10
      -64.500000
 20
       47.500000
 30
        0.000000
 40
        1.500000
  0
CIRCLE
  8
LVL0000
 62
  3
 10
      -82.500000
 20
       34.000000
 30
        0.000000
 40
        1.500000
  0
CIRCLE
  8
LVL0000
 62
  3
 10
      -82.500000
 20
       34.000000
 30
        0.000000
 40
        2.250000
  0
ARC
  8
LVL0000
 62
  3
 10
      -53.000000
 20
       64.500000
 30
        0.000000
 40
        0.500000
 50
        0.000000
 51
       90.000000
  0
ARC
  8
LVL0000
 62
  3
 10
      -87.000000
 20
       64.500000
 30
        0.000000
 40
        0.500000
 50
       90.000000
 51
      179.999995
  0
ARC
  8
LVL0000
 62
  3
 10
     -107.000000
 20
       64.500000
 30
        0.000000
 40
        0.500000
 50
       90.000000
 51
      179.999995
  0
LINE
  8
LVL0000
 62
  3
 10
      -53.000000
 20
       65.000000
 30
        0.000000
 11
     -107.000000
 21
       65.000000
 31
        0.000000
  0
LINE
  8
LVL0000
 62
  3
 10
      -52.500000
 20
        1.000000
 30
        0.000000
 11
     -107.500000
 21
        1.000000
 31
        0.000000
  0
LINE
  8
LVL0000
 62
  3
 10
      171.300003
 20
      -60.000000
 30
        0.000000
 11
      171.800003
 21
      -51.500000
 31
        0.000000
  0
LINE
  8
LVL0000
 62
  3
 10
      171.682356
 20
      -53.500000
 30
        0.000000
 11
      175.900003
 21
      -57.500000
 31
        0.000000
  0
LINE
  8
LVL0000
 62
  3
 10
      171.300003
 20
      -60.000000
 30
        0.000000
 11
      173.400003
 21
      -60.000000
 31
        0.000000
  0
LINE
  8
LVL0000
 62
  3
 10
      173.400003
 20
      -61.000000
 30
        0.000000
 11
      174.900003
 21
      -62.000000
 31
        0.000000
  0
LINE
  8
LVL0000
 62
  3
 10
      173.400003
 20
      -60.000000
 30
        0.000000
 11
      173.400003
 21
      -61.000000
 31
        0.000000
  0
LINE
  8
LVL0000
 62
  3
 10
      104.000003
 20
      -49.000000
 30
        0.000000
 11
      105.000003
 21
      -49.000000
 31
        0.000000
  0
LINE
  8
LVL0000
 62
  3
 10
      108.300003
 20
      -51.500000
 30
        0.000000
 11
      110.800003
 21
      -51.500000
 31
        0.000000
  0
LINE
  8
LVL0000
 62
  3
 10
      105.000003
 20
      -49.000000
 30
        0.000000
 11
      105.000003
 21
      -35.000000
 31
        0.000000
  0
LINE
  8
LVL0000
 62
  3
 10
      104.000003
 20
      -35.000000
 30
        0.000000
 11
      105.000003
 21
      -35.000000
 31
        0.000000
  0
LINE
  8
LVL0000
 62
  3
 10
      110.800003
 20
      -51.500000
 30
        0.000000
 11
      110.800003
 21
      -32.500000
 31
        0.000000
  0
LINE
  8
LVL0000
 62
  3
 10
      108.300003
 20
      -32.500000
 30
        0.000000
 11
      110.800003
 21
      -32.500000
 31
        0.000000
  0
LINE
  8
LVL0000
 62
  3
 10
      104.000003
 20
       38.000000
 30
        0.000000
 11
      105.000003
 21
       38.000000
 31
        0.000000
  0
LINE
  8
LVL0000
 62
  3
 10
      108.300003
 20
       40.500000
 30
        0.000000
 11
      110.800003
 21
       40.500000
 31
        0.000000
  0
LINE
  8
LVL0000
 62
  3
 10
      167.500003
 20
       98.238132
 30
        0.000000
 11
      169.900003
 21
       98.238132
 31
        0.000000
  0
LINE
  8
LVL0000
 62
  3
 10
      169.900003
 20
      150.738132
 30
        0.000000
 11
      169.900003
 21
       95.738132
 31
        0.000000
  0
LINE
  8
LVL0000
 62
  3
 10
      167.500003
 20
      150.738132
 30
        0.000000
 11
      167.500003
 21
       95.738132
 31
        0.000000
  0
LINE
  8
LVL0000
 62
  3
 10
      173.200003
 20
      148.738132
 30
        0.000000
 11
      174.400003
 21
      148.738132
 31
        0.000000
  0
LINE
  8
LVL0000
 62
  3
 10
      173.200003
 20
      136.738132
 30
        0.000000
 11
      174.400003
 21
      136.738132
 31
        0.000000
  0
LINE
  8
LVL0000
 62
  3
 10
      173.200003
 20
      148.738132
 30
        0.000000
 11
      173.200003
 21
      136.738132
 31
        0.000000
  0
LINE
  8
LVL0000
 62
  3
 10
      174.400003
 20
      136.738132
 30
        0.000000
 11
      174.400003
 21
       96.738132
 31
        0.000000
  0
LINE
  8
LVL0000
 62
  3
 10
      104.000003
 20
      150.738132
 30
        0.000000
 11
      173.900003
 21
      150.738132
 31
        0.000000
  0
LINE
  8
LVL0000
 62
  3
 10
      174.400003
 20
      150.238132
 30
        0.000000
 11
      174.400003
 21
      148.738132
 31
        0.000000
  0
ARC
  8
LVL0000
 62
  3
 10
      173.900003
 20
      150.238132
 30
        0.000000
 40
        0.500000
 50
        0.000000
 51
       90.000000
  0
LINE
  8
LVL0000
 62
  3
 10
      167.500003
 20
      148.248309
 30
        0.000000
 11
      168.200003
 21
      148.245212
 31
        0.000000
  0
LINE
  8
LVL0000
 62
  3
 10
      169.900003
 20
      148.738132
 30
        0.000000
 11
      168.200003
 21
      148.738132
 31
        0.000000
  0
LINE
  8
LVL0000
 62
  3
 10
      168.200003
 20
      148.738132
 30
        0.000000
 11
      168.200003
 21
      136.738132
 31
        0.000000
  0
LINE
  8
LVL0000
 62
  3
 10
      169.900003
 20
      136.738132
 30
        0.000000
 11
      168.200003
 21
      136.738132
 31
        0.000000
  0
INSERT
  8
LVL0000
  2
BLK0001
 10
        0.000000
 20
        0.000000
  0
INSERT
  8
LVL0000
  2
BLK0002
 10
        0.000000
 20
        0.000000
  0
INSERT
  8
LVL0000
  2
BLK0003
 10
        0.000000
 20
        0.000000
  0
INSERT
  8
LVL0000
  2
BLK0004
 10
        0.000000
 20
        0.000000
  0
INSERT
  8
LVL0000
  2
BLK0005
 10
        0.000000
 20
        0.000000
  0
INSERT
  8
LVL0000
  2
BLK0006
 10
        0.000000
 20
        0.000000
  0
INSERT
  8
LVL0000
  2
BLK0007
 10
        0.000000
 20
        0.000000
  0
INSERT
  8
LVL0000
  2
BLK0008
 10
        0.000000
 20
        0.000000
  0
INSERT
  8
LVL0000
  2
BLK0009
 10
        0.000000
 20
        0.000000
  0
ARC
  8
LVL0000
 62
  3
 10
      174.900003
 20
      123.388132
 30
        0.000000
 40
        1.000000
 50
        0.000000
 51
       90.000000
  0
LINE
  8
LVL0000
 62
  3
 10
      104.000003
 20
      150.838132
 30
        0.000000
 11
      108.300003
 21
      150.838132
 31
        0.000000
  0
LINE
  8
LVL0000
 62
  3
 10
      108.300003
 20
      150.838132
 30
        0.000000
 11
      108.300003
 21
      150.738132
 31
        0.000000
  0
LINE
  8
LVL0000
 62
  3
 10
      108.300003
 20
       95.738132
 30
        0.000000
 11
      108.300003
 21
       95.638132
 31
        0.000000
  0
LINE
  8
LVL0000
 62
  3
 10
      104.000003
 20
       95.638132
 30
        0.000000
 11
      108.300003
 21
       95.638132
 31
        0.000000
  0
LINE
  8
LVL0000
 62
  3
 10
      104.000003
 20
      150.838132
 30
        0.000000
 11
      104.000003
 21
       95.638132
 31
        0.000000
  0
LINE
  8
LVL0000
 62
  3
 10
      167.500003
 20
      125.238132
 30
        0.000000
 11
      169.900003
 21
      125.238132
 31
        0.000000
  0
LINE
  8
LVL0000
 62
  3
 10
      167.500003
 20
      121.238132
 30
        0.000000
 11
      169.900003
 21
      121.238132
 31
        0.000000
  0
ARC
  8
LVL0000
 62
  3
 10
      173.400003
 20
       96.738132
 30
        0.000000
 40
        1.000000
 50
      270.000000
 51
      360.000000
  0
LINE
  8
LVL0000
 62
  3
 10
      104.000003
 20
       95.738132
 30
        0.000000
 11
      173.400003
 21
       95.738132
 31
        0.000000
  0
LINE
  8
LVL0000
 62
  3
 10
      174.400003
 20
      100.338132
 30
        0.000000
 11
      179.400003
 21
      100.338132
 31
        0.000000
  0
LINE
  8
LVL0000
 62
  3
 10
      174.400003
 20
      104.338132
 30
        0.000000
 11
      179.400003
 21
      104.338132
 31
        0.000000
  0
LINE
  8
LVL0000
 62
  3
 10
      175.900003
 20
      123.388132
 30
        0.000000
 11
      175.900003
 21
      104.338132
 31
        0.000000
  0
ARC
  8
LVL0000
 62
  3
 10
      179.400003
 20
      102.338132
 30
        0.000000
 40
        2.000000
 50
      270.000000
 51
      360.000000
  0
ARC
  8
LVL0000
 62
  3
 10
      179.400003
 20
      102.338132
 30
        0.000000
 40
        2.000000
 50
        0.000000
 51
       90.000000
  0
LINE
  8
LVL0000
 62
  3
 10
      111.000003
 20
      121.238132
 30
        0.000000
 11
      113.000003
 21
      121.238132
 31
        0.000000
  0
LINE
  8
LVL0000
 62
  3
 10
      111.000003
 20
      125.238132
 30
        0.000000
 11
      113.000003
 21
      125.238132
 31
        0.000000
  0
LINE
  8
LVL0000
 62
  3
 10
      115.000003
 20
      125.238132
 30
        0.000000
 11
      117.000003
 21
      125.238132
 31
        0.000000
  0
LINE
  8
LVL0000
 62
  3
 10
      115.000003
 20
      121.238132
 30
        0.000000
 11
      117.000003
 21
      121.238132
 31
        0.000000
  0
LINE
  8
LVL0000
 62
  3
 10
      119.000003
 20
      125.238132
 30
        0.000000
 11
      121.000003
 21
      125.238132
 31
        0.000000
  0
LINE
  8
LVL0000
 62
  3
 10
      119.000003
 20
      121.238132
 30
        0.000000
 11
      121.000003
 21
      121.238132
 31
        0.000000
  0
LINE
  8
LVL0000
 62
  3
 10
      123.000003
 20
      121.238132
 30
        0.000000
 11
      125.000003
 21
      121.238132
 31
        0.000000
  0
LINE
  8
LVL0000
 62
  3
 10
      123.000003
 20
      125.238132
 30
        0.000000
 11
      125.000003
 21
      125.238132
 31
        0.000000
  0
LINE
  8
LVL0000
 62
  3
 10
      127.000003
 20
      125.238132
 30
        0.000000
 11
      129.000003
 21
      125.238132
 31
        0.000000
  0
LINE
  8
LVL0000
 62
  3
 10
      127.000003
 20
      121.238132
 30
        0.000000
 11
      129.000003
 21
      121.238132
 31
        0.000000
  0
LINE
  8
LVL0000
 62
  3
 10
      131.000003
 20
      121.238132
 30
        0.000000
 11
      133.000003
 21
      121.238132
 31
        0.000000
  0
LINE
  8
LVL0000
 62
  3
 10
      131.000003
 20
      125.238132
 30
        0.000000
 11
      133.000003
 21
      125.238132
 31
        0.000000
  0
LINE
  8
LVL0000
 62
  3
 10
      135.000003
 20
      125.238132
 30
        0.000000
 11
      137.000003
 21
      125.238132
 31
        0.000000
  0
LINE
  8
LVL0000
 62
  3
 10
      135.000003
 20
      121.238132
 30
        0.000000
 11
      137.000003
 21
      121.238132
 31
        0.000000
  0
LINE
  8
LVL0000
 62
  3
 10
      139.000003
 20
      121.238132
 30
        0.000000
 11
      141.000003
 21
      121.238132
 31
        0.000000
  0
LINE
  8
LVL0000
 62
  3
 10
      139.000003
 20
      125.238132
 30
        0.000000
 11
      141.000003
 21
      125.238132
 31
        0.000000
  0
LINE
  8
LVL0000
 62
  3
 10
      143.000003
 20
      125.238132
 30
        0.000000
 11
      145.000003
 21
      125.238132
 31
        0.000000
  0
LINE
  8
LVL0000
 62
  3
 10
      143.000003
 20
      121.238132
 30
        0.000000
 11
      145.000003
 21
      121.238132
 31
        0.000000
  0
LINE
  8
LVL0000
 62
  3
 10
      147.000003
 20
      121.238132
 30
        0.000000
 11
      149.000003
 21
      121.238132
 31
        0.000000
  0
LINE
  8
LVL0000
 62
  3
 10
      147.000003
 20
      125.238132
 30
        0.000000
 11
      149.000003
 21
      125.238132
 31
        0.000000
  0
LINE
  8
LVL0000
 62
  3
 10
      151.000003
 20
      125.238132
 30
        0.000000
 11
      153.000003
 21
      125.238132
 31
        0.000000
  0
LINE
  8
LVL0000
 62
  3
 10
      151.000003
 20
      121.238132
 30
        0.000000
 11
      153.000003
 21
      121.238132
 31
        0.000000
  0
LINE
  8
LVL0000
 62
  3
 10
      155.000003
 20
      121.238132
 30
        0.000000
 11
      157.000003
 21
      121.238132
 31
        0.000000
  0
LINE
  8
LVL0000
 62
  3
 10
      155.000003
 20
      125.238132
 30
        0.000000
 11
      157.000003
 21
      125.238132
 31
        0.000000
  0
LINE
  8
LVL0000
 62
  3
 10
      159.000003
 20
      125.238132
 30
        0.000000
 11
      161.000003
 21
      125.238132
 31
        0.000000
  0
LINE
  8
LVL0000
 62
  3
 10
      159.000003
 20
      121.238132
 30
        0.000000
 11
      161.000003
 21
      121.238132
 31
        0.000000
  0
LINE
  8
LVL0000
 62
  3
 10
      163.000003
 20
      121.238132
 30
        0.000000
 11
      165.000003
 21
      121.238132
 31
        0.000000
  0
LINE
  8
LVL0000
 62
  3
 10
      163.000003
 20
      125.238132
 30
        0.000000
 11
      165.000003
 21
      125.238132
 31
        0.000000
  0
LINE
  8
LVL0000
 62
  3
 10
      111.000003
 20
      120.191217
 30
        0.000000
 11
      113.000003
 21
      120.182608
 31
        0.000000
  0
LINE
  8
LVL0000
 62
  3
 10
      111.000003
 20
      126.286079
 30
        0.000000
 11
      113.000003
 21
      126.294877
 31
        0.000000
  0
LINE
  8
LVL0000
 62
  3
 10
      113.000003
 20
      150.738132
 30
        0.000000
 11
      113.000003
 21
       95.738132
 31
        0.000000
  0
LINE
  8
LVL0000
 62
  3
 10
      111.000003
 20
      150.738132
 30
        0.000000
 11
      111.000003
 21
       95.738132
 31
        0.000000
  0
LINE
  8
LVL0000
 62
  3
 10
      111.000003
 20
      141.038132
 30
        0.000000
 11
      113.000003
 21
      141.038132
 31
        0.000000
  0
LINE
  8
LVL0000
 62
  3
 10
      111.000003
 20
      145.038132
 30
        0.000000
 11
      113.000003
 21
      145.038132
 31
        0.000000
  0
LINE
  8
LVL0000
 62
  3
 10
      115.000003
 20
      141.038132
 30
        0.000000
 11
      117.000003
 21
      141.038132
 31
        0.000000
  0
LINE
  8
LVL0000
 62
  3
 10
      115.000003
 20
      145.038132
 30
        0.000000
 11
      117.000003
 21
      145.038132
 31
        0.000000
  0
LINE
  8
LVL0000
 62
  3
 10
      119.000003
 20
      141.038132
 30
        0.000000
 11
      121.000003
 21
      141.038132
 31
        0.000000
  0
LINE
  8
LVL0000
 62
  3
 10
      119.000003
 20
      145.038132
 30
        0.000000
 11
      121.000003
 21
      145.038132
 31
        0.000000
  0
LINE
  8
LVL0000
 62
  3
 10
      123.000003
 20
      141.038132
 30
        0.000000
 11
      125.000003
 21
      141.038132
 31
        0.000000
  0
LINE
  8
LVL0000
 62
  3
 10
      123.000003
 20
      145.038132
 30
        0.000000
 11
      125.000003
 21
      145.038132
 31
        0.000000
  0
LINE
  8
LVL0000
 62
  3
 10
      127.000003
 20
      141.038132
 30
        0.000000
 11
      129.000003
 21
      141.038132
 31
        0.000000
  0
LINE
  8
LVL0000
 62
  3
 10
      127.000003
 20
      145.038132
 30
        0.000000
 11
      129.000003
 21
      145.038132
 31
        0.000000
  0
LINE
  8
LVL0000
 62
  3
 10
      131.000003
 20
      141.038132
 30
        0.000000
 11
      133.000003
 21
      141.038132
 31
        0.000000
  0
LINE
  8
LVL0000
 62
  3
 10
      131.000003
 20
      145.038132
 30
        0.000000
 11
      133.000003
 21
      145.038132
 31
        0.000000
  0
LINE
  8
LVL0000
 62
  3
 10
      135.000003
 20
      141.038132
 30
        0.000000
 11
      137.000003
 21
      141.038132
 31
        0.000000
  0
LINE
  8
LVL0000
 62
  3
 10
      135.000003
 20
      145.038132
 30
        0.000000
 11
      137.000003
 21
      145.038132
 31
        0.000000
  0
LINE
  8
LVL0000
 62
  3
 10
      139.000003
 20
      141.038132
 30
        0.000000
 11
      141.000003
 21
      141.038132
 31
        0.000000
  0
LINE
  8
LVL0000
 62
  3
 10
      139.000003
 20
      145.038132
 30
        0.000000
 11
      141.000003
 21
      145.038132
 31
        0.000000
  0
LINE
  8
LVL0000
 62
  3
 10
      143.000003
 20
      141.038132
 30
        0.000000
 11
      145.000003
 21
      141.038132
 31
        0.000000
  0
LINE
  8
LVL0000
 62
  3
 10
      143.000003
 20
      145.038132
 30
        0.000000
 11
      145.000003
 21
      145.038132
 31
        0.000000
  0
LINE
  8
LVL0000
 62
  3
 10
      147.000003
 20
      141.038132
 30
        0.000000
 11
      149.000003
 21
      141.038132
 31
        0.000000
  0
LINE
  8
LVL0000
 62
  3
 10
      147.000003
 20
      145.038132
 30
        0.000000
 11
      149.000003
 21
      145.038132
 31
        0.000000
  0
LINE
  8
LVL0000
 62
  3
 10
      151.000003
 20
      141.038132
 30
        0.000000
 11
      153.000003
 21
      141.038132
 31
        0.000000
  0
LINE
  8
LVL0000
 62
  3
 10
      151.000003
 20
      145.038132
 30
        0.000000
 11
      153.000003
 21
      145.038132
 31
        0.000000
  0
LINE
  8
LVL0000
 62
  3
 10
      155.000003
 20
      141.038132
 30
        0.000000
 11
      157.000003
 21
      141.038132
 31
        0.000000
  0
LINE
  8
LVL0000
 62
  3
 10
      155.000003
 20
      145.038132
 30
        0.000000
 11
      157.000003
 21
      145.038132
 31
        0.000000
  0
LINE
  8
LVL0000
 62
  3
 10
      159.000003
 20
      141.038132
 30
        0.000000
 11
      161.000003
 21
      141.038132
 31
        0.000000
  0
LINE
  8
LVL0000
 62
  3
 10
      159.000003
 20
      145.038132
 30
        0.000000
 11
      161.000003
 21
      145.038132
 31
        0.000000
  0
LINE
  8
LVL0000
 62
  3
 10
      163.000003
 20
      141.038132
 30
        0.000000
 11
      165.000003
 21
      141.038132
 31
        0.000000
  0
LINE
  8
LVL0000
 62
  3
 10
      163.000003
 20
      145.038132
 30
        0.000000
 11
      165.000003
 21
      145.038132
 31
        0.000000
  0
LINE
  8
LVL0000
 62
  3
 10
      141.000003
 20
      116.838132
 30
        0.000000
 11
      143.000003
 21
      116.838132
 31
        0.000000
  0
LINE
  8
LVL0000
 62
  3
 10
      141.000003
 20
      109.638132
 30
        0.000000
 11
      143.000003
 21
      109.638132
 31
        0.000000
  0
LINE
  8
LVL0000
 62
  3
 10
      137.000003
 20
      116.838132
 30
        0.000000
 11
      139.000003
 21
      116.838132
 31
        0.000000
  0
LINE
  8
LVL0000
 62
  3
 10
      137.000003
 20
      109.638132
 30
        0.000000
 11
      139.000003
 21
      109.638132
 31
        0.000000
  0
LINE
  8
LVL0000
 62
  3
 10
      115.000003
 20
      126.303674
 30
        0.000000
 11
      117.000003
 21
      126.312472
 31
        0.000000
  0
LINE
  8
LVL0000
 62
  3
 10
      115.000003
 20
      120.174000
 30
        0.000000
 11
      117.000003
 21
      120.165392
 31
        0.000000
  0
LINE
  8
LVL0000
 62
  3
 10
      119.000003
 20
      120.156783
 30
        0.000000
 11
      121.000003
 21
      120.148175
 31
        0.000000
  0
LINE
  8
LVL0000
 62
  3
 10
      119.000003
 20
      126.321270
 30
        0.000000
 11
      121.000003
 21
      126.330067
 31
        0.000000
  0
LINE
  8
LVL0000
 62
  3
 10
      123.000003
 20
      126.338865
 30
        0.000000
 11
      125.000003
 21
      126.347663
 31
        0.000000
  0
LINE
  8
LVL0000
 62
  3
 10
      123.000003
 20
      120.139567
 30
        0.000000
 11
      125.000003
 21
      120.130958
 31
        0.000000
  0
LINE
  8
LVL0000
 62
  3
 10
      127.000003
 20
      120.122350
 30
        0.000000
 11
      129.000003
 21
      120.113742
 31
        0.000000
  0
LINE
  8
LVL0000
 62
  3
 10
      127.000003
 20
      126.356460
 30
        0.000000
 11
      129.000003
 21
      126.365258
 31
        0.000000
  0
LINE
  8
LVL0000
 62
  3
 10
      131.000003
 20
      126.374056
 30
        0.000000
 11
      133.000003
 21
      126.382853
 31
        0.000000
  0
LINE
  8
LVL0000
 62
  3
 10
      131.000003
 20
      120.105133
 30
        0.000000
 11
      133.000003
 21
      120.096525
 31
        0.000000
  0
LINE
  8
LVL0000
 62
  3
 10
      133.000003
 20
      116.838132
 30
        0.000000
 11
      135.000003
 21
      116.838132
 31
        0.000000
  0
LINE
  8
LVL0000
 62
  3
 10
      133.000003
 20
      109.638132
 30
        0.000000
 11
      135.000003
 21
      109.638132
 31
        0.000000
  0
LINE
  8
LVL0000
 62
  3
 10
      135.000003
 20
      120.087917
 30
        0.000000
 11
      137.000003
 21
      120.079308
 31
        0.000000
  0
LINE
  8
LVL0000
 62
  3
 10
      135.000003
 20
      126.391651
 30
        0.000000
 11
      137.000003
 21
      126.400449
 31
        0.000000
  0
LINE
  8
LVL0000
 62
  3
 10
      139.000003
 20
      126.409246
 30
        0.000000
 11
      141.000003
 21
      126.418044
 31
        0.000000
  0
LINE
  8
LVL0000
 62
  3
 10
      139.000003
 20
      120.070700
 30
        0.000000
 11
      141.000003
 21
      120.062092
 31
        0.000000
  0
LINE
  8
LVL0000
 62
  3
 10
      143.000003
 20
      120.053483
 30
        0.000000
 11
      145.000003
 21
      120.044875
 31
        0.000000
  0
LINE
  8
LVL0000
 62
  3
 10
      143.000003
 20
      126.426842
 30
        0.000000
 11
      145.000003
 21
      126.435639
 31
        0.000000
  0
LINE
  8
LVL0000
 62
  3
 10
      147.000003
 20
      126.444437
 30
        0.000000
 11
      149.000003
 21
      126.453235
 31
        0.000000
  0
LINE
  8
LVL0000
 62
  3
 10
      147.000003
 20
      120.036267
 30
        0.000000
 11
      149.000003
 21
      120.027659
 31
        0.000000
  0
LINE
  8
LVL0000
 62
  3
 10
      151.000003
 20
      120.019050
 30
        0.000000
 11
      153.000003
 21
      120.010442
 31
        0.000000
  0
LINE
  8
LVL0000
 62
  3
 10
      151.000003
 20
      126.462032
 30
        0.000000
 11
      153.000003
 21
      126.470830
 31
        0.000000
  0
LINE
  8
LVL0000
 62
  3
 10
      155.000003
 20
      126.479628
 30
        0.000000
 11
      157.000003
 21
      126.488425
 31
        0.000000
  0
LINE
  8
LVL0000
 62
  3
 10
      155.000003
 20
      120.001834
 30
        0.000000
 11
      157.000003
 21
      119.993225
 31
        0.000000
  0
LINE
  8
LVL0000
 62
  3
 10
      163.000003
 20
      148.268220
 30
        0.000000
 11
      165.000003
 21
      148.259371
 31
        0.000000
  0
LINE
  8
LVL0000
 62
  3
 10
      163.000003
 20
      119.967400
 30
        0.000000
 11
      165.000003
 21
      119.958792
 31
        0.000000
  0
LINE
  8
LVL0000
 62
  3
 10
      163.000003
 20
      126.514818
 30
        0.000000
 11
      165.000003
 21
      126.523616
 31
        0.000000
  0
LINE
  8
LVL0000
 62
  3
 10
      159.000003
 20
      126.497223
 30
        0.000000
 11
      161.000003
 21
      126.506021
 31
        0.000000
  0
LINE
  8
LVL0000
 62
  3
 10
      159.000003
 20
      119.984617
 30
        0.000000
 11
      161.000003
 21
      119.976009
 31
        0.000000
  0
LINE
  8
LVL0000
 62
  3
 10
      159.000003
 20
      148.285920
 30
        0.000000
 11
      161.000003
 21
      148.277070
 31
        0.000000
  0
LINE
  8
LVL0000
 62
  3
 10
      155.000003
 20
      148.303619
 30
        0.000000
 11
      157.000003
 21
      148.294769
 31
        0.000000
  0
LINE
  8
LVL0000
 62
  3
 10
      151.000003
 20
      148.321318
 30
        0.000000
 11
      153.000003
 21
      148.312468
 31
        0.000000
  0
LINE
  8
LVL0000
 62
  3
 10
      147.000003
 20
      148.339017
 30
        0.000000
 11
      149.000003
 21
      148.330167
 31
        0.000000
  0
LINE
  8
LVL0000
 62
  3
 10
      143.000003
 20
      148.356716
 30
        0.000000
 11
      145.000003
 21
      148.347866
 31
        0.000000
  0
LINE
  8
LVL0000
 62
  3
 10
      139.000003
 20
      148.374415
 30
        0.000000
 11
      141.000003
 21
      148.365566
 31
        0.000000
  0
LINE
  8
LVL0000
 62
  3
 10
      135.000003
 20
      148.392114
 30
        0.000000
 11
      137.000003
 21
      148.383265
 31
        0.000000
  0
LINE
  8
LVL0000
 62
  3
 10
      131.000003
 20
      148.409813
 30
        0.000000
 11
      133.000003
 21
      148.400964
 31
        0.000000
  0
LINE
  8
LVL0000
 62
  3
 10
      127.000003
 20
      148.427512
 30
        0.000000
 11
      129.000003
 21
      148.418663
 31
        0.000000
  0
LINE
  8
LVL0000
 62
  3
 10
      123.000003
 20
      148.445212
 30
        0.000000
 11
      125.000003
 21
      148.436362
 31
        0.000000
  0
LINE
  8
LVL0000
 62
  3
 10
      119.000003
 20
      148.462911
 30
        0.000000
 11
      121.000003
 21
      148.454061
 31
        0.000000
  0
LINE
  8
LVL0000
 62
  3
 10
      115.000003
 20
      148.480610
 30
        0.000000
 11
      117.000003
 21
      148.471760
 31
        0.000000
  0
LINE
  8
LVL0000
 62
  3
 10
      111.000003
 20
      148.498309
 30
        0.000000
 11
      113.000003
 21
      148.489459
 31
        0.000000
  0
LINE
  8
LVL0000
 62
  3
 10
      163.000003
 20
       98.208043
 30
        0.000000
 11
      164.989035
 21
       98.216844
 31
        0.000000
  0
LINE
  8
LVL0000
 62
  3
 10
      159.000003
 20
       98.190344
 30
        0.000000
 11
      161.000003
 21
       98.199194
 31
        0.000000
  0
LINE
  8
LVL0000
 62
  3
 10
      155.000003
 20
       98.172645
 30
        0.000000
 11
      157.000003
 21
       98.181495
 31
        0.000000
  0
LINE
  8
LVL0000
 62
  3
 10
      151.000003
 20
       98.154946
 30
        0.000000
 11
      153.000003
 21
       98.163796
 31
        0.000000
  0
LINE
  8
LVL0000
 62
  3
 10
      147.000003
 20
       98.137247
 30
        0.000000
 11
      149.000003
 21
       98.146097
 31
        0.000000
  0
LINE
  8
LVL0000
 62
  3
 10
      143.000003
 20
       98.119548
 30
        0.000000
 11
      145.000003
 21
       98.128397
 31
        0.000000
  0
LINE
  8
LVL0000
 62
  3
 10
      139.000003
 20
       98.101849
 30
        0.000000
 11
      141.000003
 21
       98.110698
 31
        0.000000
  0
LINE
  8
LVL0000
 62
  3
 10
      135.000003
 20
       98.084150
 30
        0.000000
 11
      137.000003
 21
       98.092999
 31
        0.000000
  0
LINE
  8
LVL0000
 62
  3
 10
      131.000003
 20
       98.066451
 30
        0.000000
 11
      133.000003
 21
       98.075300
 31
        0.000000
  0
LINE
  8
LVL0000
 62
  3
 10
      127.000003
 20
       98.048751
 30
        0.000000
 11
      129.000003
 21
       98.057601
 31
        0.000000
  0
LINE
  8
LVL0000
 62
  3
 10
      123.000003
 20
       98.031052
 30
        0.000000
 11
      125.000003
 21
       98.039902
 31
        0.000000
  0
LINE
  8
LVL0000
 62
  3
 10
      119.000003
 20
       98.013353
 30
        0.000000
 11
      121.000003
 21
       98.022203
 31
        0.000000
  0
LINE
  8
LVL0000
 62
  3
 10
      115.000003
 20
       97.995654
 30
        0.000000
 11
      117.000003
 21
       98.004504
 31
        0.000000
  0
LINE
  8
LVL0000
 62
  3
 10
      111.000003
 20
       97.977955
 30
        0.000000
 11
      113.000003
 21
       97.986805
 31
        0.000000
  0
LINE
  8
LVL0000
 62
  3
 10
      174.400003
 20
      124.388132
 30
        0.000000
 11
      174.900003
 21
      124.388132
 31
        0.000000
  0
LINE
  8
LVL0000
 62
  3
 10
      163.000003
 20
      105.438132
 30
        0.000000
 11
      165.000003
 21
      105.438132
 31
        0.000000
  0
LINE
  8
LVL0000
 62
  3
 10
      163.000003
 20
      101.438132
 30
        0.000000
 11
      165.000003
 21
      101.438132
 31
        0.000000
  0
LINE
  8
LVL0000
 62
  3
 10
      159.000003
 20
      105.438132
 30
        0.000000
 11
      161.000003
 21
      105.438132
 31
        0.000000
  0
LINE
  8
LVL0000
 62
  3
 10
      159.000003
 20
      101.438132
 30
        0.000000
 11
      161.000003
 21
      101.438132
 31
        0.000000
  0
LINE
  8
LVL0000
 62
  3
 10
      155.000003
 20
      105.438132
 30
        0.000000
 11
      157.000003
 21
      105.438132
 31
        0.000000
  0
LINE
  8
LVL0000
 62
  3
 10
      155.000003
 20
      101.438132
 30
        0.000000
 11
      157.000003
 21
      101.438132
 31
        0.000000
  0
LINE
  8
LVL0000
 62
  3
 10
      151.000003
 20
      105.438132
 30
        0.000000
 11
      153.000003
 21
      105.438132
 31
        0.000000
  0
LINE
  8
LVL0000
 62
  3
 10
      151.000003
 20
      101.438132
 30
        0.000000
 11
      153.000003
 21
      101.438132
 31
        0.000000
  0
LINE
  8
LVL0000
 62
  3
 10
      147.000003
 20
      105.438132
 30
        0.000000
 11
      149.000003
 21
      105.438132
 31
        0.000000
  0
LINE
  8
LVL0000
 62
  3
 10
      147.000003
 20
      101.438132
 30
        0.000000
 11
      149.000003
 21
      101.438132
 31
        0.000000
  0
LINE
  8
LVL0000
 62
  3
 10
      143.000003
 20
      105.438132
 30
        0.000000
 11
      145.000003
 21
      105.438132
 31
        0.000000
  0
LINE
  8
LVL0000
 62
  3
 10
      143.000003
 20
      101.438132
 30
        0.000000
 11
      145.000003
 21
      101.438132
 31
        0.000000
  0
LINE
  8
LVL0000
 62
  3
 10
      139.000003
 20
      105.438132
 30
        0.000000
 11
      141.000003
 21
      105.438132
 31
        0.000000
  0
LINE
  8
LVL0000
 62
  3
 10
      139.000003
 20
      101.438132
 30
        0.000000
 11
      141.000003
 21
      101.438132
 31
        0.000000
  0
LINE
  8
LVL0000
 62
  3
 10
      135.000003
 20
      105.438132
 30
        0.000000
 11
      137.000003
 21
      105.438132
 31
        0.000000
  0
LINE
  8
LVL0000
 62
  3
 10
      135.000003
 20
      101.438132
 30
        0.000000
 11
      137.000003
 21
      101.438132
 31
        0.000000
  0
LINE
  8
LVL0000
 62
  3
 10
      131.000003
 20
      105.438132
 30
        0.000000
 11
      133.000003
 21
      105.438132
 31
        0.000000
  0
LINE
  8
LVL0000
 62
  3
 10
      131.000003
 20
      101.438132
 30
        0.000000
 11
      133.000003
 21
      101.438132
 31
        0.000000
  0
LINE
  8
LVL0000
 62
  3
 10
      127.000003
 20
      105.438132
 30
        0.000000
 11
      129.000003
 21
      105.438132
 31
        0.000000
  0
LINE
  8
LVL0000
 62
  3
 10
      127.000003
 20
      101.438132
 30
        0.000000
 11
      129.000003
 21
      101.438132
 31
        0.000000
  0
LINE
  8
LVL0000
 62
  3
 10
      123.000003
 20
      105.438132
 30
        0.000000
 11
      125.000003
 21
      105.438132
 31
        0.000000
  0
LINE
  8
LVL0000
 62
  3
 10
      123.000003
 20
      101.438132
 30
        0.000000
 11
      125.000003
 21
      101.438132
 31
        0.000000
  0
LINE
  8
LVL0000
 62
  3
 10
      119.000003
 20
      105.438132
 30
        0.000000
 11
      121.000003
 21
      105.438132
 31
        0.000000
  0
LINE
  8
LVL0000
 62
  3
 10
      119.000003
 20
      101.438132
 30
        0.000000
 11
      121.000003
 21
      101.438132
 31
        0.000000
  0
LINE
  8
LVL0000
 62
  3
 10
      115.000003
 20
      105.438132
 30
        0.000000
 11
      117.000003
 21
      105.438132
 31
        0.000000
  0
LINE
  8
LVL0000
 62
  3
 10
      115.000003
 20
      101.438132
 30
        0.000000
 11
      117.000003
 21
      101.438132
 31
        0.000000
  0
LINE
  8
LVL0000
 62
  3
 10
      111.000003
 20
      105.438132
 30
        0.000000
 11
      113.000003
 21
      105.438132
 31
        0.000000
  0
LINE
  8
LVL0000
 62
  3
 10
      111.000003
 20
      101.438132
 30
        0.000000
 11
      113.000003
 21
      101.438132
 31
        0.000000
  0
LINE
  8
LVL0000
 62
  3
 10
      129.000003
 20
      116.838132
 30
        0.000000
 11
      131.000003
 21
      116.838132
 31
        0.000000
  0
LINE
  8
LVL0000
 62
  3
 10
      129.000003
 20
      109.638132
 30
        0.000000
 11
      131.000003
 21
      109.638132
 31
        0.000000
  0
LINE
  8
LVL0000
 62
  3
 10
      145.000003
 20
      109.638132
 30
        0.000000
 11
      147.000003
 21
      109.638132
 31
        0.000000
  0
LINE
  8
LVL0000
 62
  3
 10
      145.000003
 20
      116.838132
 30
        0.000000
 11
      147.000003
 21
      116.838132
 31
        0.000000
  0
LINE
  8
LVL0000
 62
  3
 10
      149.000003
 20
      116.838132
 30
        0.000000
 11
      151.000003
 21
      116.838132
 31
        0.000000
  0
LINE
  8
LVL0000
 62
  3
 10
      149.000003
 20
      109.638132
 30
        0.000000
 11
      151.000003
 21
      109.638132
 31
        0.000000
  0
LINE
  8
LVL0000
 62
  3
 10
      153.000003
 20
      109.638132
 30
        0.000000
 11
      155.000003
 21
      109.638132
 31
        0.000000
  0
LINE
  8
LVL0000
 62
  3
 10
      153.000003
 20
      116.838132
 30
        0.000000
 11
      155.000003
 21
      116.838132
 31
        0.000000
  0
LINE
  8
LVL0000
 62
  3
 10
      157.000003
 20
      116.838132
 30
        0.000000
 11
      159.000003
 21
      116.838132
 31
        0.000000
  0
LINE
  8
LVL0000
 62
  3
 10
      157.000003
 20
      109.638132
 30
        0.000000
 11
      159.000003
 21
      109.638132
 31
        0.000000
  0
LINE
  8
LVL0000
 62
  3
 10
      161.000003
 20
      109.638132
 30
        0.000000
 11
      163.000003
 21
      109.638132
 31
        0.000000
  0
LINE
  8
LVL0000
 62
  3
 10
      161.000003
 20
      116.838132
 30
        0.000000
 11
      163.000003
 21
      116.838132
 31
        0.000000
  0
LINE
  8
LVL0000
 62
  3
 10
      174.400003
 20
      108.488132
 30
        0.000000
 11
      175.900003
 21
      108.488132
 31
        0.000000
  0
LINE
  8
LVL0000
 62
  3
 10
      174.400003
 20
      110.988132
 30
        0.000000
 11
      175.900003
 21
      110.988132
 31
        0.000000
  0
LINE
  8
LVL0000
 62
  3
 10
      174.400003
 20
      104.588132
 30
        0.000000
 11
      175.900003
 21
      104.588132
 31
        0.000000
  0
LINE
  8
LVL0000
 62
  3
 10
      174.400003
 20
      117.988132
 30
        0.000000
 11
      175.900003
 21
      117.988132
 31
        0.000000
  0
LINE
  8
LVL0000
 62
  3
 10
      174.400003
 20
      115.488132
 30
        0.000000
 11
      175.900003
 21
      115.488132
 31
        0.000000
  0
LINE
  8
LVL0000
 62
  3
 10
      174.400003
 20
      121.888132
 30
        0.000000
 11
      175.900003
 21
      121.888132
 31
        0.000000
  0
LINE
  8
LVL0000
 62
  3
 10
      163.000003
 20
      150.738132
 30
        0.000000
 11
      163.000003
 21
       95.738132
 31
        0.000000
  0
LINE
  8
LVL0000
 62
  3
 10
      161.000003
 20
      150.738132
 30
        0.000000
 11
      161.000003
 21
       95.738132
 31
        0.000000
  0
LINE
  8
LVL0000
 62
  3
 10
      159.000003
 20
      150.738132
 30
        0.000000
 11
      159.000003
 21
       95.738132
 31
        0.000000
  0
LINE
  8
LVL0000
 62
  3
 10
      157.000003
 20
      150.738132
 30
        0.000000
 11
      157.000003
 21
       95.738132
 31
        0.000000
  0
LINE
  8
LVL0000
 62
  3
 10
      155.000003
 20
      150.738132
 30
        0.000000
 11
      155.000003
 21
       95.738132
 31
        0.000000
  0
LINE
  8
LVL0000
 62
  3
 10
      153.000003
 20
      150.738132
 30
        0.000000
 11
      153.000003
 21
       95.738132
 31
        0.000000
  0
LINE
  8
LVL0000
 62
  3
 10
      151.000003
 20
      150.738132
 30
        0.000000
 11
      151.000003
 21
       95.738132
 31
        0.000000
  0
LINE
  8
LVL0000
 62
  3
 10
      149.000003
 20
      150.738132
 30
        0.000000
 11
      149.000003
 21
       95.738132
 31
        0.000000
  0
LINE
  8
LVL0000
 62
  3
 10
      147.000003
 20
      150.738132
 30
        0.000000
 11
      147.000003
 21
       95.738132
 31
        0.000000
  0
LINE
  8
LVL0000
 62
  3
 10
      145.000003
 20
      150.738132
 30
        0.000000
 11
      145.000003
 21
       95.738132
 31
        0.000000
  0
LINE
  8
LVL0000
 62
  3
 10
      143.000003
 20
      150.738132
 30
        0.000000
 11
      143.000003
 21
       95.738132
 31
        0.000000
  0
LINE
  8
LVL0000
 62
  3
 10
      141.000003
 20
      150.738132
 30
        0.000000
 11
      141.000003
 21
       95.738132
 31
        0.000000
  0
LINE
  8
LVL0000
 62
  3
 10
      139.000003
 20
      150.738132
 30
        0.000000
 11
      139.000003
 21
       95.738132
 31
        0.000000
  0
LINE
  8
LVL0000
 62
  3
 10
      137.000003
 20
      150.738132
 30
        0.000000
 11
      137.000003
 21
       95.738132
 31
        0.000000
  0
LINE
  8
LVL0000
 62
  3
 10
      135.000003
 20
      150.738132
 30
        0.000000
 11
      135.000003
 21
       95.738132
 31
        0.000000
  0
LINE
  8
LVL0000
 62
  3
 10
      133.000003
 20
      150.738132
 30
        0.000000
 11
      133.000003
 21
       95.738132
 31
        0.000000
  0
LINE
  8
LVL0000
 62
  3
 10
      131.000003
 20
      150.738132
 30
        0.000000
 11
      131.000003
 21
       95.738132
 31
        0.000000
  0
LINE
  8
LVL0000
 62
  3
 10
      129.000003
 20
      150.738132
 30
        0.000000
 11
      129.000003
 21
       95.738132
 31
        0.000000
  0
LINE
  8
LVL0000
 62
  3
 10
      127.000003
 20
      150.738132
 30
        0.000000
 11
      127.000003
 21
       95.738132
 31
        0.000000
  0
LINE
  8
LVL0000
 62
  3
 10
      125.000003
 20
      150.738132
 30
        0.000000
 11
      125.000003
 21
       95.738132
 31
        0.000000
  0
LINE
  8
LVL0000
 62
  3
 10
      123.000003
 20
      150.738132
 30
        0.000000
 11
      123.000003
 21
       95.738132
 31
        0.000000
  0
LINE
  8
LVL0000
 62
  3
 10
      121.000003
 20
      150.738132
 30
        0.000000
 11
      121.000003
 21
       95.738132
 31
        0.000000
  0
LINE
  8
LVL0000
 62
  3
 10
      119.000003
 20
      150.738132
 30
        0.000000
 11
      119.000003
 21
       95.738132
 31
        0.000000
  0
LINE
  8
LVL0000
 62
  3
 10
      117.000003
 20
      150.738132
 30
        0.000000
 11
      117.000003
 21
       95.738132
 31
        0.000000
  0
LINE
  8
LVL0000
 62
  3
 10
      115.000003
 20
      150.738132
 30
        0.000000
 11
      115.000003
 21
       95.738132
 31
        0.000000
  0
LINE
  8
LVL0000
 62
  3
 10
      165.000003
 20
      150.738132
 30
        0.000000
 11
      165.000003
 21
       95.738132
 31
        0.000000
  0
LINE
  8
LVL0000
 62
  3
 10
       98.000003
 20
      150.738132
 30
        0.000000
 11
       98.000003
 21
      128.238132
 31
        0.000000
  0
LINE
  8
LVL0000
 62
  3
 10
      100.000003
 20
      150.738132
 30
        0.000000
 11
      100.000003
 21
      128.238132
 31
        0.000000
  0
LINE
  8
LVL0000
 62
  3
 10
       98.000003
 20
      128.238132
 30
        0.000000
 11
      100.000003
 21
      128.238132
 31
        0.000000
  0
LINE
  8
LVL0000
 62
  3
 10
      100.000003
 20
      118.238132
 30
        0.000000
 11
      100.000003
 21
       95.738132
 31
        0.000000
  0
LINE
  8
LVL0000
 62
  3
 10
       98.000003
 20
      118.238132
 30
        0.000000
 11
       98.000003
 21
       95.738132
 31
        0.000000
  0
LINE
  8
LVL0000
 62
  3
 10
       98.000003
 20
      118.238132
 30
        0.000000
 11
      100.000003
 21
      118.238132
 31
        0.000000
  0
LINE
  8
LVL0000
 62
  3
 10
       94.000003
 20
      148.563581
 30
        0.000000
 11
       96.000003
 21
      148.598491
 31
        0.000000
  0
LINE
  8
LVL0000
 62
  3
 10
       98.000003
 20
      148.233402
 30
        0.000000
 11
      100.000003
 21
      148.268314
 31
        0.000000
  0
LINE
  8
LVL0000
 62
  3
 10
       94.000003
 20
      148.163578
 30
        0.000000
 11
       96.000003
 21
      148.198490
 31
        0.000000
  0
LINE
  8
LVL0000
 62
  3
 10
       96.000003
 20
      150.738132
 30
        0.000000
 11
       96.000003
 21
       95.738132
 31
        0.000000
  0
LINE
  8
LVL0000
 62
  3
 10
       94.000003
 20
      150.738132
 30
        0.000000
 11
       94.000003
 21
       95.738132
 31
        0.000000
  0
LINE
  8
LVL0000
 62
  3
 10
      104.000003
 20
      150.738132
 30
        0.000000
 11
       77.500003
 21
      150.738132
 31
        0.000000
  0
LINE
  8
LVL0000
 62
  3
 10
      100.000003
 20
      145.038132
 30
        0.000000
 11
       98.000003
 21
      145.038132
 31
        0.000000
  0
LINE
  8
LVL0000
 62
  3
 10
      100.000003
 20
      141.038132
 30
        0.000000
 11
       98.000003
 21
      141.038132
 31
        0.000000
  0
LINE
  8
LVL0000
 62
  3
 10
       84.000003
 20
      150.738132
 30
        0.000000
 11
       84.000003
 21
       95.738132
 31
        0.000000
  0
LINE
  8
LVL0000
 62
  3
 10
       86.000003
 20
      150.738132
 30
        0.000000
 11
       86.000003
 21
       95.738132
 31
        0.000000
  0
LINE
  8
LVL0000
 62
  3
 10
       88.000003
 20
      150.738132
 30
        0.000000
 11
       88.000003
 21
       95.738132
 31
        0.000000
  0
LINE
  8
LVL0000
 62
  3
 10
       90.000003
 20
      150.738132
 30
        0.000000
 11
       90.000003
 21
       95.738132
 31
        0.000000
  0
LINE
  8
LVL0000
 62
  3
 10
       92.000003
 20
      150.738132
 30
        0.000000
 11
       92.000003
 21
       95.738132
 31
        0.000000
  0
LINE
  8
LVL0000
 62
  3
 10
       86.000003
 20
      148.023929
 30
        0.000000
 11
       88.000003
 21
      148.058841
 31
        0.000000
  0
LINE
  8
LVL0000
 62
  3
 10
       90.000003
 20
      148.093753
 30
        0.000000
 11
       92.000003
 21
      148.128665
 31
        0.000000
  0
LINE
  8
LVL0000
 62
  3
 10
       90.000003
 20
      148.493761
 30
        0.000000
 11
       92.000003
 21
      148.528671
 31
        0.000000
  0
LINE
  8
LVL0000
 62
  3
 10
       86.000003
 20
      148.423940
 30
        0.000000
 11
       88.000003
 21
      148.458850
 31
        0.000000
  0
LINE
  8
LVL0000
 62
  3
 10
       92.000003
 20
      126.619166
 30
        0.000000
 11
       90.000003
 21
      126.626829
 31
        0.000000
  0
LINE
  8
LVL0000
 62
  3
 10
       92.000003
 20
      119.857097
 30
        0.000000
 11
       90.000003
 21
      119.849435
 31
        0.000000
  0
LINE
  8
LVL0000
 62
  3
 10
       88.000003
 20
      119.841772
 30
        0.000000
 11
       86.000003
 21
      119.834109
 31
        0.000000
  0
LINE
  8
LVL0000
 62
  3
 10
       84.000003
 20
      119.826446
 30
        0.000000
 11
       82.000003
 21
      119.818783
 31
        0.000000
  0
LINE
  8
LVL0000
 62
  3
 10
       88.000003
 20
      126.634492
 30
        0.000000
 11
       86.000003
 21
      126.642155
 31
        0.000000
  0
LINE
  8
LVL0000
 62
  3
 10
       84.000003
 20
      126.649818
 30
        0.000000
 11
       82.000003
 21
      126.657481
 31
        0.000000
  0
LINE
  8
LVL0000
 62
  3
 10
       84.000003
 20
      145.038132
 30
        0.000000
 11
       82.000003
 21
      145.038132
 31
        0.000000
  0
LINE
  8
LVL0000
 62
  3
 10
       84.000003
 20
      141.038132
 30
        0.000000
 11
       82.000003
 21
      141.038132
 31
        0.000000
  0
LINE
  8
LVL0000
 62
  3
 10
       84.000003
 20
      101.438132
 30
        0.000000
 11
       82.000003
 21
      101.438132
 31
        0.000000
  0
LINE
  8
LVL0000
 62
  3
 10
       84.000003
 20
      105.438132
 30
        0.000000
 11
       82.000003
 21
      105.438132
 31
        0.000000
  0
LINE
  8
LVL0000
 62
  3
 10
       88.000003
 20
      105.438132
 30
        0.000000
 11
       86.000003
 21
      105.438132
 31
        0.000000
  0
LINE
  8
LVL0000
 62
  3
 10
       88.000003
 20
      101.438132
 30
        0.000000
 11
       86.000003
 21
      101.438132
 31
        0.000000
  0
LINE
  8
LVL0000
 62
  3
 10
       88.000003
 20
      145.038132
 30
        0.000000
 11
       86.000003
 21
      145.038132
 31
        0.000000
  0
LINE
  8
LVL0000
 62
  3
 10
       88.000003
 20
      141.038132
 30
        0.000000
 11
       86.000003
 21
      141.038132
 31
        0.000000
  0
LINE
  8
LVL0000
 62
  3
 10
       92.000003
 20
      101.438132
 30
        0.000000
 11
       90.000003
 21
      101.438132
 31
        0.000000
  0
LINE
  8
LVL0000
 62
  3
 10
       92.000003
 20
      105.438132
 30
        0.000000
 11
       90.000003
 21
      105.438132
 31
        0.000000
  0
LINE
  8
LVL0000
 62
  3
 10
       92.000003
 20
      145.038132
 30
        0.000000
 11
       90.000003
 21
      145.038132
 31
        0.000000
  0
LINE
  8
LVL0000
 62
  3
 10
       92.000003
 20
      141.038132
 30
        0.000000
 11
       90.000003
 21
      141.038132
 31
        0.000000
  0
LINE
  8
LVL0000
 62
  3
 10
      100.000003
 20
      105.438132
 30
        0.000000
 11
       98.000003
 21
      105.438132
 31
        0.000000
  0
LINE
  8
LVL0000
 62
  3
 10
       96.000003
 20
      105.438132
 30
        0.000000
 11
       94.000003
 21
      105.438132
 31
        0.000000
  0
LINE
  8
LVL0000
 62
  3
 10
      100.000003
 20
      101.438132
 30
        0.000000
 11
       98.000003
 21
      101.438132
 31
        0.000000
  0
LINE
  8
LVL0000
 62
  3
 10
       96.000003
 20
      101.438132
 30
        0.000000
 11
       94.000003
 21
      101.438132
 31
        0.000000
  0
LINE
  8
LVL0000
 62
  3
 10
       82.000003
 20
       98.522159
 30
        0.000000
 11
       84.000003
 21
       98.487247
 31
        0.000000
  0
LINE
  8
LVL0000
 62
  3
 10
       82.000003
 20
      148.354120
 30
        0.000000
 11
       84.000003
 21
      148.389030
 31
        0.000000
  0
LINE
  8
LVL0000
 62
  3
 10
       82.000003
 20
      147.954105
 30
        0.000000
 11
       84.000003
 21
      147.989017
 31
        0.000000
  0
LINE
  8
LVL0000
 62
  3
 10
       98.000003
 20
       97.842862
 30
        0.000000
 11
      100.000003
 21
       97.807952
 31
        0.000000
  0
LINE
  8
LVL0000
 62
  3
 10
       94.000003
 20
       97.912683
 30
        0.000000
 11
       96.000003
 21
       97.877772
 31
        0.000000
  0
LINE
  8
LVL0000
 62
  3
 10
       90.000003
 20
       97.982503
 30
        0.000000
 11
       92.000003
 21
       97.947593
 31
        0.000000
  0
LINE
  8
LVL0000
 62
  3
 10
       82.000003
 20
       98.122143
 30
        0.000000
 11
       84.000003
 21
       98.087233
 31
        0.000000
  0
LINE
  8
LVL0000
 62
  3
 10
       86.000003
 20
       98.052323
 30
        0.000000
 11
       88.000003
 21
       98.017413
 31
        0.000000
  0
LINE
  8
LVL0000
 62
  3
 10
       98.000003
 20
       98.242862
 30
        0.000000
 11
      100.000003
 21
       98.207950
 31
        0.000000
  0
LINE
  8
LVL0000
 62
  3
 10
       94.000003
 20
       98.312686
 30
        0.000000
 11
       96.000003
 21
       98.277774
 31
        0.000000
  0
LINE
  8
LVL0000
 62
  3
 10
       90.000003
 20
       98.382511
 30
        0.000000
 11
       92.000003
 21
       98.347599
 31
        0.000000
  0
LINE
  8
LVL0000
 62
  3
 10
       86.000003
 20
       98.452335
 30
        0.000000
 11
       88.000003
 21
       98.417423
 31
        0.000000
  0
LINE
  8
LVL0000
 62
  3
 10
       72.500003
 20
       95.738132
 30
        0.000000
 11
      104.000003
 21
       95.738132
 31
        0.000000
  0
LINE
  8
LVL0000
 62
  3
 10
       72.000003
 20
      130.238132
 30
        0.000000
 11
       72.000003
 21
       96.238132
 31
        0.000000
  0
ARC
  8
LVL0000
 62
  3
 10
       72.500003
 20
      130.238132
 30
        0.000000
 40
        0.500000
 50
       90.000000
 51
      180.000006
  0
ARC
  8
LVL0000
 62
  3
 10
       72.500003
 20
       96.238132
 30
        0.000000
 40
        0.500000
 50
      180.000006
 51
      270.000000
  0
ARC
  8
LVL0000
 62
  3
 10
       77.500003
 20
      150.238132
 30
        0.000000
 40
        0.500000
 50
       90.000000
 51
      179.999995
  0
LINE
  8
LVL0000
 62
  3
 10
       72.500003
 20
      130.738132
 30
        0.000000
 11
       77.000003
 21
      130.738132
 31
        0.000000
  0
LINE
  8
LVL0000
 62
  3
 10
       77.000003
 20
      150.238132
 30
        0.000000
 11
       77.000003
 21
      130.738132
 31
        0.000000
  0
LINE
  8
LVL0000
 62
  3
 10
       82.000003
 20
      150.738132
 30
        0.000000
 11
       82.000003
 21
       95.738132
 31
        0.000000
  0
LINE
  8
LVL0000
 62
  3
 10
       96.000003
 20
      126.603841
 30
        0.000000
 11
       94.000003
 21
      126.611504
 31
        0.000000
  0
LINE
  8
LVL0000
 62
  3
 10
       96.000003
 20
      141.038132
 30
        0.000000
 11
       94.000003
 21
      141.038132
 31
        0.000000
  0
LINE
  8
LVL0000
 62
  3
 10
       96.000003
 20
      145.038132
 30
        0.000000
 11
       94.000003
 21
      145.038132
 31
        0.000000
  0
LINE
  8
LVL0000
 62
  3
 10
       96.000003
 20
      119.872423
 30
        0.000000
 11
       94.000003
 21
      119.864760
 31
        0.000000
  0
LINE
  8
LVL0000
 62
  3
 10
      100.600003
 20
      123.738132
 30
        0.000000
 11
      101.900003
 21
      123.738132
 31
        0.000000
  0
LINE
  8
LVL0000
 62
  3
 10
      100.600003
 20
      122.738132
 30
        0.000000
 11
      101.900003
 21
      122.738132
 31
        0.000000
  0
LINE
  8
LVL0000
 62
  3
 10
      101.900003
 20
      123.738132
 30
        0.000000
 11
      101.900003
 21
      122.738132
 31
        0.000000
  0
CIRCLE
  8
LVL0000
 62
  3
 10
      100.100003
 20
      123.238132
 30
        0.000000
 40
        2.650000
  0
LINE
  8
LVL0000
 62
  3
 10
       99.600003
 20
      122.738132
 30
        0.000000
 11
       99.600003
 21
      121.438132
 31
        0.000000
  0
LINE
  8
LVL0000
 62
  3
 10
       98.300003
 20
      122.738132
 30
        0.000000
 11
       99.600003
 21
      122.738132
 31
        0.000000
  0
LINE
  8
LVL0000
 62
  3
 10
       99.600003
 20
      125.038132
 30
        0.000000
 11
       99.600003
 21
      123.738132
 31
        0.000000
  0
LINE
  8
LVL0000
 62
  3
 10
       98.300003
 20
      123.738132
 30
        0.000000
 11
       99.600003
 21
      123.738132
 31
        0.000000
  0
LINE
  8
LVL0000
 62
  3
 10
      100.600003
 20
      125.038132
 30
        0.000000
 11
      100.600003
 21
      123.738132
 31
        0.000000
  0
LINE
  8
LVL0000
 62
  3
 10
      100.600003
 20
      122.738132
 30
        0.000000
 11
      100.600003
 21
      121.438132
 31
        0.000000
  0
LINE
  8
LVL0000
 62
  3
 10
       99.600003
 20
      125.038132
 30
        0.000000
 11
      100.600003
 21
      125.038132
 31
        0.000000
  0
LINE
  8
LVL0000
 62
  3
 10
       99.600003
 20
      121.438132
 30
        0.000000
 11
      100.600003
 21
      121.438132
 31
        0.000000
  0
LINE
  8
LVL0000
 62
  3
 10
       98.300003
 20
      123.738132
 30
        0.000000
 11
       98.300003
 21
      122.738132
 31
        0.000000
  0
TEXT
  8
LVL0000
 10
      -11.698114
 20
      116.849040
 30
        0.000000
 40
        5.000000
  1
ＪＷ３３ＰＵ
 50
        0.000000
 41
        0.835000
 51
        0.000000
  7
BIGFONT
  0
LINE
  8
LVL0000
 62
  3
 10
      104.000003
 20
       24.000000
 30
        0.000000
 11
      105.000003
 21
       24.000000
 31
        0.000000
  0
LINE
  8
LVL0000
 62
  3
 10
      105.000003
 20
       24.000000
 30
        0.000000
 11
      105.000003
 21
       38.000000
 31
        0.000000
  0
LINE
  8
LVL0000
 62
  3
 10
      110.800003
 20
       21.500000
 30
        0.000000
 11
      110.800003
 21
       40.500000
 31
        0.000000
  0
LINE
  8
LVL0000
 62
  3
 10
      108.300003
 20
       21.500000
 30
        0.000000
 11
      110.800003
 21
       21.500000
 31
        0.000000
  0
ARC
  8
LVL0000
 62
  3
 10
       74.300003
 20
      -64.700000
 30
        0.000000
 40
        0.300000
 50
      179.999995
 51
      270.000000
  0
LINE
  8
LVL0000
 62
  3
 10
       73.300003
 20
      -60.500000
 30
        0.000000
 11
       74.000003
 21
      -60.500000
 31
        0.000000
  0
LINE
  8
LVL0000
 62
  3
 10
       74.000003
 20
      -64.700000
 30
        0.000000
 11
       74.000003
 21
      -60.500000
 31
        0.000000
  0
LINE
  8
LVL0000
 62
  3
 10
       72.300003
 20
        1.000000
 30
        0.000000
 11
       73.300003
 21
        1.000000
 31
        0.000000
  0
ARC
  8
LVL0000
 62
  3
 10
       72.300003
 20
        1.300000
 30
        0.000000
 40
        0.300000
 50
      179.999995
 51
      270.000000
  0
LINE
  8
LVL0000
 62
  3
 10
       73.300003
 20
      -60.500000
 30
        0.000000
 11
       73.300003
 21
        1.000000
 31
        0.000000
  0
LINE
  8
LVL0000
  6
CENTER
 62
  3
 10
        0.000000
 20
       70.508420
 30
        0.000000
 11
        0.000000
 21
      -73.055383
 31
        0.000000
  0
DIMENSION
  8
LVL0000
 62
  5
  2
BLK0010
 10
       72.000000
 20
      -79.313354
 11
      113.200005
 21
      -78.380020
 13
       72.000000
 23
        1.300000
 14
      174.400009
 24
       55.500000
 50
        0.0
 70
  0
  0
DIMENSION
  8
LVL0000
 62
  5
  2
BLK0011
 10
      -27.500000
 20
      -77.687019
 11
       -3.917326
 21
      -76.753685
 13
      -27.500000
 23
      -64.500000
 14
       27.500000
 24
      -64.500000
 50
        0.0
 70
  0
  0
DIMENSION
  8
LVL0000
 62
  5
  2
BLK0012
 10
       40.745667
 20
      -65.000000
 11
       39.812336
 21
       -6.367106
 13
       27.000000
 23
      -65.000000
 14
       27.000000
 24
       65.000000
 50
       90.0
 70
  0
  0
LINE
  8
LVL0000
 62
  3
 10
      174.400003
 20
       55.500000
 30
        0.000000
 11
      174.400003
 21
       65.000000
 31
        0.000000
  0
LINE
  8
LVL0000
 62
  3
 10
       72.500003
 20
       65.000000
 30
        0.000000
 11
      174.400003
 21
       65.000000
 31
        0.000000
  0
LINE
  8
LVL0000
 62
  3
 10
       72.000003
 20
       57.000000
 30
        0.000000
 11
       72.000003
 21
       64.500000
 31
        0.000000
  0
ARC
  8
LVL0000
  6
CENTER
 62
  3
 10
       72.500003
 20
       64.500000
 30
        0.000000
 40
        0.500000
 50
       90.000000
 51
      179.999995
  0
LINE
  8
LVL0000
 62
  3
 10
      108.300003
 20
       21.500000
 30
        0.000000
 11
      108.300003
 21
       40.500000
 31
        0.000000
  0
LINE
  8
LVL0000
 62
  3
 10
      108.300003
 20
      -51.500000
 30
        0.000000
 11
      108.300003
 21
      -32.500000
 31
        0.000000
  0
LINE
  8
LVL0000
 62
  3
 10
       74.300003
 20
      -65.000000
 30
        0.000000
 11
      169.300003
 21
      -65.000000
 31
        0.000000
  0
LINE
  8
LVL0000
  6
CENTER
 62
  3
 10
       30.824456
 20
        0.000000
 30
        0.000000
 11
      -30.795007
 21
        0.000000
 31
        0.000000
  0
LINE
  8
LVL0000
 62
  3
 10
       -6.000000
 20
       -0.550000
 30
        0.000000
 11
       -6.000000
 21
      -61.550000
 31
        0.000000
  0
LINE
  8
LVL0000
 62
  3
 10
      -27.500000
 20
       64.500000
 30
        0.000000
 11
      -27.500000
 21
      -64.500000
 31
        0.000000
  0
ARC
  8
LVL0000
 62
  3
 10
       27.000000
 20
      -64.500000
 30
        0.000000
 40
        0.500000
 50
      270.000000
 51
      360.000000
  0
LINE
  8
LVL0000
 62
  3
 10
       27.500000
 20
       64.500000
 30
        0.000000
 11
       27.500000
 21
      -64.500000
 31
        0.000000
  0
LINE
  8
LVL0000
 62
  3
 10
       -7.500000
 20
       64.500000
 30
        0.000000
 11
       -7.500000
 21
        1.000000
 31
        0.000000
  0
LINE
  8
LVL0000
 62
  3
 10
       -7.500000
 20
       38.000000
 30
        0.000000
 11
       27.500000
 21
       38.000000
 31
        0.000000
  0
LINE
  8
LVL0000
 62
  3
 10
       -7.500000
 20
       39.000000
 30
        0.000000
 11
       27.500000
 21
       39.000000
 31
        0.000000
  0
LINE
  8
LVL0000
 62
  3
 10
       -6.100006
 20
       63.500000
 30
        0.000000
 11
       26.100006
 21
       63.500000
 31
        0.000000
  0
LINE
  8
LVL0000
 62
  3
 10
       26.100006
 20
       58.000000
 30
        0.000000
 11
       26.100006
 21
       63.500000
 31
        0.000000
  0
LINE
  8
LVL0000
 62
  3
 10
       -6.100006
 20
       58.000000
 30
        0.000000
 11
       26.100006
 21
       58.000000
 31
        0.000000
  0
LINE
  8
LVL0000
 62
  3
 10
       -6.100006
 20
       58.000000
 30
        0.000000
 11
       -6.100006
 21
       63.500000
 31
        0.000000
  0
LINE
  8
LVL0000
 62
  3
 10
       27.500000
 20
       57.000000
 30
        0.000000
 11
       -7.500000
 21
       57.000000
 31
        0.000000
  0
ARC
  8
LVL0000
 62
  3
 10
      -27.000000
 20
      -64.500000
 30
        0.000000
 40
        0.500000
 50
      179.999995
 51
      270.000000
  0
LINE
  8
LVL0000
 62
  3
 10
       27.000000
 20
      -65.000000
 30
        0.000000
 11
      -27.000000
 21
      -65.000000
 31
        0.000000
  0
CIRCLE
  8
LVL0000
 62
  3
 10
       15.500000
 20
       52.500000
 30
        0.000000
 40
        1.500000
  0
CIRCLE
  8
LVL0000
 62
  3
 10
       15.500000
 20
       47.500000
 30
        0.000000
 40
        1.500000
  0
CIRCLE
  8
LVL0000
 62
  3
 10
       -2.500000
 20
       34.000000
 30
        0.000000
 40
        1.500000
  0
CIRCLE
  8
LVL0000
 62
  3
 10
       -2.500000
 20
       34.000000
 30
        0.000000
 40
        2.250000
  0
ARC
  8
LVL0000
 62
  3
 10
       27.000000
 20
       64.500000
 30
        0.000000
 40
        0.500000
 50
        0.000000
 51
       90.000000
  0
ARC
  8
LVL0000
 62
  3
 10
       -7.000000
 20
       64.500000
 30
        0.000000
 40
        0.500000
 50
       90.000000
 51
      179.999995
  0
ARC
  8
LVL0000
 62
  3
 10
      -27.000000
 20
       64.500000
 30
        0.000000
 40
        0.500000
 50
       90.000000
 51
      179.999995
  0
LINE
  8
LVL0000
 62
  3
 10
       27.000000
 20
       65.000000
 30
        0.000000
 11
      -27.000000
 21
       65.000000
 31
        0.000000
  0
LINE
  8
LVL0000
 62
  3
 10
       27.500000
 20
        1.000000
 30
        0.000000
 11
      -27.500000
 21
        1.000000
 31
        0.000000
  0
ARC
  8
LVL0000
 62
  3
 10
       72.500003
 20
       37.500000
 30
        0.000000
 40
        0.500000
 50
       90.000000
 51
      179.999995
  0
LINE
  8
LVL0000
 62
  3
 10
       72.000003
 20
        1.300000
 30
        0.000000
 11
       72.000003
 21
       37.500000
 31
        0.000000
  0
LINE
  8
LVL0000
 62
  3
 10
       72.500003
 20
       38.000000
 30
        0.000000
 11
       75.000003
 21
       38.000000
 31
        0.000000
  0
LINE
  8
LVL0000
 62
  3
 10
       75.000003
 20
       38.000000
 30
        0.000000
 11
       75.000003
 21
       57.000000
 31
        0.000000
  0
LINE
  8
LVL0000
 62
  3
 10
       72.000003
 20
       57.000000
 30
        0.000000
 11
       75.000003
 21
       57.000000
 31
        0.000000
  0
LINE
  8
LVL0000
 62
  3
 10
       75.000008
 20
       39.000000
 30
        0.000000
 11
       73.500008
 21
       39.000000
 31
        0.000000
  0
LINE
  8
LVL0000
 62
  3
 10
       74.000008
 20
       38.000000
 30
        0.000000
 11
       74.000008
 21
       39.000000
 31
        0.000000
  0
LINE
  8
LVL0000
 62
  3
 10
       72.000008
 20
       40.500000
 30
        0.000000
 11
       73.500008
 21
       39.000000
 31
        0.000000
  0
LINE
  8
LVL0000
 62
  3
 10
       72.000008
 20
       40.500000
 30
        0.000000
 11
       72.000008
 21
       57.000000
 31
        0.000000
  0
LINE
  8
LVL0000
 62
  3
 10
      104.000003
 20
       65.000000
 30
        0.000000
 11
      104.000003
 21
      -65.000000
 31
        0.000000
  0
ARC
  8
LVL0000
 62
  3
 10
      179.400003
 20
       58.400000
 30
        0.000000
 40
        2.000000
 50
      270.000000
 51
      450.000000
  0
LINE
  8
LVL0000
 62
  3
 10
      163.500003
 20
      -12.700000
 30
        0.000000
 11
      163.500003
 21
       12.700000
 31
        0.000000
  0
LINE
  8
LVL0000
 62
  3
 10
      113.100003
 20
      -12.700000
 30
        0.000000
 11
      163.500003
 21
      -12.700000
 31
        0.000000
  0
LINE
  8
LVL0000
 62
  3
 10
      113.100003
 20
       12.700000
 30
        0.000000
 11
      163.500003
 21
       12.700000
 31
        0.000000
  0
LINE
  8
LVL0000
 62
  3
 10
      113.100003
 20
      -12.700000
 30
        0.000000
 11
      113.100003
 21
       12.700000
 31
        0.000000
  0
LINE
  8
LVL0000
 62
  3
 10
      175.900003
 20
      -57.500000
 30
        0.000000
 11
      175.900003
 21
      -62.000000
 31
        0.000000
  0
LINE
  8
LVL0000
 62
  3
 10
      174.900003
 20
      -62.000000
 30
        0.000000
 11
      175.900003
 21
      -62.000000
 31
        0.000000
  0
LINE
  8
LVL0000
 62
  3
 10
      171.800003
 20
       55.500000
 30
        0.000000
 11
      174.400003
 21
       55.500000
 31
        0.000000
  0
LINE
  8
LVL0000
 62
  3
 10
      171.800003
 20
      -51.500000
 30
        0.000000
 11
      171.800003
 21
       55.500000
 31
        0.000000
  0
LINE
  8
LVL0000
 62
  3
 10
      174.400003
 20
       60.400000
 30
        0.000000
 11
      179.400003
 21
       60.400000
 31
        0.000000
  0
LINE
  8
LVL0000
 62
  3
 10
      174.400003
 20
       56.400000
 30
        0.000000
 11
      179.400003
 21
       56.400000
 31
        0.000000
  0
LINE
  8
LVL0000
 62
  3
 10
      169.300003
 20
      -65.000000
 30
        0.000000
 11
      171.300003
 21
      -60.000000
 31
        0.000000
  0
ENDSEC
  0
EOF
