  0
SECTION
  2
HEADER
  9
$ACADVER
  1
AC1006
  9
$INSBASE
 10
0.0
 20
0.0
 30
0.0
  9
$EXTMIN
 10
      -70.484238
 20
      -70.484238
  9
$EXTMAX
 10
      194.649994
 20
      155.500000
  9
$LIMMIN
 10
      -70.484238
 20
      -70.484238
  9
$LIMMAX
 10
      194.649994
 20
      155.500000
  9
$VIEWCTR
 10
       62.082878
 20
       62.082878
  9
$ORTHOMODE
 70
     0
  9
$ANGBASE
 50
0.0
  9
$ANGDIR
 70
     0
  9
$SPLINETYPE
 70
     6
  9
$SPLINESEGS
 70
     8
9
$DIMASZ
 40
        3.000000
9
$DIMEXE
 40
        0.666667
9
$DIMEXO
 40
        1.333333
9
$DIMTXT
 40
        4.000000
9
$DIMGAP
 40
        0.666667
9
$DIMTAD
 70
1
9
$DIMTIH
 70
0
9
$DIMTOH
 70
0
  0
ENDSEC
  0
SECTION
  2
TABLES
  0
TABLE
  2
LTYPE
 70
     5
  0
LTYPE
  2
CONTINUOUS
 70
    64
  3
SOLID LINE
 72
    65
 73
     0
 40
0.0
  0
LTYPE
  2
DASHED
 70
    64
  3
-- -- -- -- -- --
 72
    65
 73
     2
 40
  0.75  
 49
  0.50  
 49
 -0.25  
  0
LTYPE
  2
DOT
 70
    64
  3
....................
 72
    65
 73
     2
 40
  0.25  
 49
  0.02  
 49
 -0.23  
  0
LTYPE
  2
CENTER
 70
    64
  3
-- . -- . -- . -- .
 72
    65
 73
    4
 40
  2.00  
 49
  1.25  
 49
 -0.25  
 49
  0.25  
 49
 -0.25  
  0
LTYPE
  2
PHANTOM
 70
    64
  3
-- .. -- .. -- ..
 72
    65
 73
    6
 40
  2.50  
 49
  1.25  
 49
 -0.25  
 49
  0.25  
 49
 -0.25  
 49
  0.25  
 49
 -0.25  
  0
ENDTAB
  0
TABLE
  2
LAYER
 70
     1
  0
LAYER
  2
LVL0000
 70
    64
 62
     3
  6
CENTER
  0
ENDTAB
  0
TABLE
  2
STYLE
 70
     2
  0
STYLE
  2
STANDARD
 70
    64
 40
0.0
 41
1.0
 50
0.0
 71
     0
 42
5.0
  3
ROMANS
  4
BIGFONT
  0
STYLE
  2
BIGFONT
 70
    64
 40
0.0
 41
1.0
 50
0.0
 71
     0
 42
5.0
  3
ROMANS
  4
BIGFONT
  0
ENDTAB
  0
TABLE
  2
VIEW
 70
     0
  0
ENDTAB
  0
TABLE
  2
UCS
 70
     0
  0
ENDTAB
  0
TABLE
  2
DWGMGR
 70
     0
  0
ENDTAB
  0
ENDSEC
  0
SECTION
  2
BLOCKS
  0
BLOCK
  8
0
  2
BLK0001
 70
    64
 10
        0.000000
 20
        0.000000
  0
TEXT
  8
LVL0000
  6
CONTINUOUS
 62
  2
 10
       -8.000000
 20
      -76.898521
 30
        0.000000
 40
        4.000000
  1
７０．５
 50
        0.000000
 41
        0.835000
 51
        0.000000
  7
BIGFONT
  0
LINE
  8
LVL0000
  6
CONTINUOUS
 62
  2
 10
      -35.250000
 20
      -65.833336
 30
        0.000000
 11
      -35.250000
 21
      -78.231857
 31
        0.000000
  0
LINE
  8
LVL0000
  6
CONTINUOUS
 62
  2
 10
       35.250000
 20
      -65.833336
 30
        0.000000
 11
       35.250000
 21
      -78.231857
 31
        0.000000
  0
LINE
  8
LVL0000
  6
CONTINUOUS
 62
  2
 10
      -32.250000
 20
      -76.779793
 30
        0.000000
 11
      -35.250000
 21
      -77.565193
 31
        0.000000
  0
LINE
  8
LVL0000
  6
CONTINUOUS
 62
  2
 10
      -35.250000
 20
      -77.565193
 30
        0.000000
 11
      -32.250000
 21
      -78.350594
 31
        0.000000
  0
LINE
  8
LVL0000
  6
CONTINUOUS
 62
  2
 10
       32.250000
 20
      -78.350594
 30
        0.000000
 11
       35.250000
 21
      -77.565193
 31
        0.000000
  0
LINE
  8
LVL0000
  6
CONTINUOUS
 62
  2
 10
       35.250000
 20
      -77.565193
 30
        0.000000
 11
       32.250000
 21
      -76.779793
 31
        0.000000
  0
LINE
  8
LVL0000
  6
CONTINUOUS
 62
  2
 10
      -35.250000
 20
      -77.565193
 30
        0.000000
 11
       35.250000
 21
      -77.565193
 31
        0.000000
  0
ENDBLK
  0
BLOCK
  8
0
  2
BLK0002
 70
    64
 10
        0.000000
 20
        0.000000
  0
TEXT
  8
LVL0000
  6
CONTINUOUS
 62
  2
 10
      126.449997
 20
      -76.898521
 30
        0.000000
 40
        4.000000
  1
１０２．４
 50
        0.000000
 41
        0.835000
 51
        0.000000
  7
BIGFONT
  0
LINE
  8
LVL0000
  6
CONTINUOUS
 62
  2
 10
      187.649994
 20
       54.166943
 30
        0.000000
 11
      187.649994
 21
      -78.231865
 31
        0.000000
  0
LINE
  8
LVL0000
  6
CONTINUOUS
 62
  2
 10
       85.250000
 20
      -65.333336
 30
        0.000000
 11
       85.250000
 21
      -78.231857
 31
        0.000000
  0
LINE
  8
LVL0000
  6
CONTINUOUS
 62
  2
 10
      184.649994
 20
      -78.350601
 30
        0.000000
 11
      187.649994
 21
      -77.565201
 31
        0.000000
  0
LINE
  8
LVL0000
  6
CONTINUOUS
 62
  2
 10
      187.649994
 20
      -77.565201
 30
        0.000000
 11
      184.649994
 21
      -76.779800
 31
        0.000000
  0
LINE
  8
LVL0000
  6
CONTINUOUS
 62
  2
 10
       88.250000
 20
      -76.779793
 30
        0.000000
 11
       85.250000
 21
      -77.565193
 31
        0.000000
  0
LINE
  8
LVL0000
  6
CONTINUOUS
 62
  2
 10
       85.250000
 20
      -77.565193
 30
        0.000000
 11
       88.250000
 21
      -78.350594
 31
        0.000000
  0
LINE
  8
LVL0000
  6
CONTINUOUS
 62
  2
 10
      187.649994
 20
      -77.565201
 30
        0.000000
 11
       85.250000
 21
      -77.565193
 31
        0.000000
  0
ENDBLK
  0
BLOCK
  8
0
  2
BLK0003
 70
    64
 10
        0.000000
 20
        0.000000
  0
TEXT
  8
LVL0000
  6
CONTINUOUS
 62
  2
 10
       51.990704
 20
       -6.000000
 30
        0.000000
 40
        4.000000
  1
１３０
 50
       90.000000
 41
        0.835000
 51
        0.000000
  7
BIGFONT
  0
LINE
  8
LVL0000
  6
CONTINUOUS
 62
  2
 10
       36.083332
 20
       65.000000
 30
        0.000000
 11
       53.324036
 21
       65.000000
 31
        0.000000
  0
LINE
  8
LVL0000
  6
CONTINUOUS
 62
  2
 10
       36.083332
 20
      -65.000000
 30
        0.000000
 11
       53.324036
 21
      -65.000000
 31
        0.000000
  0
LINE
  8
LVL0000
  6
CONTINUOUS
 62
  2
 10
       53.442768
 20
       62.000000
 30
        0.000000
 11
       52.657368
 21
       65.000000
 31
        0.000000
  0
LINE
  8
LVL0000
  6
CONTINUOUS
 62
  2
 10
       52.657368
 20
       65.000000
 30
        0.000000
 11
       51.871967
 21
       62.000000
 31
        0.000000
  0
LINE
  8
LVL0000
  6
CONTINUOUS
 62
  2
 10
       51.871967
 20
      -62.000000
 30
        0.000000
 11
       52.657368
 21
      -65.000000
 31
        0.000000
  0
LINE
  8
LVL0000
  6
CONTINUOUS
 62
  2
 10
       52.657368
 20
      -65.000000
 30
        0.000000
 11
       53.442764
 21
      -62.000000
 31
        0.000000
  0
LINE
  8
LVL0000
  6
CONTINUOUS
 62
  2
 10
       52.657368
 20
       65.000000
 30
        0.000000
 11
       52.657368
 21
      -65.000000
 31
        0.000000
  0
ENDBLK
  0
ENDSEC
  0
SECTION
  2
ENTITIES
  0
LINE
  8
LVL0000
 10
      -41.515094
 20
        0.000000
 30
        0.000000
 11
       43.713458
 21
        0.000000
 31
        0.000000
  0
TEXT
  8
LVL0000
  6
CONTINUOUS
 62
  2
 10
      -16.045479
 20
      117.993500
 30
        0.000000
 40
        5.000000
  1
ＪＷ３１ＣＵＨ１
 50
        0.000000
 41
        0.835000
 51
        0.000000
  7
BIGFONT
  0
LINE
  8
LVL0000
  6
CONTINUOUS
 10
      117.250000
 20
       84.999992
 30
        0.000000
 11
       85.749985
 21
       84.999992
 31
        0.000000
  0
LINE
  8
LVL0000
  6
CONTINUOUS
 10
        9.449997
 20
        7.500000
 30
        0.000000
 11
       -4.550003
 21
        7.500000
 31
        0.000000
  0
LINE
  8
LVL0000
  6
CONTINUOUS
 10
        9.449997
 20
       31.500000
 30
        0.000000
 11
       -4.550003
 21
       31.500000
 31
        0.000000
  0
LINE
  8
LVL0000
  6
CONTINUOUS
 10
       -4.550003
 20
       31.500000
 30
        0.000000
 11
       -4.550003
 21
        7.500000
 31
        0.000000
  0
LINE
  8
LVL0000
  6
CONTINUOUS
 10
        9.449997
 20
       31.500000
 30
        0.000000
 11
        9.449997
 21
        7.500000
 31
        0.000000
  0
ARC
  8
LVL0000
  6
CONTINUOUS
 10
       85.750000
 20
      -64.500000
 30
        0.000000
 40
        0.500000
 50
      179.999995
 51
      270.000000
  0
LINE
  8
LVL0000
  6
CONTINUOUS
 10
      182.550000
 20
      -65.000000
 30
        0.000000
 11
       85.750000
 21
      -65.000000
 31
        0.000000
  0
LINE
  8
LVL0000
  6
CONTINUOUS
 10
       85.250000
 20
      -64.500000
 30
        0.000000
 11
       85.250000
 21
       37.500000
 31
        0.000000
  0
ARC
  8
LVL0000
  6
CONTINUOUS
 10
       85.750000
 20
       64.504011
 30
        0.000000
 40
        0.500000
 50
       90.000000
 51
      179.999995
  0
LINE
  8
LVL0000
  6
CONTINUOUS
 10
       85.250000
 20
       57.000000
 30
        0.000000
 11
       85.250000
 21
       64.504011
 31
        0.000000
  0
LINE
  8
LVL0000
  6
CONTINUOUS
 10
       85.750020
 20
       65.004011
 30
        0.000000
 11
      187.650000
 21
       64.999895
 31
        0.000000
  0
ARC
  8
LVL0000
  6
CONTINUOUS
 10
       85.749985
 20
       85.499992
 30
        0.000000
 40
        0.500000
 50
      180.000006
 51
      270.000000
  0
LINE
  8
LVL0000
  6
CONTINUOUS
 10
       85.749985
 20
      155.499992
 30
        0.000000
 11
      117.249992
 21
      155.499992
 31
        0.000000
  0
LINE
  8
LVL0000
  6
CONTINUOUS
 10
       85.249985
 20
       85.499992
 30
        0.000000
 11
       85.249985
 21
      154.999992
 31
        0.000000
  0
ARC
  8
LVL0000
  6
CONTINUOUS
 10
       85.749985
 20
      154.999992
 30
        0.000000
 40
        0.500000
 50
       90.000000
 51
      180.000006
  0
LINE
  8
LVL0000
  6
CONTINUOUS
 10
      109.250000
 20
       84.999992
 30
        0.000000
 11
      109.249992
 21
      155.499992
 31
        0.000000
  0
LINE
  8
LVL0000
  6
CONTINUOUS
 10
      107.250000
 20
       84.999992
 30
        0.000000
 11
      107.249992
 21
      155.499992
 31
        0.000000
  0
LINE
  8
LVL0000
  6
CONTINUOUS
 10
      105.250000
 20
       84.999992
 30
        0.000000
 11
      105.249992
 21
      155.499992
 31
        0.000000
  0
LINE
  8
LVL0000
  6
CONTINUOUS
 10
      103.250000
 20
       84.999992
 30
        0.000000
 11
      103.249992
 21
      155.499992
 31
        0.000000
  0
LINE
  8
LVL0000
  6
CONTINUOUS
 10
      101.250000
 20
       84.999992
 30
        0.000000
 11
      101.249992
 21
      155.499992
 31
        0.000000
  0
LINE
  8
LVL0000
  6
CONTINUOUS
 10
       99.250000
 20
       84.999992
 30
        0.000000
 11
       99.249992
 21
      155.499992
 31
        0.000000
  0
LINE
  8
LVL0000
  6
CONTINUOUS
 10
      128.250000
 20
       84.999994
 30
        0.000000
 11
      128.249992
 21
      155.499994
 31
        0.000000
  0
LINE
  8
LVL0000
  6
CONTINUOUS
 10
      130.250000
 20
       84.999994
 30
        0.000000
 11
      130.249992
 21
      155.499994
 31
        0.000000
  0
LINE
  8
LVL0000
  6
CONTINUOUS
 10
      187.650000
 20
       85.000000
 30
        0.000000
 11
      187.649992
 21
      155.500000
 31
        0.000000
  0
LINE
  8
LVL0000
  6
CONTINUOUS
 10
      117.250000
 20
       84.999992
 30
        0.000000
 11
      187.650000
 21
       85.000000
 31
        0.000000
  0
LINE
  8
LVL0000
  6
CONTINUOUS
 10
      117.249992
 20
      155.499992
 30
        0.000000
 11
      187.649992
 21
      155.500000
 31
        0.000000
  0
LINE
  8
LVL0000
  6
CONTINUOUS
 10
      124.249999
 20
       94.699993
 30
        0.000000
 11
      126.249999
 21
       94.699993
 31
        0.000000
  0
LINE
  8
LVL0000
  6
CONTINUOUS
 10
      128.249999
 20
       94.699994
 30
        0.000000
 11
      130.249999
 21
       94.699994
 31
        0.000000
  0
LINE
  8
LVL0000
  6
CONTINUOUS
 10
      124.249999
 20
       90.699993
 30
        0.000000
 11
      126.249999
 21
       90.699993
 31
        0.000000
  0
LINE
  8
LVL0000
  6
CONTINUOUS
 10
      128.249999
 20
       90.699994
 30
        0.000000
 11
      130.249999
 21
       90.699994
 31
        0.000000
  0
LINE
  8
LVL0000
  6
CONTINUOUS
 10
      124.250000
 20
       87.499993
 30
        0.000000
 11
      126.250000
 21
       87.499993
 31
        0.000000
  0
LINE
  8
LVL0000
  6
CONTINUOUS
 10
      128.250000
 20
       87.499994
 30
        0.000000
 11
      130.250000
 21
       87.499994
 31
        0.000000
  0
LINE
  8
LVL0000
  6
CONTINUOUS
 10
      124.249993
 20
      152.999993
 30
        0.000000
 11
      126.249993
 21
      152.999993
 31
        0.000000
  0
LINE
  8
LVL0000
  6
CONTINUOUS
 10
      128.249993
 20
      152.999994
 30
        0.000000
 11
      130.249993
 21
      152.999994
 31
        0.000000
  0
LINE
  8
LVL0000
  6
CONTINUOUS
 10
      128.249999
 20
      111.799994
 30
        0.000000
 11
      130.249999
 21
      111.799994
 31
        0.000000
  0
LINE
  8
LVL0000
  6
CONTINUOUS
 10
      128.249999
 20
      115.799994
 30
        0.000000
 11
      130.249999
 21
      115.799994
 31
        0.000000
  0
LINE
  8
LVL0000
  6
CONTINUOUS
 10
      124.249999
 20
      115.799993
 30
        0.000000
 11
      126.249999
 21
      115.799993
 31
        0.000000
  0
LINE
  8
LVL0000
  6
CONTINUOUS
 10
      124.249999
 20
      111.799993
 30
        0.000000
 11
      126.249999
 21
      111.799993
 31
        0.000000
  0
LINE
  8
LVL0000
  6
CONTINUOUS
 10
      124.249999
 20
      151.299993
 30
        0.000000
 11
      126.249999
 21
      151.299993
 31
        0.000000
  0
LINE
  8
LVL0000
  6
CONTINUOUS
 10
      128.249999
 20
      151.299994
 30
        0.000000
 11
      130.249999
 21
      151.299994
 31
        0.000000
  0
LINE
  8
LVL0000
  6
CONTINUOUS
 10
      128.249999
 20
      147.299994
 30
        0.000000
 11
      130.249999
 21
      147.299994
 31
        0.000000
  0
LINE
  8
LVL0000
  6
CONTINUOUS
 10
      124.249999
 20
      147.299993
 30
        0.000000
 11
      126.249999
 21
      147.299993
 31
        0.000000
  0
LINE
  8
LVL0000
  6
CONTINUOUS
 10
      124.249999
 20
      126.199993
 30
        0.000000
 11
      126.249999
 21
      126.199993
 31
        0.000000
  0
LINE
  8
LVL0000
  6
CONTINUOUS
 10
      124.249999
 20
      130.199993
 30
        0.000000
 11
      126.249999
 21
      130.199993
 31
        0.000000
  0
LINE
  8
LVL0000
  6
CONTINUOUS
 10
      128.249999
 20
      130.199994
 30
        0.000000
 11
      130.249999
 21
      130.199994
 31
        0.000000
  0
LINE
  8
LVL0000
  6
CONTINUOUS
 10
      128.249999
 20
      126.199994
 30
        0.000000
 11
      130.249999
 21
      126.199994
 31
        0.000000
  0
LINE
  8
LVL0000
  6
CONTINUOUS
 10
      132.249999
 20
      126.199994
 30
        0.000000
 11
      134.249999
 21
      126.199994
 31
        0.000000
  0
LINE
  8
LVL0000
  6
CONTINUOUS
 10
      136.249999
 20
      126.199994
 30
        0.000000
 11
      138.249999
 21
      126.199994
 31
        0.000000
  0
LINE
  8
LVL0000
  6
CONTINUOUS
 10
      140.249999
 20
      126.199994
 30
        0.000000
 11
      142.249999
 21
      126.199994
 31
        0.000000
  0
LINE
  8
LVL0000
  6
CONTINUOUS
 10
      144.249999
 20
      126.199994
 30
        0.000000
 11
      146.249999
 21
      126.199994
 31
        0.000000
  0
LINE
  8
LVL0000
  6
CONTINUOUS
 10
      148.249999
 20
      126.199994
 30
        0.000000
 11
      150.249999
 21
      126.199994
 31
        0.000000
  0
LINE
  8
LVL0000
  6
CONTINUOUS
 10
      152.249999
 20
      126.199994
 30
        0.000000
 11
      154.249999
 21
      126.199994
 31
        0.000000
  0
LINE
  8
LVL0000
  6
CONTINUOUS
 10
      156.249999
 20
      126.199994
 30
        0.000000
 11
      158.249999
 21
      126.199994
 31
        0.000000
  0
LINE
  8
LVL0000
  6
CONTINUOUS
 10
      160.249999
 20
      126.199994
 30
        0.000000
 11
      162.249999
 21
      126.199994
 31
        0.000000
  0
LINE
  8
LVL0000
  6
CONTINUOUS
 10
      164.249999
 20
      126.199994
 30
        0.000000
 11
      166.249999
 21
      126.199994
 31
        0.000000
  0
LINE
  8
LVL0000
  6
CONTINUOUS
 10
      168.249999
 20
      126.199994
 30
        0.000000
 11
      170.249999
 21
      126.199994
 31
        0.000000
  0
LINE
  8
LVL0000
  6
CONTINUOUS
 10
      172.249999
 20
      126.199994
 30
        0.000000
 11
      174.249999
 21
      126.199994
 31
        0.000000
  0
LINE
  8
LVL0000
  6
CONTINUOUS
 10
      176.249999
 20
      126.199994
 30
        0.000000
 11
      178.249999
 21
      126.199994
 31
        0.000000
  0
LINE
  8
LVL0000
  6
CONTINUOUS
 10
      132.249999
 20
      130.199994
 30
        0.000000
 11
      134.249999
 21
      130.199994
 31
        0.000000
  0
LINE
  8
LVL0000
  6
CONTINUOUS
 10
      136.249999
 20
      130.199994
 30
        0.000000
 11
      138.249999
 21
      130.199994
 31
        0.000000
  0
LINE
  8
LVL0000
  6
CONTINUOUS
 10
      140.249999
 20
      130.199994
 30
        0.000000
 11
      142.249999
 21
      130.199994
 31
        0.000000
  0
LINE
  8
LVL0000
  6
CONTINUOUS
 10
      144.249999
 20
      130.199994
 30
        0.000000
 11
      146.249999
 21
      130.199994
 31
        0.000000
  0
LINE
  8
LVL0000
  6
CONTINUOUS
 10
      148.249999
 20
      130.199994
 30
        0.000000
 11
      150.249999
 21
      130.199994
 31
        0.000000
  0
LINE
  8
LVL0000
  6
CONTINUOUS
 10
      152.249999
 20
      130.199994
 30
        0.000000
 11
      154.249999
 21
      130.199994
 31
        0.000000
  0
LINE
  8
LVL0000
  6
CONTINUOUS
 10
      156.249999
 20
      130.199994
 30
        0.000000
 11
      158.249999
 21
      130.199994
 31
        0.000000
  0
LINE
  8
LVL0000
  6
CONTINUOUS
 10
      160.249999
 20
      130.199994
 30
        0.000000
 11
      162.249999
 21
      130.199994
 31
        0.000000
  0
LINE
  8
LVL0000
  6
CONTINUOUS
 10
      164.249999
 20
      130.199994
 30
        0.000000
 11
      166.249999
 21
      130.199994
 31
        0.000000
  0
LINE
  8
LVL0000
  6
CONTINUOUS
 10
      168.249999
 20
      130.199994
 30
        0.000000
 11
      170.249999
 21
      130.199994
 31
        0.000000
  0
LINE
  8
LVL0000
  6
CONTINUOUS
 10
      172.249999
 20
      130.199994
 30
        0.000000
 11
      174.249999
 21
      130.199994
 31
        0.000000
  0
LINE
  8
LVL0000
  6
CONTINUOUS
 10
      176.249999
 20
      130.199994
 30
        0.000000
 11
      178.249999
 21
      130.199994
 31
        0.000000
  0
LINE
  8
LVL0000
  6
CONTINUOUS
 10
      132.249999
 20
      147.299994
 30
        0.000000
 11
      134.249999
 21
      147.299994
 31
        0.000000
  0
LINE
  8
LVL0000
  6
CONTINUOUS
 10
      136.249999
 20
      147.299994
 30
        0.000000
 11
      138.249999
 21
      147.299994
 31
        0.000000
  0
LINE
  8
LVL0000
  6
CONTINUOUS
 10
      140.249999
 20
      147.299994
 30
        0.000000
 11
      142.249999
 21
      147.299994
 31
        0.000000
  0
LINE
  8
LVL0000
  6
CONTINUOUS
 10
      144.249999
 20
      147.299994
 30
        0.000000
 11
      146.249999
 21
      147.299994
 31
        0.000000
  0
LINE
  8
LVL0000
  6
CONTINUOUS
 10
      148.249999
 20
      147.299994
 30
        0.000000
 11
      150.249999
 21
      147.299994
 31
        0.000000
  0
LINE
  8
LVL0000
  6
CONTINUOUS
 10
      152.249999
 20
      147.299994
 30
        0.000000
 11
      154.249999
 21
      147.299994
 31
        0.000000
  0
LINE
  8
LVL0000
  6
CONTINUOUS
 10
      156.249999
 20
      147.299994
 30
        0.000000
 11
      158.249999
 21
      147.299994
 31
        0.000000
  0
LINE
  8
LVL0000
  6
CONTINUOUS
 10
      160.249999
 20
      147.299994
 30
        0.000000
 11
      162.249999
 21
      147.299994
 31
        0.000000
  0
LINE
  8
LVL0000
  6
CONTINUOUS
 10
      164.249999
 20
      147.299994
 30
        0.000000
 11
      166.249999
 21
      147.299994
 31
        0.000000
  0
LINE
  8
LVL0000
  6
CONTINUOUS
 10
      168.249999
 20
      147.299994
 30
        0.000000
 11
      170.249999
 21
      147.299994
 31
        0.000000
  0
LINE
  8
LVL0000
  6
CONTINUOUS
 10
      172.249999
 20
      147.299994
 30
        0.000000
 11
      174.249999
 21
      147.299994
 31
        0.000000
  0
LINE
  8
LVL0000
  6
CONTINUOUS
 10
      176.249999
 20
      147.299994
 30
        0.000000
 11
      178.249999
 21
      147.299994
 31
        0.000000
  0
LINE
  8
LVL0000
  6
CONTINUOUS
 10
      132.249999
 20
      151.299994
 30
        0.000000
 11
      134.249999
 21
      151.299994
 31
        0.000000
  0
LINE
  8
LVL0000
  6
CONTINUOUS
 10
      136.249999
 20
      151.299994
 30
        0.000000
 11
      138.249999
 21
      151.299994
 31
        0.000000
  0
LINE
  8
LVL0000
  6
CONTINUOUS
 10
      140.249999
 20
      151.299994
 30
        0.000000
 11
      142.249999
 21
      151.299994
 31
        0.000000
  0
LINE
  8
LVL0000
  6
CONTINUOUS
 10
      144.249999
 20
      151.299994
 30
        0.000000
 11
      146.249999
 21
      151.299994
 31
        0.000000
  0
LINE
  8
LVL0000
  6
CONTINUOUS
 10
      148.249999
 20
      151.299994
 30
        0.000000
 11
      150.249999
 21
      151.299994
 31
        0.000000
  0
LINE
  8
LVL0000
  6
CONTINUOUS
 10
      152.249999
 20
      151.299994
 30
        0.000000
 11
      154.249999
 21
      151.299994
 31
        0.000000
  0
LINE
  8
LVL0000
  6
CONTINUOUS
 10
      156.249999
 20
      151.299994
 30
        0.000000
 11
      158.249999
 21
      151.299994
 31
        0.000000
  0
LINE
  8
LVL0000
  6
CONTINUOUS
 10
      160.249999
 20
      151.299994
 30
        0.000000
 11
      162.249999
 21
      151.299994
 31
        0.000000
  0
LINE
  8
LVL0000
  6
CONTINUOUS
 10
      164.249999
 20
      151.299994
 30
        0.000000
 11
      166.249999
 21
      151.299994
 31
        0.000000
  0
LINE
  8
LVL0000
  6
CONTINUOUS
 10
      168.249999
 20
      151.299994
 30
        0.000000
 11
      170.249999
 21
      151.299994
 31
        0.000000
  0
LINE
  8
LVL0000
  6
CONTINUOUS
 10
      172.249999
 20
      151.299994
 30
        0.000000
 11
      174.249999
 21
      151.299994
 31
        0.000000
  0
LINE
  8
LVL0000
  6
CONTINUOUS
 10
      176.249999
 20
      151.299994
 30
        0.000000
 11
      178.249999
 21
      151.299994
 31
        0.000000
  0
LINE
  8
LVL0000
  6
CONTINUOUS
 10
      132.249999
 20
      115.799994
 30
        0.000000
 11
      134.249999
 21
      115.799994
 31
        0.000000
  0
LINE
  8
LVL0000
  6
CONTINUOUS
 10
      136.249999
 20
      115.799994
 30
        0.000000
 11
      138.249999
 21
      115.799994
 31
        0.000000
  0
LINE
  8
LVL0000
  6
CONTINUOUS
 10
      140.249999
 20
      115.799994
 30
        0.000000
 11
      142.249999
 21
      115.799994
 31
        0.000000
  0
LINE
  8
LVL0000
  6
CONTINUOUS
 10
      144.249999
 20
      115.799994
 30
        0.000000
 11
      146.249999
 21
      115.799994
 31
        0.000000
  0
LINE
  8
LVL0000
  6
CONTINUOUS
 10
      148.249999
 20
      115.799994
 30
        0.000000
 11
      150.249999
 21
      115.799994
 31
        0.000000
  0
LINE
  8
LVL0000
  6
CONTINUOUS
 10
      152.249999
 20
      115.799994
 30
        0.000000
 11
      154.249999
 21
      115.799994
 31
        0.000000
  0
LINE
  8
LVL0000
  6
CONTINUOUS
 10
      156.249999
 20
      115.799994
 30
        0.000000
 11
      158.249999
 21
      115.799994
 31
        0.000000
  0
LINE
  8
LVL0000
  6
CONTINUOUS
 10
      160.249999
 20
      115.799994
 30
        0.000000
 11
      162.249999
 21
      115.799994
 31
        0.000000
  0
LINE
  8
LVL0000
  6
CONTINUOUS
 10
      164.249999
 20
      115.799994
 30
        0.000000
 11
      166.249999
 21
      115.799994
 31
        0.000000
  0
LINE
  8
LVL0000
  6
CONTINUOUS
 10
      168.249999
 20
      115.799994
 30
        0.000000
 11
      170.249999
 21
      115.799994
 31
        0.000000
  0
LINE
  8
LVL0000
  6
CONTINUOUS
 10
      172.249999
 20
      115.799994
 30
        0.000000
 11
      174.249999
 21
      115.799994
 31
        0.000000
  0
LINE
  8
LVL0000
  6
CONTINUOUS
 10
      176.249999
 20
      115.799994
 30
        0.000000
 11
      178.249999
 21
      115.799994
 31
        0.000000
  0
LINE
  8
LVL0000
  6
CONTINUOUS
 10
      132.249993
 20
      152.999994
 30
        0.000000
 11
      134.249993
 21
      152.999994
 31
        0.000000
  0
LINE
  8
LVL0000
  6
CONTINUOUS
 10
      136.249993
 20
      152.999994
 30
        0.000000
 11
      138.249993
 21
      152.999994
 31
        0.000000
  0
LINE
  8
LVL0000
  6
CONTINUOUS
 10
      140.249993
 20
      152.999994
 30
        0.000000
 11
      142.249993
 21
      152.999994
 31
        0.000000
  0
LINE
  8
LVL0000
  6
CONTINUOUS
 10
      144.249993
 20
      152.999994
 30
        0.000000
 11
      146.249993
 21
      152.999994
 31
        0.000000
  0
LINE
  8
LVL0000
  6
CONTINUOUS
 10
      148.249993
 20
      152.999994
 30
        0.000000
 11
      150.249993
 21
      152.999994
 31
        0.000000
  0
LINE
  8
LVL0000
  6
CONTINUOUS
 10
      152.249993
 20
      152.999994
 30
        0.000000
 11
      154.249993
 21
      152.999994
 31
        0.000000
  0
LINE
  8
LVL0000
  6
CONTINUOUS
 10
      156.249993
 20
      152.999994
 30
        0.000000
 11
      158.249993
 21
      152.999994
 31
        0.000000
  0
LINE
  8
LVL0000
  6
CONTINUOUS
 10
      160.249993
 20
      152.999994
 30
        0.000000
 11
      162.249993
 21
      152.999994
 31
        0.000000
  0
LINE
  8
LVL0000
  6
CONTINUOUS
 10
      164.249993
 20
      152.999994
 30
        0.000000
 11
      166.249993
 21
      152.999994
 31
        0.000000
  0
LINE
  8
LVL0000
  6
CONTINUOUS
 10
      168.249993
 20
      152.999994
 30
        0.000000
 11
      170.249993
 21
      152.999994
 31
        0.000000
  0
LINE
  8
LVL0000
  6
CONTINUOUS
 10
      172.249993
 20
      152.999994
 30
        0.000000
 11
      174.249993
 21
      152.999994
 31
        0.000000
  0
LINE
  8
LVL0000
  6
CONTINUOUS
 10
      176.249993
 20
      152.999994
 30
        0.000000
 11
      178.249993
 21
      152.999994
 31
        0.000000
  0
LINE
  8
LVL0000
  6
CONTINUOUS
 10
      132.249999
 20
      111.799994
 30
        0.000000
 11
      134.249999
 21
      111.799994
 31
        0.000000
  0
LINE
  8
LVL0000
  6
CONTINUOUS
 10
      136.249999
 20
      111.799994
 30
        0.000000
 11
      138.249999
 21
      111.799994
 31
        0.000000
  0
LINE
  8
LVL0000
  6
CONTINUOUS
 10
      140.249999
 20
      111.799994
 30
        0.000000
 11
      142.249999
 21
      111.799994
 31
        0.000000
  0
LINE
  8
LVL0000
  6
CONTINUOUS
 10
      144.249999
 20
      111.799994
 30
        0.000000
 11
      146.249999
 21
      111.799994
 31
        0.000000
  0
LINE
  8
LVL0000
  6
CONTINUOUS
 10
      148.249999
 20
      111.799994
 30
        0.000000
 11
      150.249999
 21
      111.799994
 31
        0.000000
  0
LINE
  8
LVL0000
  6
CONTINUOUS
 10
      152.249999
 20
      111.799994
 30
        0.000000
 11
      154.249999
 21
      111.799994
 31
        0.000000
  0
LINE
  8
LVL0000
  6
CONTINUOUS
 10
      156.249999
 20
      111.799994
 30
        0.000000
 11
      158.249999
 21
      111.799994
 31
        0.000000
  0
LINE
  8
LVL0000
  6
CONTINUOUS
 10
      160.249999
 20
      111.799994
 30
        0.000000
 11
      162.249999
 21
      111.799994
 31
        0.000000
  0
LINE
  8
LVL0000
  6
CONTINUOUS
 10
      164.249999
 20
      111.799994
 30
        0.000000
 11
      166.249999
 21
      111.799994
 31
        0.000000
  0
LINE
  8
LVL0000
  6
CONTINUOUS
 10
      168.249999
 20
      111.799994
 30
        0.000000
 11
      170.249999
 21
      111.799994
 31
        0.000000
  0
LINE
  8
LVL0000
  6
CONTINUOUS
 10
      172.249999
 20
      111.799994
 30
        0.000000
 11
      174.249999
 21
      111.799994
 31
        0.000000
  0
LINE
  8
LVL0000
  6
CONTINUOUS
 10
      176.249999
 20
      111.799994
 30
        0.000000
 11
      178.249999
 21
      111.799994
 31
        0.000000
  0
LINE
  8
LVL0000
  6
CONTINUOUS
 10
      132.249999
 20
       94.699994
 30
        0.000000
 11
      134.249999
 21
       94.699994
 31
        0.000000
  0
LINE
  8
LVL0000
  6
CONTINUOUS
 10
      136.249999
 20
       94.699994
 30
        0.000000
 11
      138.249999
 21
       94.699994
 31
        0.000000
  0
LINE
  8
LVL0000
  6
CONTINUOUS
 10
      140.249999
 20
       94.699994
 30
        0.000000
 11
      142.249999
 21
       94.699994
 31
        0.000000
  0
LINE
  8
LVL0000
  6
CONTINUOUS
 10
      144.249999
 20
       94.699994
 30
        0.000000
 11
      146.249999
 21
       94.699994
 31
        0.000000
  0
LINE
  8
LVL0000
  6
CONTINUOUS
 10
      148.249999
 20
       94.699994
 30
        0.000000
 11
      150.249999
 21
       94.699994
 31
        0.000000
  0
LINE
  8
LVL0000
  6
CONTINUOUS
 10
      152.249999
 20
       94.699994
 30
        0.000000
 11
      154.249999
 21
       94.699994
 31
        0.000000
  0
LINE
  8
LVL0000
  6
CONTINUOUS
 10
      156.249999
 20
       94.699994
 30
        0.000000
 11
      158.249999
 21
       94.699994
 31
        0.000000
  0
LINE
  8
LVL0000
  6
CONTINUOUS
 10
      160.249999
 20
       94.699994
 30
        0.000000
 11
      162.249999
 21
       94.699994
 31
        0.000000
  0
LINE
  8
LVL0000
  6
CONTINUOUS
 10
      164.249999
 20
       94.699994
 30
        0.000000
 11
      166.249999
 21
       94.699994
 31
        0.000000
  0
LINE
  8
LVL0000
  6
CONTINUOUS
 10
      168.249999
 20
       94.699994
 30
        0.000000
 11
      170.249999
 21
       94.699994
 31
        0.000000
  0
LINE
  8
LVL0000
  6
CONTINUOUS
 10
      172.249999
 20
       94.699994
 30
        0.000000
 11
      174.249999
 21
       94.699994
 31
        0.000000
  0
LINE
  8
LVL0000
  6
CONTINUOUS
 10
      176.249999
 20
       94.699994
 30
        0.000000
 11
      178.249999
 21
       94.699994
 31
        0.000000
  0
LINE
  8
LVL0000
  6
CONTINUOUS
 10
      132.250000
 20
       87.499994
 30
        0.000000
 11
      134.250000
 21
       87.499994
 31
        0.000000
  0
LINE
  8
LVL0000
  6
CONTINUOUS
 10
      136.250000
 20
       87.499994
 30
        0.000000
 11
      138.250000
 21
       87.499994
 31
        0.000000
  0
LINE
  8
LVL0000
  6
CONTINUOUS
 10
      140.250000
 20
       87.499994
 30
        0.000000
 11
      142.250000
 21
       87.499994
 31
        0.000000
  0
LINE
  8
LVL0000
  6
CONTINUOUS
 10
      144.250000
 20
       87.499994
 30
        0.000000
 11
      146.250000
 21
       87.499994
 31
        0.000000
  0
LINE
  8
LVL0000
  6
CONTINUOUS
 10
      148.250000
 20
       87.499994
 30
        0.000000
 11
      150.250000
 21
       87.499994
 31
        0.000000
  0
LINE
  8
LVL0000
  6
CONTINUOUS
 10
      152.250000
 20
       87.499994
 30
        0.000000
 11
      154.250000
 21
       87.499994
 31
        0.000000
  0
LINE
  8
LVL0000
  6
CONTINUOUS
 10
      156.250000
 20
       87.499994
 30
        0.000000
 11
      158.250000
 21
       87.499994
 31
        0.000000
  0
LINE
  8
LVL0000
  6
CONTINUOUS
 10
      160.250000
 20
       87.499994
 30
        0.000000
 11
      162.250000
 21
       87.499994
 31
        0.000000
  0
LINE
  8
LVL0000
  6
CONTINUOUS
 10
      164.250000
 20
       87.499994
 30
        0.000000
 11
      166.250000
 21
       87.499994
 31
        0.000000
  0
LINE
  8
LVL0000
  6
CONTINUOUS
 10
      168.250000
 20
       87.499994
 30
        0.000000
 11
      170.250000
 21
       87.499994
 31
        0.000000
  0
LINE
  8
LVL0000
  6
CONTINUOUS
 10
      172.250000
 20
       87.499994
 30
        0.000000
 11
      174.250000
 21
       87.499994
 31
        0.000000
  0
LINE
  8
LVL0000
  6
CONTINUOUS
 10
      176.250000
 20
       87.499994
 30
        0.000000
 11
      178.250000
 21
       87.499994
 31
        0.000000
  0
LINE
  8
LVL0000
  6
CONTINUOUS
 10
      132.249999
 20
       90.699994
 30
        0.000000
 11
      134.249999
 21
       90.699994
 31
        0.000000
  0
LINE
  8
LVL0000
  6
CONTINUOUS
 10
      136.249999
 20
       90.699994
 30
        0.000000
 11
      138.249999
 21
       90.699994
 31
        0.000000
  0
LINE
  8
LVL0000
  6
CONTINUOUS
 10
      140.249999
 20
       90.699994
 30
        0.000000
 11
      142.249999
 21
       90.699994
 31
        0.000000
  0
LINE
  8
LVL0000
  6
CONTINUOUS
 10
      144.249999
 20
       90.699994
 30
        0.000000
 11
      146.249999
 21
       90.699994
 31
        0.000000
  0
LINE
  8
LVL0000
  6
CONTINUOUS
 10
      148.249999
 20
       90.699994
 30
        0.000000
 11
      150.249999
 21
       90.699994
 31
        0.000000
  0
LINE
  8
LVL0000
  6
CONTINUOUS
 10
      152.249999
 20
       90.699994
 30
        0.000000
 11
      154.249999
 21
       90.699994
 31
        0.000000
  0
LINE
  8
LVL0000
  6
CONTINUOUS
 10
      156.249999
 20
       90.699994
 30
        0.000000
 11
      158.249999
 21
       90.699994
 31
        0.000000
  0
LINE
  8
LVL0000
  6
CONTINUOUS
 10
      160.249999
 20
       90.699994
 30
        0.000000
 11
      162.249999
 21
       90.699994
 31
        0.000000
  0
LINE
  8
LVL0000
  6
CONTINUOUS
 10
      164.249999
 20
       90.699994
 30
        0.000000
 11
      166.249999
 21
       90.699994
 31
        0.000000
  0
LINE
  8
LVL0000
  6
CONTINUOUS
 10
      168.249999
 20
       90.699994
 30
        0.000000
 11
      170.249999
 21
       90.699994
 31
        0.000000
  0
LINE
  8
LVL0000
  6
CONTINUOUS
 10
      172.249999
 20
       90.699994
 30
        0.000000
 11
      174.249999
 21
       90.699994
 31
        0.000000
  0
LINE
  8
LVL0000
  6
CONTINUOUS
 10
      176.249999
 20
       90.699994
 30
        0.000000
 11
      178.249999
 21
       90.699994
 31
        0.000000
  0
LINE
  8
LVL0000
  6
CONTINUOUS
 10
      134.250000
 20
       84.999994
 30
        0.000000
 11
      134.249992
 21
      155.499994
 31
        0.000000
  0
LINE
  8
LVL0000
  6
CONTINUOUS
 10
      138.250000
 20
       84.999994
 30
        0.000000
 11
      138.249992
 21
      155.499994
 31
        0.000000
  0
LINE
  8
LVL0000
  6
CONTINUOUS
 10
      142.250000
 20
       84.999994
 30
        0.000000
 11
      142.249992
 21
      155.499994
 31
        0.000000
  0
LINE
  8
LVL0000
  6
CONTINUOUS
 10
      146.250000
 20
       84.999994
 30
        0.000000
 11
      146.249992
 21
      155.499994
 31
        0.000000
  0
LINE
  8
LVL0000
  6
CONTINUOUS
 10
      150.250000
 20
       84.999994
 30
        0.000000
 11
      150.249992
 21
      155.499994
 31
        0.000000
  0
LINE
  8
LVL0000
  6
CONTINUOUS
 10
      154.250000
 20
       84.999994
 30
        0.000000
 11
      154.249992
 21
      155.499994
 31
        0.000000
  0
LINE
  8
LVL0000
  6
CONTINUOUS
 10
      158.250000
 20
       84.999994
 30
        0.000000
 11
      158.249992
 21
      155.499994
 31
        0.000000
  0
LINE
  8
LVL0000
  6
CONTINUOUS
 10
      162.250000
 20
       84.999994
 30
        0.000000
 11
      162.249992
 21
      155.499994
 31
        0.000000
  0
LINE
  8
LVL0000
  6
CONTINUOUS
 10
      166.250000
 20
       84.999994
 30
        0.000000
 11
      166.249992
 21
      155.499994
 31
        0.000000
  0
LINE
  8
LVL0000
  6
CONTINUOUS
 10
      170.250000
 20
       84.999994
 30
        0.000000
 11
      170.249992
 21
      155.499994
 31
        0.000000
  0
LINE
  8
LVL0000
  6
CONTINUOUS
 10
      174.250000
 20
       84.999994
 30
        0.000000
 11
      174.249992
 21
      155.499994
 31
        0.000000
  0
LINE
  8
LVL0000
  6
CONTINUOUS
 10
      178.250000
 20
       84.999994
 30
        0.000000
 11
      178.249992
 21
      155.499994
 31
        0.000000
  0
LINE
  8
LVL0000
  6
CONTINUOUS
 10
      132.250000
 20
       84.999994
 30
        0.000000
 11
      132.249992
 21
      155.499994
 31
        0.000000
  0
LINE
  8
LVL0000
  6
CONTINUOUS
 10
      136.250000
 20
       84.999994
 30
        0.000000
 11
      136.249992
 21
      155.499994
 31
        0.000000
  0
LINE
  8
LVL0000
  6
CONTINUOUS
 10
      140.250000
 20
       84.999994
 30
        0.000000
 11
      140.249992
 21
      155.499994
 31
        0.000000
  0
LINE
  8
LVL0000
  6
CONTINUOUS
 10
      144.250000
 20
       84.999994
 30
        0.000000
 11
      144.249992
 21
      155.499994
 31
        0.000000
  0
LINE
  8
LVL0000
  6
CONTINUOUS
 10
      148.250000
 20
       84.999994
 30
        0.000000
 11
      148.249992
 21
      155.499994
 31
        0.000000
  0
LINE
  8
LVL0000
  6
CONTINUOUS
 10
      152.250000
 20
       84.999994
 30
        0.000000
 11
      152.249992
 21
      155.499994
 31
        0.000000
  0
LINE
  8
LVL0000
  6
CONTINUOUS
 10
      156.250000
 20
       84.999994
 30
        0.000000
 11
      156.249992
 21
      155.499994
 31
        0.000000
  0
LINE
  8
LVL0000
  6
CONTINUOUS
 10
      160.250000
 20
       84.999994
 30
        0.000000
 11
      160.249992
 21
      155.499994
 31
        0.000000
  0
LINE
  8
LVL0000
  6
CONTINUOUS
 10
      164.250000
 20
       84.999994
 30
        0.000000
 11
      164.249992
 21
      155.499994
 31
        0.000000
  0
LINE
  8
LVL0000
  6
CONTINUOUS
 10
      168.250000
 20
       84.999994
 30
        0.000000
 11
      168.249992
 21
      155.499994
 31
        0.000000
  0
LINE
  8
LVL0000
  6
CONTINUOUS
 10
      172.250000
 20
       84.999994
 30
        0.000000
 11
      172.249992
 21
      155.499994
 31
        0.000000
  0
LINE
  8
LVL0000
  6
CONTINUOUS
 10
      176.250000
 20
       84.999994
 30
        0.000000
 11
      176.249992
 21
      155.499994
 31
        0.000000
  0
LINE
  8
LVL0000
  6
CONTINUOUS
 10
      180.249993
 20
      152.999994
 30
        0.000000
 11
      182.249993
 21
      152.999994
 31
        0.000000
  0
LINE
  8
LVL0000
  6
CONTINUOUS
 10
      180.250000
 20
       87.499994
 30
        0.000000
 11
      182.250000
 21
       87.499994
 31
        0.000000
  0
LINE
  8
LVL0000
  6
CONTINUOUS
 10
      180.250000
 20
       84.999994
 30
        0.000000
 11
      180.249992
 21
      155.499994
 31
        0.000000
  0
LINE
  8
LVL0000
  6
CONTINUOUS
 10
      182.250000
 20
       84.999994
 30
        0.000000
 11
      182.249992
 21
      155.499994
 31
        0.000000
  0
ARC
  8
LVL0000
  6
CONTINUOUS
 10
      124.249998
 20
      102.499993
 30
        0.000000
 40
        1.500000
 50
       90.000000
 51
      270.000000
  0
LINE
  8
LVL0000
  6
CONTINUOUS
 10
      146.249998
 20
       98.899996
 30
        0.000000
 11
      148.249998
 21
       98.899996
 31
        0.000000
  0
LINE
  8
LVL0000
  6
CONTINUOUS
 10
      146.249998
 20
      106.099996
 30
        0.000000
 11
      148.249998
 21
      106.099996
 31
        0.000000
  0
LINE
  8
LVL0000
  6
CONTINUOUS
 10
      150.249998
 20
       98.899996
 30
        0.000000
 11
      152.249998
 21
       98.899996
 31
        0.000000
  0
LINE
  8
LVL0000
  6
CONTINUOUS
 10
      150.249998
 20
      106.099996
 30
        0.000000
 11
      152.249998
 21
      106.099996
 31
        0.000000
  0
LINE
  8
LVL0000
  6
CONTINUOUS
 10
      154.249998
 20
      106.099996
 30
        0.000000
 11
      156.249998
 21
      106.099997
 31
        0.000000
  0
LINE
  8
LVL0000
  6
CONTINUOUS
 10
      154.249998
 20
       98.899996
 30
        0.000000
 11
      156.249998
 21
       98.899997
 31
        0.000000
  0
LINE
  8
LVL0000
  6
CONTINUOUS
 10
      158.249998
 20
      106.099997
 30
        0.000000
 11
      160.249998
 21
      106.099997
 31
        0.000000
  0
LINE
  8
LVL0000
  6
CONTINUOUS
 10
      158.249998
 20
       98.899997
 30
        0.000000
 11
      160.249998
 21
       98.899997
 31
        0.000000
  0
LINE
  8
LVL0000
  6
CONTINUOUS
 10
      162.249998
 20
       98.899997
 30
        0.000000
 11
      164.249998
 21
       98.899997
 31
        0.000000
  0
LINE
  8
LVL0000
  6
CONTINUOUS
 10
      162.249998
 20
      106.099997
 30
        0.000000
 11
      164.249998
 21
      106.099997
 31
        0.000000
  0
LINE
  8
LVL0000
  6
CONTINUOUS
 10
      166.249998
 20
      106.099998
 30
        0.000000
 11
      168.249998
 21
      106.099998
 31
        0.000000
  0
LINE
  8
LVL0000
  6
CONTINUOUS
 10
      166.249998
 20
       98.899998
 30
        0.000000
 11
      168.249998
 21
       98.899998
 31
        0.000000
  0
LINE
  8
LVL0000
  6
CONTINUOUS
 10
      170.249998
 20
       98.899998
 30
        0.000000
 11
      172.249998
 21
       98.899998
 31
        0.000000
  0
LINE
  8
LVL0000
  6
CONTINUOUS
 10
      170.249998
 20
      106.099998
 30
        0.000000
 11
      172.249998
 21
      106.099998
 31
        0.000000
  0
LINE
  8
LVL0000
  6
CONTINUOUS
 10
      174.249998
 20
      106.099999
 30
        0.000000
 11
      176.249998
 21
      106.099999
 31
        0.000000
  0
LINE
  8
LVL0000
  6
CONTINUOUS
 10
      174.249998
 20
       98.899999
 30
        0.000000
 11
      176.249998
 21
       98.899999
 31
        0.000000
  0
ARC
  8
LVL0000
  6
CONTINUOUS
 10
      143.250007
 20
       19.335709
 30
        0.000000
 40
       86.770048
 50
       99.954774
 51
      101.298484
  0
ARC
  8
LVL0000
  6
CONTINUOUS
 10
      153.664911
 20
     -108.788240
 30
        0.000000
 40
      215.094384
 50
       95.713862
 51
       96.249531
  0
ARC
  8
LVL0000
  6
CONTINUOUS
 10
      153.664911
 20
     -108.788240
 30
        0.000000
 40
      215.094384
 50
       94.643979
 51
       95.178694
  0
ARC
  8
LVL0000
  6
CONTINUOUS
 10
      153.664911
 20
     -108.788240
 30
        0.000000
 40
      215.094384
 50
       93.575716
 51
       94.109669
  0
ARC
  8
LVL0000
  6
CONTINUOUS
 10
      153.664911
 20
     -108.788240
 30
        0.000000
 40
      215.094384
 50
       92.508697
 51
       93.042075
  0
ARC
  8
LVL0000
  6
CONTINUOUS
 10
      153.664865
 20
      313.788232
 30
        0.000000
 40
      215.094384
 50
      266.957938
 51
      267.491315
  0
ARC
  8
LVL0000
  6
CONTINUOUS
 10
      153.664865
 20
      313.788232
 30
        0.000000
 40
      215.094384
 50
      265.890344
 51
      266.424296
  0
ARC
  8
LVL0000
  6
CONTINUOUS
 10
      153.664865
 20
      313.788232
 30
        0.000000
 40
      215.094384
 50
      264.821318
 51
      265.356033
  0
ARC
  8
LVL0000
  6
CONTINUOUS
 10
      153.664865
 20
      313.788232
 30
        0.000000
 40
      215.094384
 50
      263.750482
 51
      264.286150
  0
ARC
  8
LVL0000
  6
CONTINUOUS
 10
      143.249989
 20
      185.664281
 30
        0.000000
 40
       86.770048
 50
      258.701528
 51
      260.045239
  0
ARC
  8
LVL0000
  6
CONTINUOUS
 10
      124.249998
 20
      137.999993
 30
        0.000000
 40
        1.500000
 50
       90.000000
 51
      270.000000
  0
ARC
  8
LVL0000
  6
CONTINUOUS
 10
      143.249989
 20
      221.164281
 30
        0.000000
 40
       86.770048
 50
      258.701528
 51
      260.045239
  0
ARC
  8
LVL0000
  6
CONTINUOUS
 10
      143.250007
 20
       54.835709
 30
        0.000000
 40
       86.770048
 50
       99.954774
 51
      101.298484
  0
ARC
  8
LVL0000
  6
CONTINUOUS
 10
      153.664865
 20
      349.288232
 30
        0.000000
 40
      215.094384
 50
      263.750482
 51
      264.286150
  0
ARC
  8
LVL0000
  6
CONTINUOUS
 10
      153.664911
 20
      -73.288240
 30
        0.000000
 40
      215.094384
 50
       95.713862
 51
       96.249531
  0
ARC
  8
LVL0000
  6
CONTINUOUS
 10
      153.664865
 20
      349.288232
 30
        0.000000
 40
      215.094384
 50
      264.821318
 51
      265.356033
  0
ARC
  8
LVL0000
  6
CONTINUOUS
 10
      153.664911
 20
      -73.288240
 30
        0.000000
 40
      215.094384
 50
       94.643979
 51
       95.178694
  0
ARC
  8
LVL0000
  6
CONTINUOUS
 10
      153.664865
 20
      349.288232
 30
        0.000000
 40
      215.094384
 50
      265.890344
 51
      266.424296
  0
ARC
  8
LVL0000
  6
CONTINUOUS
 10
      153.664911
 20
      -73.288240
 30
        0.000000
 40
      215.094384
 50
       93.575716
 51
       94.109669
  0
ARC
  8
LVL0000
  6
CONTINUOUS
 10
      153.664865
 20
      349.288232
 30
        0.000000
 40
      215.094384
 50
      266.957938
 51
      267.491315
  0
ARC
  8
LVL0000
  6
CONTINUOUS
 10
      153.664911
 20
      -73.288240
 30
        0.000000
 40
      215.094384
 50
       92.508697
 51
       93.042075
  0
LINE
  8
LVL0000
  6
CONTINUOUS
 10
      146.249998
 20
      141.599996
 30
        0.000000
 11
      148.249998
 21
      141.599996
 31
        0.000000
  0
LINE
  8
LVL0000
  6
CONTINUOUS
 10
      146.249998
 20
      134.399996
 30
        0.000000
 11
      148.249998
 21
      134.399996
 31
        0.000000
  0
LINE
  8
LVL0000
  6
CONTINUOUS
 10
      150.249998
 20
      141.599996
 30
        0.000000
 11
      152.249998
 21
      141.599996
 31
        0.000000
  0
LINE
  8
LVL0000
  6
CONTINUOUS
 10
      150.249998
 20
      134.399996
 30
        0.000000
 11
      152.249998
 21
      134.399996
 31
        0.000000
  0
LINE
  8
LVL0000
  6
CONTINUOUS
 10
      154.249998
 20
      134.399996
 30
        0.000000
 11
      156.249998
 21
      134.399997
 31
        0.000000
  0
LINE
  8
LVL0000
  6
CONTINUOUS
 10
      154.249998
 20
      141.599996
 30
        0.000000
 11
      156.249998
 21
      141.599997
 31
        0.000000
  0
LINE
  8
LVL0000
  6
CONTINUOUS
 10
      158.249998
 20
      134.399997
 30
        0.000000
 11
      160.249998
 21
      134.399997
 31
        0.000000
  0
LINE
  8
LVL0000
  6
CONTINUOUS
 10
      158.249998
 20
      141.599997
 30
        0.000000
 11
      160.249998
 21
      141.599997
 31
        0.000000
  0
LINE
  8
LVL0000
  6
CONTINUOUS
 10
      162.249998
 20
      141.599997
 30
        0.000000
 11
      164.249998
 21
      141.599997
 31
        0.000000
  0
LINE
  8
LVL0000
  6
CONTINUOUS
 10
      162.249998
 20
      134.399997
 30
        0.000000
 11
      164.249998
 21
      134.399997
 31
        0.000000
  0
LINE
  8
LVL0000
  6
CONTINUOUS
 10
      166.249998
 20
      134.399998
 30
        0.000000
 11
      168.249998
 21
      134.399998
 31
        0.000000
  0
LINE
  8
LVL0000
  6
CONTINUOUS
 10
      166.249998
 20
      141.599998
 30
        0.000000
 11
      168.249998
 21
      141.599998
 31
        0.000000
  0
LINE
  8
LVL0000
  6
CONTINUOUS
 10
      170.249998
 20
      141.599998
 30
        0.000000
 11
      172.249998
 21
      141.599998
 31
        0.000000
  0
LINE
  8
LVL0000
  6
CONTINUOUS
 10
      170.249998
 20
      134.399998
 30
        0.000000
 11
      172.249998
 21
      134.399998
 31
        0.000000
  0
LINE
  8
LVL0000
  6
CONTINUOUS
 10
      174.249998
 20
      134.399999
 30
        0.000000
 11
      176.249998
 21
      134.399999
 31
        0.000000
  0
LINE
  8
LVL0000
  6
CONTINUOUS
 10
      174.249998
 20
      141.599999
 30
        0.000000
 11
      176.249998
 21
      141.599999
 31
        0.000000
  0
CIRCLE
  8
LVL0000
  6
CONTINUOUS
 10
      122.249996
 20
      120.999993
 30
        0.000000
 40
        2.650000
  0
LINE
  8
LVL0000
  6
CONTINUOUS
 10
      126.250000
 20
       84.999993
 30
        0.000000
 11
      126.249997
 21
      115.799993
 31
        0.000000
  0
LINE
  8
LVL0000
  6
CONTINUOUS
 10
      126.249996
 20
      126.199993
 30
        0.000000
 11
      126.249992
 21
      155.499993
 31
        0.000000
  0
LINE
  8
LVL0000
  6
CONTINUOUS
 10
      124.250000
 20
       84.999993
 30
        0.000000
 11
      124.249997
 21
      115.799993
 31
        0.000000
  0
LINE
  8
LVL0000
  6
CONTINUOUS
 10
      124.249996
 20
      126.199993
 30
        0.000000
 11
      124.249992
 21
      155.499993
 31
        0.000000
  0
ARC
  8
LVL0000
  6
CONTINUOUS
 10
      192.649999
 20
       91.500001
 30
        0.000000
 40
        2.000000
 50
      270.000000
 51
      450.000000
  0
LINE
  8
LVL0000
  6
CONTINUOUS
 10
      187.650000
 20
       89.500000
 30
        0.000000
 11
      192.650000
 21
       89.500001
 31
        0.000000
  0
LINE
  8
LVL0000
  6
CONTINUOUS
 10
      187.649999
 20
       93.500000
 30
        0.000000
 11
      192.649999
 21
       93.500001
 31
        0.000000
  0
LINE
  8
LVL0000
  6
CONTINUOUS
 10
      187.649999
 20
      129.000000
 30
        0.000000
 11
      192.649999
 21
      129.000001
 31
        0.000000
  0
LINE
  8
LVL0000
  6
CONTINUOUS
 10
      187.650000
 20
      125.000000
 30
        0.000000
 11
      192.650000
 21
      125.000001
 31
        0.000000
  0
ARC
  8
LVL0000
  6
CONTINUOUS
 10
      192.649999
 20
      127.000001
 30
        0.000000
 40
        2.000000
 50
      270.000000
 51
      450.000000
  0
LINE
  8
LVL0000
  6
CONTINUOUS
 10
      121.260047
 20
      121.989942
 30
        0.000000
 11
      123.239946
 21
      120.010043
 31
        0.000000
  0
LINE
  8
LVL0000
  6
CONTINUOUS
 10
      113.239946
 20
      120.010043
 30
        0.000000
 11
      111.260047
 21
      121.989942
 31
        0.000000
  0
LINE
  8
LVL0000
  6
CONTINUOUS
 10
      123.239946
 20
      121.989942
 30
        0.000000
 11
      121.260047
 21
      120.010043
 31
        0.000000
  0
LINE
  8
LVL0000
  6
CONTINUOUS
 10
      111.260047
 20
      120.010043
 30
        0.000000
 11
      113.239946
 21
      121.989942
 31
        0.000000
  0
LINE
  8
LVL0000
  6
CONTINUOUS
 10
      185.050000
 20
       55.500275
 30
        0.000000
 11
      187.650000
 21
       55.500275
 31
        0.000000
  0
ARC
  8
LVL0000
  6
CONTINUOUS
 10
      192.650000
 20
       58.400275
 30
        0.000000
 40
        2.000000
 50
      270.000000
 51
      450.000000
  0
LINE
  8
LVL0000
  6
CONTINUOUS
 10
      187.650000
 20
       56.400275
 30
        0.000000
 11
      192.650000
 21
       56.400275
 31
        0.000000
  0
LINE
  8
LVL0000
  6
CONTINUOUS
 10
      187.650000
 20
       60.400275
 30
        0.000000
 11
      192.650000
 21
       60.400275
 31
        0.000000
  0
LINE
  8
LVL0000
  6
CONTINUOUS
 10
      185.050000
 20
      -53.499725
 30
        0.000000
 11
      185.050000
 21
       55.500275
 31
        0.000000
  0
LINE
  8
LVL0000
  6
CONTINUOUS
 10
      187.650000
 20
       55.500275
 30
        0.000000
 11
      187.650000
 21
       64.999895
 31
        0.000000
  0
LINE
  8
LVL0000
  6
CONTINUOUS
 10
      118.250156
 20
       38.000275
 30
        0.000000
 11
      118.250156
 21
       24.000275
 31
        0.000000
  0
LINE
  8
LVL0000
  6
CONTINUOUS
 10
      117.250156
 20
       38.000275
 30
        0.000000
 11
      118.250156
 21
       38.000275
 31
        0.000000
  0
LINE
  8
LVL0000
  6
CONTINUOUS
 10
      117.250156
 20
       24.000275
 30
        0.000000
 11
      118.250156
 21
       24.000275
 31
        0.000000
  0
LINE
  8
LVL0000
  6
CONTINUOUS
 10
      121.550156
 20
       40.500275
 30
        0.000000
 11
      124.050156
 21
       40.500275
 31
        0.000000
  0
LINE
  8
LVL0000
  6
CONTINUOUS
 10
      121.550156
 20
       21.500275
 30
        0.000000
 11
      124.050156
 21
       21.500275
 31
        0.000000
  0
LINE
  8
LVL0000
  6
CONTINUOUS
 10
      121.550156
 20
       40.500275
 30
        0.000000
 11
      121.550156
 21
       21.500275
 31
        0.000000
  0
LINE
  8
LVL0000
  6
CONTINUOUS
 10
      124.050156
 20
       40.500275
 30
        0.000000
 11
      124.050156
 21
       21.500275
 31
        0.000000
  0
LINE
  8
LVL0000
  6
CONTINUOUS
 10
       85.250000
 20
       40.500000
 30
        0.000000
 11
       86.750000
 21
       39.000000
 31
        0.000000
  0
LINE
  8
LVL0000
  6
CONTINUOUS
 10
       85.250000
 20
       40.500000
 30
        0.000000
 11
       85.250000
 21
       57.000000
 31
        0.000000
  0
LINE
  8
LVL0000
  6
CONTINUOUS
 10
       88.250000
 20
       39.000000
 30
        0.000000
 11
       86.750000
 21
       39.000000
 31
        0.000000
  0
LINE
  8
LVL0000
  6
CONTINUOUS
 10
       87.250000
 20
       38.000000
 30
        0.000000
 11
       87.250000
 21
       39.000000
 31
        0.000000
  0
LINE
  8
LVL0000
  6
CONTINUOUS
 10
      117.250156
 20
       65.000275
 30
        0.000000
 11
      117.250156
 21
      -64.999725
 31
        0.000000
  0
ARC
  8
LVL0000
  6
CONTINUOUS
 10
       85.750000
 20
       37.500000
 30
        0.000000
 40
        0.500000
 50
       90.000000
 51
      180.000010
  0
LINE
  8
LVL0000
  6
CONTINUOUS
 10
       88.250000
 20
       38.000000
 30
        0.000000
 11
       85.750000
 21
       38.000000
 31
        0.000000
  0
LINE
  8
LVL0000
  6
CONTINUOUS
 10
       88.250000
 20
       38.000000
 30
        0.000000
 11
       88.250000
 21
       57.000000
 31
        0.000000
  0
LINE
  8
LVL0000
  6
CONTINUOUS
 10
       88.250000
 20
       57.000000
 30
        0.000000
 11
       85.250000
 21
       57.000000
 31
        0.000000
  0
LINE
  8
LVL0000
  6
CONTINUOUS
 10
      117.250000
 20
      -65.000000
 30
        0.000000
 11
      117.250000
 21
       65.000000
 31
        0.000000
  0
LINE
  8
LVL0000
  6
CONTINUOUS
 10
      187.650000
 20
      -60.999725
 30
        0.000000
 11
      189.150000
 21
      -61.999725
 31
        0.000000
  0
LINE
  8
LVL0000
  6
CONTINUOUS
 10
      189.150000
 20
      -61.999725
 30
        0.000000
 11
      190.150000
 21
      -61.999725
 31
        0.000000
  0
LINE
  8
LVL0000
  6
CONTINUOUS
 10
      185.050000
 20
      -53.499725
 30
        0.000000
 11
      190.150000
 21
      -57.499725
 31
        0.000000
  0
LINE
  8
LVL0000
  6
CONTINUOUS
 10
      190.150000
 20
      -61.999725
 30
        0.000000
 11
      190.150000
 21
      -57.499725
 31
        0.000000
  0
LINE
  8
LVL0000
  6
CONTINUOUS
 10
      187.650000
 20
      -60.999725
 30
        0.000000
 11
      187.650000
 21
      -59.999725
 31
        0.000000
  0
LINE
  8
LVL0000
  6
CONTINUOUS
 10
      185.050000
 20
      -53.499725
 30
        0.000000
 11
      184.550000
 21
      -59.999725
 31
        0.000000
  0
LINE
  8
LVL0000
  6
CONTINUOUS
 10
      184.550000
 20
      -59.999725
 30
        0.000000
 11
      182.550000
 21
      -65.000000
 31
        0.000000
  0
LINE
  8
LVL0000
  6
CONTINUOUS
 10
      184.550000
 20
      -59.999725
 30
        0.000000
 11
      187.650000
 21
      -59.999725
 31
        0.000000
  0
LINE
  8
LVL0000
  6
CONTINUOUS
 10
      118.250156
 20
      -34.999725
 30
        0.000000
 11
      118.250156
 21
      -48.999725
 31
        0.000000
  0
LINE
  8
LVL0000
  6
CONTINUOUS
 10
      117.250156
 20
      -34.999725
 30
        0.000000
 11
      118.250156
 21
      -34.999725
 31
        0.000000
  0
LINE
  8
LVL0000
  6
CONTINUOUS
 10
      117.250156
 20
      -48.999725
 30
        0.000000
 11
      118.250156
 21
      -48.999725
 31
        0.000000
  0
LINE
  8
LVL0000
  6
CONTINUOUS
 10
      121.550156
 20
      -51.499725
 30
        0.000000
 11
      124.050156
 21
      -51.499725
 31
        0.000000
  0
LINE
  8
LVL0000
  6
CONTINUOUS
 10
      121.550156
 20
      -32.499725
 30
        0.000000
 11
      124.050156
 21
      -32.499725
 31
        0.000000
  0
LINE
  8
LVL0000
  6
CONTINUOUS
 10
      121.550156
 20
      -32.499725
 30
        0.000000
 11
      121.550156
 21
      -51.499725
 31
        0.000000
  0
LINE
  8
LVL0000
  6
CONTINUOUS
 10
      124.050156
 20
      -32.499725
 30
        0.000000
 11
      124.050156
 21
      -51.499725
 31
        0.000000
  0
LINE
  8
LVL0000
  6
CONTINUOUS
 10
      117.250156
 20
      -12.716034
 30
        0.000000
 11
      117.250156
 21
      -13.532928
 31
        0.000000
  0
LINE
  8
LVL0000
  6
CONTINUOUS
 10
      117.250156
 20
      -12.716034
 30
        0.000000
 11
      117.250156
 21
      -13.532928
 31
        0.000000
  0
LINE
  8
LVL0000
  6
CONTINUOUS
 10
      126.799964
 20
      -12.249713
 30
        0.000000
 11
      176.299964
 21
      -12.249713
 31
        0.000000
  0
LINE
  8
LVL0000
  6
CONTINUOUS
 10
      126.799964
 20
       12.250287
 30
        0.000000
 11
      126.799964
 21
      -12.249713
 31
        0.000000
  0
LINE
  8
LVL0000
  6
CONTINUOUS
 10
      176.299964
 20
      -12.249713
 30
        0.000000
 11
      176.299964
 21
       12.250287
 31
        0.000000
  0
LINE
  8
LVL0000
  6
CONTINUOUS
 10
      176.299964
 20
       12.250287
 30
        0.000000
 11
      126.799964
 21
       12.250287
 31
        0.000000
  0
LINE
  8
LVL0000
  6
CONTINUOUS
 10
       19.006622
 20
       -4.159912
 30
        0.000000
 11
       17.563263
 21
       -6.659912
 31
        0.000000
  0
LINE
  8
LVL0000
  6
CONTINUOUS
 10
       17.563263
 20
       -6.659912
 30
        0.000000
 11
       19.006622
 21
       -9.159973
 31
        0.000000
  0
LINE
  8
LVL0000
  6
CONTINUOUS
 10
       19.006622
 20
       -9.159973
 30
        0.000000
 11
       21.893372
 21
       -9.159973
 31
        0.000000
  0
LINE
  8
LVL0000
  6
CONTINUOUS
 10
       21.893372
 20
       -9.159973
 30
        0.000000
 11
       23.336761
 21
       -6.659973
 31
        0.000000
  0
LINE
  8
LVL0000
  6
CONTINUOUS
 10
       23.336761
 20
       -6.659973
 30
        0.000000
 11
       21.893372
 21
       -4.159912
 31
        0.000000
  0
LINE
  8
LVL0000
  6
CONTINUOUS
 10
       21.893372
 20
       -4.159912
 30
        0.000000
 11
       19.006622
 21
       -4.159912
 31
        0.000000
  0
LINE
  8
LVL0000
  6
CONTINUOUS
 10
       17.563263
 20
       26.660034
 30
        0.000000
 11
       19.006622
 21
       24.160034
 31
        0.000000
  0
LINE
  8
LVL0000
  6
CONTINUOUS
 10
       19.006622
 20
       29.160034
 30
        0.000000
 11
       17.563263
 21
       26.660034
 31
        0.000000
  0
LINE
  8
LVL0000
  6
CONTINUOUS
 10
       21.893402
 20
       29.160034
 30
        0.000000
 11
       19.006622
 21
       29.160034
 31
        0.000000
  0
LINE
  8
LVL0000
  6
CONTINUOUS
 10
       23.336761
 20
       26.660034
 30
        0.000000
 11
       21.893402
 21
       29.160034
 31
        0.000000
  0
LINE
  8
LVL0000
  6
CONTINUOUS
 10
       21.893402
 20
       24.160034
 30
        0.000000
 11
       23.336761
 21
       26.660034
 31
        0.000000
  0
LINE
  8
LVL0000
  6
CONTINUOUS
 10
       19.006622
 20
       24.160034
 30
        0.000000
 11
       21.893402
 21
       24.160034
 31
        0.000000
  0
CIRCLE
  8
LVL0000
  6
CONTINUOUS
 10
       21.869995
 20
        1.770081
 30
        0.000000
 40
        0.500000
  0
CIRCLE
  8
LVL0000
  6
CONTINUOUS
 10
       21.869995
 20
        4.510071
 30
        0.000000
 40
        0.500000
  0
CIRCLE
  8
LVL0000
  6
CONTINUOUS
 10
       21.869995
 20
        7.260071
 30
        0.000000
 40
        0.500000
  0
CIRCLE
  8
LVL0000
  6
CONTINUOUS
 10
       21.869995
 20
       10.000061
 30
        0.000000
 40
        0.500000
  0
CIRCLE
  8
LVL0000
  6
CONTINUOUS
 10
       21.869995
 20
       12.740051
 30
        0.000000
 40
        0.500000
  0
CIRCLE
  8
LVL0000
  6
CONTINUOUS
 10
       21.869995
 20
       15.490051
 30
        0.000000
 40
        0.500000
  0
CIRCLE
  8
LVL0000
  6
CONTINUOUS
 10
       19.030029
 20
        0.400085
 30
        0.000000
 40
        0.500000
  0
CIRCLE
  8
LVL0000
  6
CONTINUOUS
 10
       19.030029
 20
        3.140076
 30
        0.000000
 40
        0.500000
  0
CIRCLE
  8
LVL0000
  6
CONTINUOUS
 10
       19.030029
 20
        5.890076
 30
        0.000000
 40
        0.500000
  0
CIRCLE
  8
LVL0000
  6
CONTINUOUS
 10
       19.030029
 20
        8.630066
 30
        0.000000
 40
        0.500000
  0
CIRCLE
  8
LVL0000
  6
CONTINUOUS
 10
       19.030029
 20
       11.370056
 30
        0.000000
 40
        0.500000
  0
CIRCLE
  8
LVL0000
  6
CONTINUOUS
 10
       19.030029
 20
       14.110046
 30
        0.000000
 40
        0.500000
  0
CIRCLE
  8
LVL0000
  6
CONTINUOUS
 10
       19.030029
 20
       16.860046
 30
        0.000000
 40
        0.500000
  0
CIRCLE
  8
LVL0000
  6
CONTINUOUS
 10
       21.869995
 20
       18.230042
 30
        0.000000
 40
        0.500000
  0
CIRCLE
  8
LVL0000
  6
CONTINUOUS
 10
       19.030029
 20
       19.600037
 30
        0.000000
 40
        0.500000
  0
ARC
  8
LVL0000
  6
CONTINUOUS
 10
       25.750000
 20
       -8.549927
 30
        0.000000
 40
        1.000000
 50
      270.000000
 51
      360.000000
  0
ARC
  8
LVL0000
  6
CONTINUOUS
 10
       15.150024
 20
       -8.549927
 30
        0.000000
 40
        1.000000
 50
      180.000010
 51
      270.000000
  0
ARC
  8
LVL0000
  6
CONTINUOUS
 10
       15.150024
 20
       28.550049
 30
        0.000000
 40
        1.000000
 50
       90.000000
 51
      180.000010
  0
ARC
  8
LVL0000
  6
CONTINUOUS
 10
       25.750000
 20
       28.550049
 30
        0.000000
 40
        1.000000
 50
        0.000000
 51
       90.000000
  0
CIRCLE
  8
LVL0000
  6
CONTINUOUS
 10
       20.450012
 20
       -6.659973
 30
        0.000000
 40
        1.299988
  0
CIRCLE
  8
LVL0000
  6
CONTINUOUS
 10
       20.450012
 20
       26.660034
 30
        0.000000
 40
        1.299988
  0
ARC
  8
LVL0000
  6
CONTINUOUS
 10
       22.760010
 20
       19.855774
 30
        0.000000
 40
        1.599976
 50
        0.000000
 51
       80.000030
  0
LINE
  8
LVL0000
  6
CONTINUOUS
 10
       18.140015
 20
       22.295105
 30
        0.000000
 11
       23.037842
 21
       21.431458
 31
        0.000000
  0
ARC
  8
LVL0000
  6
CONTINUOUS
 10
       18.140015
 20
       20.695068
 30
        0.000000
 40
        1.599976
 50
       90.000000
 51
      180.000010
  0
LINE
  8
LVL0000
  6
CONTINUOUS
 10
       16.540039
 20
       20.695068
 30
        0.000000
 11
       16.540039
 21
       -0.694946
 31
        0.000000
  0
ARC
  8
LVL0000
  6
CONTINUOUS
 10
       18.140015
 20
       -0.694946
 30
        0.000000
 40
        1.599976
 50
      180.000010
 51
      270.000000
  0
LINE
  8
LVL0000
  6
CONTINUOUS
 10
       18.140015
 20
       -2.294983
 30
        0.000000
 11
       23.037842
 21
       -1.431335
 31
        0.000000
  0
ARC
  8
LVL0000
  6
CONTINUOUS
 10
       22.760010
 20
        0.144348
 30
        0.000000
 40
        1.599990
 50
      279.999892
 51
      360.000000
  0
LINE
  8
LVL0000
  6
CONTINUOUS
 10
       24.360046
 20
       19.855774
 30
        0.000000
 11
       24.360046
 21
        0.144348
 31
        0.000000
  0
LINE
  8
LVL0000
  6
CONTINUOUS
 10
       15.150024
 20
       -9.549927
 30
        0.000000
 11
       25.750000
 21
       -9.549927
 31
        0.000000
  0
LINE
  8
LVL0000
  6
CONTINUOUS
 10
       25.750000
 20
       29.550049
 30
        0.000000
 11
       15.150024
 21
       29.550049
 31
        0.000000
  0
LINE
  8
LVL0000
  6
CONTINUOUS
 10
       14.150024
 20
       28.550049
 30
        0.000000
 11
       14.150024
 21
       -8.549927
 31
        0.000000
  0
LINE
  8
LVL0000
  6
CONTINUOUS
 10
       26.750000
 20
       -8.549927
 30
        0.000000
 11
       26.750000
 21
       28.550049
 31
        0.000000
  0
LINE
  8
LVL0000
  6
CONTINUOUS
 10
       -0.500003
 20
      -53.200000
 30
        0.000000
 11
       -2.500003
 21
      -53.200000
 31
        0.000000
  0
LINE
  8
LVL0000
  6
CONTINUOUS
 10
        8.999997
 20
      -53.200000
 30
        0.000000
 11
        6.999997
 21
      -53.200000
 31
        0.000000
  0
LINE
  8
LVL0000
  6
CONTINUOUS
 10
        6.999997
 20
      -53.200000
 30
        0.000000
 11
        6.999997
 21
      -52.000000
 31
        0.000000
  0
LINE
  8
LVL0000
  6
CONTINUOUS
 10
       -0.500003
 20
      -53.200000
 30
        0.000000
 11
       -0.500003
 21
      -52.000000
 31
        0.000000
  0
LINE
  8
LVL0000
  6
CONTINUOUS
 10
        8.999997
 20
      -54.400000
 30
        0.000000
 11
       -2.500003
 21
      -54.400000
 31
        0.000000
  0
LINE
  8
LVL0000
  6
CONTINUOUS
 10
       -0.000003
 20
      -52.000000
 30
        0.000000
 11
       -2.500003
 21
      -52.000000
 31
        0.000000
  0
LINE
  8
LVL0000
  6
CONTINUOUS
 10
        8.999997
 20
      -52.000000
 30
        0.000000
 11
        6.499997
 21
      -52.000000
 31
        0.000000
  0
LINE
  8
LVL0000
  6
CONTINUOUS
 10
       -0.000003
 20
      -51.600000
 30
        0.000000
 11
       -2.500003
 21
      -51.600000
 31
        0.000000
  0
LINE
  8
LVL0000
  6
CONTINUOUS
 10
        8.999997
 20
      -51.600000
 30
        0.000000
 11
        6.499997
 21
      -51.600000
 31
        0.000000
  0
LINE
  8
LVL0000
  6
CONTINUOUS
 10
        8.999997
 20
      -55.000000
 30
        0.000000
 11
       -2.500003
 21
      -55.000000
 31
        0.000000
  0
LINE
  8
LVL0000
  6
CONTINUOUS
 10
        8.999997
 20
        6.500000
 30
        0.000000
 11
       -2.500003
 21
        6.500000
 31
        0.000000
  0
LINE
  8
LVL0000
  6
CONTINUOUS
 10
        8.999997
 20
        5.000000
 30
        0.000000
 11
       -2.500003
 21
        5.000000
 31
        0.000000
  0
LINE
  8
LVL0000
  6
CONTINUOUS
 10
        8.999997
 20
      -55.000000
 30
        0.000000
 11
        8.999997
 21
        6.500000
 31
        0.000000
  0
LINE
  8
LVL0000
  6
CONTINUOUS
 10
       -2.500003
 20
      -55.000000
 30
        0.000000
 11
       -2.500003
 21
        6.500000
 31
        0.000000
  0
LINE
  8
LVL0000
  6
CONTINUOUS
 10
       35.250000
 20
       57.000000
 30
        0.000000
 11
      -35.250000
 21
       57.000000
 31
        0.000000
  0
LINE
  8
LVL0000
  6
CONTINUOUS
 10
       35.250000
 20
       39.000000
 30
        0.000000
 11
       35.250000
 21
       57.000000
 31
        0.000000
  0
LINE
  8
LVL0000
  6
CONTINUOUS
 10
       33.849991
 20
       58.000000
 30
        0.000000
 11
       33.849991
 21
       63.500000
 31
        0.000000
  0
LINE
  8
LVL0000
  6
CONTINUOUS
 10
       33.849991
 20
       63.500000
 30
        0.000000
 11
      -33.850006
 21
       63.500000
 31
        0.000000
  0
LINE
  8
LVL0000
  6
CONTINUOUS
 10
       33.849991
 20
       58.000000
 30
        0.000000
 11
      -33.850006
 21
       58.000000
 31
        0.000000
  0
LINE
  8
LVL0000
  6
CONTINUOUS
 10
       35.250000
 20
       57.000000
 30
        0.000000
 11
      -35.250000
 21
       57.000000
 31
        0.000000
  0
LINE
  8
LVL0000
  6
CONTINUOUS
 10
       34.750000
 20
       65.000000
 30
        0.000000
 11
      -34.750000
 21
       65.000000
 31
        0.000000
  0
ARC
  8
LVL0000
  6
CONTINUOUS
 10
       34.750000
 20
       64.500000
 30
        0.000000
 40
        0.500000
 50
        0.000000
 51
       90.000000
  0
LINE
  8
LVL0000
  6
CONTINUOUS
 10
       35.250000
 20
      -64.500000
 30
        0.000000
 11
       35.250000
 21
       64.500000
 31
        0.000000
  0
LINE
  8
LVL0000
  6
CONTINUOUS
 10
       35.250000
 20
       39.000000
 30
        0.000000
 11
      -35.250000
 21
       39.000000
 31
        0.000000
  0
LINE
  8
LVL0000
  6
CONTINUOUS
 10
       35.250000
 20
       40.500000
 30
        0.000000
 11
      -35.250000
 21
       40.500000
 31
        0.000000
  0
LINE
  8
LVL0000
  6
CONTINUOUS
 10
      -27.750000
 20
       40.500000
 30
        0.000000
 11
      -31.750000
 21
       40.500000
 31
        0.000000
  0
LINE
  8
LVL0000
  6
CONTINUOUS
 10
       -0.250000
 20
       40.500000
 30
        0.000000
 11
      -35.250000
 21
       40.500000
 31
        0.000000
  0
LINE
  8
LVL0000
  6
CONTINUOUS
 10
       -0.250000
 20
       39.000000
 30
        0.000000
 11
      -35.250000
 21
       39.000000
 31
        0.000000
  0
LINE
  8
LVL0000
  6
CONTINUOUS
 10
      -33.850006
 20
       58.000000
 30
        0.000000
 11
      -33.850006
 21
       63.500000
 31
        0.000000
  0
LINE
  8
LVL0000
  6
CONTINUOUS
 10
       35.250000
 20
       38.000000
 30
        0.000000
 11
      -35.250000
 21
       38.000000
 31
        0.000000
  0
ARC
  8
LVL0000
  6
CONTINUOUS
 10
      -34.750000
 20
       64.500000
 30
        0.000000
 40
        0.500000
 50
       90.000000
 51
      180.000010
  0
LINE
  8
LVL0000
  6
CONTINUOUS
 10
      -35.250000
 20
      -64.500000
 30
        0.000000
 11
      -35.250000
 21
       64.500000
 31
        0.000000
  0
LINE
  8
LVL0000
  6
CONTINUOUS
 10
       34.750000
 20
      -65.000000
 30
        0.000000
 11
      -34.750000
 21
      -65.000000
 31
        0.000000
  0
ARC
  8
LVL0000
  6
CONTINUOUS
 10
      -34.750000
 20
      -64.500000
 30
        0.000000
 40
        0.500000
 50
      180.000010
 51
      270.000000
  0
CIRCLE
  8
LVL0000
  6
CONTINUOUS
 10
        5.250000
 20
      -60.000000
 30
        0.000000
 40
        2.300000
  0
LINE
  8
LVL0000
  6
CONTINUOUS
 10
       -3.750000
 20
       40.500000
 30
        0.000000
 11
       -7.750000
 21
       40.500000
 31
        0.000000
  0
LINE
  8
LVL0000
  6
CONTINUOUS
 10
        7.750000
 20
       40.500000
 30
        0.000000
 11
        3.750000
 21
       40.500000
 31
        0.000000
  0
LINE
  8
LVL0000
  6
CONTINUOUS
 10
       31.750000
 20
       40.500000
 30
        0.000000
 11
       27.750000
 21
       40.500000
 31
        0.000000
  0
LINE
  8
LVL0000
  6
CONTINUOUS
 10
       11.449997
 20
      -11.500000
 30
        0.000000
 11
       11.449997
 21
       31.500000
 31
        0.000000
  0
LINE
  8
LVL0000
  6
CONTINUOUS
 10
       13.000153
 20
       36.500275
 30
        0.000000
 11
       11.000153
 21
       37.500275
 31
        0.000000
  0
LINE
  8
LVL0000
  6
CONTINUOUS
 10
       13.000153
 20
       33.000275
 30
        0.000000
 11
       11.000153
 21
       32.000275
 31
        0.000000
  0
LINE
  8
LVL0000
  6
CONTINUOUS
 10
       19.000153
 20
       33.000275
 30
        0.000000
 11
       21.000153
 21
       32.000275
 31
        0.000000
  0
LINE
  8
LVL0000
  6
CONTINUOUS
 10
       21.000153
 20
       37.500275
 30
        0.000000
 11
       19.000153
 21
       36.500275
 31
        0.000000
  0
LINE
  8
LVL0000
  6
CONTINUOUS
 10
       10.449997
 20
      -11.199997
 30
        0.000000
 11
       10.449997
 21
       31.199997
 31
        0.000000
  0
ARC
  8
LVL0000
  6
CONTINUOUS
 10
       10.750000
 20
       31.199997
 30
        0.000000
 40
        0.300000
 50
       90.000000
 51
      180.000010
  0
LINE
  8
LVL0000
  6
CONTINUOUS
 10
       30.149994
 20
       31.500000
 30
        0.000000
 11
       10.750000
 21
       31.500000
 31
        0.000000
  0
LINE
  8
LVL0000
  6
CONTINUOUS
 10
       18.000153
 20
       33.750275
 30
        0.000000
 11
       18.000153
 21
       35.750275
 31
        0.000000
  0
LINE
  8
LVL0000
  6
CONTINUOUS
 10
       18.550140
 20
       33.750275
 30
        0.000000
 11
       18.550140
 21
       35.750275
 31
        0.000000
  0
LINE
  8
LVL0000
  6
CONTINUOUS
 10
       15.450165
 20
       33.750275
 30
        0.000000
 11
       15.450165
 21
       35.750275
 31
        0.000000
  0
LINE
  8
LVL0000
  6
CONTINUOUS
 10
       16.000153
 20
       33.750275
 30
        0.000000
 11
       16.000153
 21
       35.750275
 31
        0.000000
  0
LINE
  8
LVL0000
  6
CONTINUOUS
 10
       18.550140
 20
       33.750275
 30
        0.000000
 11
       15.450165
 21
       33.750275
 31
        0.000000
  0
LINE
  8
LVL0000
  6
CONTINUOUS
 10
       18.550140
 20
       35.750275
 30
        0.000000
 11
       15.450165
 21
       35.750275
 31
        0.000000
  0
LINE
  8
LVL0000
  6
CONTINUOUS
 10
       11.000153
 20
       32.000275
 30
        0.000000
 11
       11.000153
 21
       37.500275
 31
        0.000000
  0
LINE
  8
LVL0000
  6
CONTINUOUS
 10
       21.000153
 20
       32.000275
 30
        0.000000
 11
       21.000153
 21
       37.500275
 31
        0.000000
  0
LINE
  8
LVL0000
  6
CONTINUOUS
 10
       21.000153
 20
       32.000275
 30
        0.000000
 11
       11.000153
 21
       32.000275
 31
        0.000000
  0
LINE
  8
LVL0000
  6
CONTINUOUS
 10
       21.000153
 20
       37.500275
 30
        0.000000
 11
       11.000153
 21
       37.500275
 31
        0.000000
  0
LINE
  8
LVL0000
  6
CONTINUOUS
 10
       19.000153
 20
       33.000275
 30
        0.000000
 11
       19.000153
 21
       36.500275
 31
        0.000000
  0
LINE
  8
LVL0000
  6
CONTINUOUS
 10
       13.000153
 20
       33.000275
 30
        0.000000
 11
       13.000153
 21
       36.500275
 31
        0.000000
  0
LINE
  8
LVL0000
  6
CONTINUOUS
 10
       19.000153
 20
       36.500275
 30
        0.000000
 11
       13.000153
 21
       36.500275
 31
        0.000000
  0
LINE
  8
LVL0000
  6
CONTINUOUS
 10
       19.000153
 20
       33.000275
 30
        0.000000
 11
       13.000153
 21
       33.000275
 31
        0.000000
  0
LINE
  8
LVL0000
  6
CONTINUOUS
 10
       29.449997
 20
      -11.500000
 30
        0.000000
 11
       29.449997
 21
       31.500000
 31
        0.000000
  0
ARC
  8
LVL0000
  6
CONTINUOUS
 10
       10.750000
 20
      -11.199997
 30
        0.000000
 40
        0.300000
 50
      180.000010
 51
      270.000000
  0
LINE
  8
LVL0000
  6
CONTINUOUS
 10
       30.149994
 20
      -11.500000
 30
        0.000000
 11
       10.750000
 21
      -11.500000
 31
        0.000000
  0
ARC
  8
LVL0000
  6
CONTINUOUS
 10
       30.149994
 20
       31.199997
 30
        0.000000
 40
        0.300000
 50
        0.000000
 51
       90.000000
  0
LINE
  8
LVL0000
  6
CONTINUOUS
 10
       30.449997
 20
      -11.199997
 30
        0.000000
 11
       30.449997
 21
       31.199997
 31
        0.000000
  0
ARC
  8
LVL0000
  6
CONTINUOUS
 10
       30.149994
 20
      -11.199997
 30
        0.000000
 40
        0.300000
 50
      270.000000
 51
      360.000000
  0
ARC
  8
LVL0000
  6
CONTINUOUS
 10
       34.750000
 20
      -64.500000
 30
        0.000000
 40
        0.500000
 50
      270.000000
 51
      360.000000
  0
CIRCLE
  8
LVL0000
  6
CONTINUOUS
 10
       26.250000
 20
       54.000279
 30
        0.000000
 40
        1.500000
  0
LINE
  8
LVL0000
  6
CONTINUOUS
 10
        6.499997
 20
      -54.400000
 30
        0.000000
 11
        6.499997
 21
      -51.600000
 31
        0.000000
  0
CIRCLE
  8
LVL0000
  6
CONTINUOUS
 10
        5.250000
 20
      -60.000000
 30
        0.000000
 40
        1.500000
  0
LINE
  8
LVL0000
  6
CONTINUOUS
 10
       -0.000003
 20
      -54.400000
 30
        0.000000
 11
       -0.000003
 21
      -51.600000
 31
        0.000000
  0
LINE
  8
LVL0000
  6
CONTINUOUS
 10
        0.000000
 20
      -53.250000
 30
        0.000000
 11
       -2.500003
 21
      -53.250000
 31
        0.000000
  0
LINE
  8
LVL0000
  6
CONTINUOUS
 10
        8.999997
 20
      -53.250000
 30
        0.000000
 11
        6.499997
 21
      -53.250000
 31
        0.000000
  0
LINE
  8
LVL0000
 10
        0.000000
 20
       74.460789
 30
        0.000000
 11
        0.000000
 21
      -70.484236
 31
        0.000000
  0
LINE
  8
LVL0000
  6
CONTINUOUS
 10
      111.249992
 20
      153.406242
 30
        0.000000
 11
      113.249992
 21
      153.437492
 31
        0.000000
  0
LINE
  8
LVL0000
  6
CONTINUOUS
 10
      111.250000
 20
       87.093727
 30
        0.000000
 11
      113.249992
 21
       87.062477
 31
        0.000000
  0
LINE
  8
LVL0000
  6
CONTINUOUS
 10
      107.249992
 20
      153.343742
 30
        0.000000
 11
      109.249992
 21
      153.374992
 31
        0.000000
  0
LINE
  8
LVL0000
  6
CONTINUOUS
 10
      107.250000
 20
       87.156227
 30
        0.000000
 11
      109.250000
 21
       87.124977
 31
        0.000000
  0
LINE
  8
LVL0000
  6
CONTINUOUS
 10
      103.249992
 20
      153.281242
 30
        0.000000
 11
      105.249992
 21
      153.312492
 31
        0.000000
  0
LINE
  8
LVL0000
  6
CONTINUOUS
 10
      103.250000
 20
       87.218727
 30
        0.000000
 11
      105.250000
 21
       87.187477
 31
        0.000000
  0
LINE
  8
LVL0000
  6
CONTINUOUS
 10
       99.249992
 20
      153.218742
 30
        0.000000
 11
      101.249992
 21
      153.249992
 31
        0.000000
  0
LINE
  8
LVL0000
  6
CONTINUOUS
 10
       99.250000
 20
       87.281227
 30
        0.000000
 11
      101.250000
 21
       87.249977
 31
        0.000000
  0
LINE
  8
LVL0000
  6
CONTINUOUS
 10
      111.249992
 20
      125.499977
 30
        0.000000
 11
      113.249992
 21
      125.499977
 31
        0.000000
  0
LINE
  8
LVL0000
  6
CONTINUOUS
 10
      111.250000
 20
      116.499977
 30
        0.000000
 11
      113.250000
 21
      116.499977
 31
        0.000000
  0
LINE
  8
LVL0000
  6
CONTINUOUS
 10
      111.250000
 20
       84.999992
 30
        0.000000
 11
      111.250000
 21
      116.499977
 31
        0.000000
  0
LINE
  8
LVL0000
  6
CONTINUOUS
 10
      111.249992
 20
      125.499977
 30
        0.000000
 11
      111.249992
 21
      155.499992
 31
        0.000000
  0
LINE
  8
LVL0000
  6
CONTINUOUS
 10
      113.250000
 20
       84.999992
 30
        0.000000
 11
      113.250000
 21
      116.499977
 31
        0.000000
  0
LINE
  8
LVL0000
  6
CONTINUOUS
 10
      113.249992
 20
      125.499977
 30
        0.000000
 11
      113.249992
 21
      155.499992
 31
        0.000000
  0
LINE
  8
LVL0000
  6
CONTINUOUS
 10
       97.250000
 20
       84.999992
 30
        0.000000
 11
       97.249992
 21
      155.499992
 31
        0.000000
  0
LINE
  8
LVL0000
  6
CONTINUOUS
 10
       95.250000
 20
       84.999992
 30
        0.000000
 11
       95.249992
 21
      155.499992
 31
        0.000000
  0
LINE
  8
LVL0000
  6
CONTINUOUS
 10
       95.249992
 20
      153.156242
 30
        0.000000
 11
       97.249992
 21
      153.187492
 31
        0.000000
  0
LINE
  8
LVL0000
  6
CONTINUOUS
 10
       95.250000
 20
       87.343727
 30
        0.000000
 11
       97.250000
 21
       87.312477
 31
        0.000000
  0
LINE
  8
LVL0000
  6
CONTINUOUS
 10
      107.249992
 20
      125.499977
 30
        0.000000
 11
      109.249992
 21
      125.499977
 31
        0.000000
  0
LINE
  8
LVL0000
  6
CONTINUOUS
 10
      107.250000
 20
      116.499977
 30
        0.000000
 11
      109.250000
 21
      116.499977
 31
        0.000000
  0
LINE
  8
LVL0000
  6
CONTINUOUS
 10
      103.249992
 20
      125.499977
 30
        0.000000
 11
      105.249992
 21
      125.499977
 31
        0.000000
  0
LINE
  8
LVL0000
  6
CONTINUOUS
 10
      103.250000
 20
      116.499977
 30
        0.000000
 11
      105.250000
 21
      116.499977
 31
        0.000000
  0
LINE
  8
LVL0000
  6
CONTINUOUS
 10
       99.249992
 20
      125.499977
 30
        0.000000
 11
      101.249992
 21
      125.499977
 31
        0.000000
  0
LINE
  8
LVL0000
  6
CONTINUOUS
 10
       99.250000
 20
      116.499977
 30
        0.000000
 11
      101.250000
 21
      116.499977
 31
        0.000000
  0
LINE
  8
LVL0000
  6
CONTINUOUS
 10
       95.249992
 20
      125.499977
 30
        0.000000
 11
       97.249992
 21
      125.499977
 31
        0.000000
  0
LINE
  8
LVL0000
  6
CONTINUOUS
 10
       95.250000
 20
      116.499977
 30
        0.000000
 11
       97.250000
 21
      116.499977
 31
        0.000000
  0
LINE
  8
LVL0000
  6
CONTINUOUS
 10
       95.250000
 20
      117.999977
 30
        0.000000
 11
       97.250000
 21
      117.999977
 31
        0.000000
  0
LINE
  8
LVL0000
  6
CONTINUOUS
 10
       95.249992
 20
      123.999977
 30
        0.000000
 11
       97.249992
 21
      123.999977
 31
        0.000000
  0
LINE
  8
LVL0000
  6
CONTINUOUS
 10
       99.249992
 20
      123.999977
 30
        0.000000
 11
      101.249992
 21
      123.999977
 31
        0.000000
  0
LINE
  8
LVL0000
  6
CONTINUOUS
 10
       99.250000
 20
      117.999977
 30
        0.000000
 11
      101.250000
 21
      117.999977
 31
        0.000000
  0
LINE
  8
LVL0000
  6
CONTINUOUS
 10
      103.249992
 20
      123.999977
 30
        0.000000
 11
      105.249992
 21
      123.999977
 31
        0.000000
  0
LINE
  8
LVL0000
  6
CONTINUOUS
 10
      103.250000
 20
      117.999977
 30
        0.000000
 11
      105.250000
 21
      117.999977
 31
        0.000000
  0
CIRCLE
  8
LVL0000
  6
CONTINUOUS
 10
      112.249992
 20
      120.999977
 30
        0.000000
 40
        2.650000
  0
LINE
  8
LVL0000
  6
CONTINUOUS
 10
       93.250000
 20
       84.999992
 30
        0.000000
 11
       93.249992
 21
      155.499992
 31
        0.000000
  0
LINE
  8
LVL0000
  6
CONTINUOUS
 10
       91.250000
 20
       84.999992
 30
        0.000000
 11
       91.249992
 21
      155.499992
 31
        0.000000
  0
LINE
  8
LVL0000
  6
CONTINUOUS
 10
       91.250000
 20
       87.406227
 30
        0.000000
 11
       93.250000
 21
       87.374977
 31
        0.000000
  0
LINE
  8
LVL0000
  6
CONTINUOUS
 10
       91.250000
 20
      116.499977
 30
        0.000000
 11
       93.250000
 21
      116.499977
 31
        0.000000
  0
LINE
  8
LVL0000
  6
CONTINUOUS
 10
       91.250000
 20
      117.999977
 30
        0.000000
 11
       93.250000
 21
      117.999977
 31
        0.000000
  0
LINE
  8
LVL0000
  6
CONTINUOUS
 10
       91.249992
 20
      123.999977
 30
        0.000000
 11
       93.249992
 21
      123.999977
 31
        0.000000
  0
LINE
  8
LVL0000
  6
CONTINUOUS
 10
       91.249992
 20
      125.499977
 30
        0.000000
 11
       93.249992
 21
      125.499977
 31
        0.000000
  0
LINE
  8
LVL0000
  6
CONTINUOUS
 10
       91.249992
 20
      153.093742
 30
        0.000000
 11
       93.249992
 21
      153.124992
 31
        0.000000
  0
LINE
  8
LVL0000
  6
CONTINUOUS
 10
      117.250000
 20
       84.999992
 30
        0.000000
 11
      117.249992
 21
      155.499992
 31
        0.000000
  0
DIMENSION
  8
LVL0000
  6
CONTINUOUS
 62
  5
  2
BLK0001
 10
      -35.250000
 20
      -77.565193
 11
       -8.000000
 21
      -76.898521
 13
      -35.250000
 23
      -64.500000
 14
       35.250000
 24
      -64.500000
 50
        0.0
 70
  0
  0
DIMENSION
  8
LVL0000
  6
CONTINUOUS
 62
  5
  2
BLK0002
 10
      187.649994
 20
      -77.565201
 11
      126.449997
 21
      -76.898521
 13
      187.649994
 23
       55.500275
 14
       85.250000
 24
      -64.000000
 50
        0.0
 70
  0
  0
DIMENSION
  8
LVL0000
  6
CONTINUOUS
 62
  5
  2
BLK0003
 10
       52.657368
 20
       65.000000
 11
       51.990704
 21
       -6.000000
 13
       34.750000
 23
       65.000000
 14
       34.750000
 24
      -65.000000
 50
       90.0
 70
  0
  0
ENDSEC
  0
EOF
