  0
SECTION
  2
HEADER
  9
$ACADVER
  1
AC1006
  9
$INSBASE
 10
0.0
 20
0.0
 30
0.0
  9
$EXTMIN
 10
      -65.000000
 20
      -65.000000
  9
$EXTMAX
 10
      447.399994
 20
      329.502930
  9
$LIMMIN
 10
      -65.000000
 20
      -65.000000
  9
$LIMMAX
 10
      447.399994
 20
      329.502930
  9
$VIEWCTR
 10
      191.199997
 20
      191.199997
  9
$ORTHOMODE
 70
     0
  9
$ANGBASE
 50
0.0
  9
$ANGDIR
 70
     0
  9
$SPLINETYPE
 70
     6
  9
$SPLINESEGS
 70
     8
9
$DIMASZ
 40
        4.000000
9
$DIMEXE
 40
        0.700000
9
$DIMEXO
 40
        1.000000
9
$DIMTXT
 40
        4.000000
9
$DIMGAP
 40
        0.700000
9
$DIMTAD
 70
1
9
$DIMTIH
 70
0
9
$DIMTOH
 70
0
  0
ENDSEC
  0
SECTION
  2
TABLES
  0
TABLE
  2
LTYPE
 70
     5
  0
LTYPE
  2
CONTINUOUS
 70
    64
  3
SOLID LINE
 72
    65
 73
     0
 40
0.0
  0
LTYPE
  2
DASHED
 70
    64
  3
-- -- -- -- -- --
 72
    65
 73
     2
 40
  0.75  
 49
  0.50  
 49
 -0.25  
  0
LTYPE
  2
DOT
 70
    64
  3
....................
 72
    65
 73
     2
 40
  0.25  
 49
  0.02  
 49
 -0.23  
  0
LTYPE
  2
CENTER
 70
    64
  3
-- . -- . -- . -- .
 72
    65
 73
    4
 40
  2.00  
 49
  1.25  
 49
 -0.25  
 49
  0.25  
 49
 -0.25  
  0
LTYPE
  2
PHANTOM
 70
    64
  3
-- .. -- .. -- ..
 72
    65
 73
    6
 40
  2.50  
 49
  1.25  
 49
 -0.25  
 49
  0.25  
 49
 -0.25  
 49
  0.25  
 49
 -0.25  
  0
ENDTAB
  0
TABLE
  2
LAYER
 70
     1
  0
LAYER
  2
LVL0000
 70
    64
 62
     3
  6
CONTINUOUS
  0
ENDTAB
  0
TABLE
  2
STYLE
 70
     2
  0
STYLE
  2
STANDARD
 70
    64
 40
0.0
 41
1.0
 50
0.0
 71
     0
 42
5.0
  3
ROMANS
  4
BIGFONT
  0
STYLE
  2
BIGFONT
 70
    64
 40
0.0
 41
1.0
 50
0.0
 71
     0
 42
5.0
  3
ROMANS
  4
BIGFONT
  0
ENDTAB
  0
TABLE
  2
VIEW
 70
     0
  0
ENDTAB
  0
TABLE
  2
UCS
 70
     0
  0
ENDTAB
  0
TABLE
  2
DWGMGR
 70
     0
  0
ENDTAB
  0
ENDSEC
  0
SECTION
  2
BLOCKS
  0
BLOCK
  8
0
  2
BLK0001
 70
    64
 10
        0.000000
 20
        0.000000
  0
TEXT
  8
LVL0000
 62
  2
 10
      390.212585
 20
      198.282074
 30
        0.000000
 40
        4.000000
  1
１３０
 50
       90.000000
 41
        0.835000
 51
        0.000000
  7
BIGFONT
  0
LINE
  8
LVL0000
 62
  2
 10
      351.000000
 20
      135.000000
 30
        0.000000
 11
      391.612579
 21
      135.000000
 31
        0.000000
  0
LINE
  8
LVL0000
 62
  2
 10
      351.000000
 20
      265.000000
 30
        0.000000
 11
      391.612579
 21
      265.000000
 31
        0.000000
  0
LINE
  8
LVL0000
 62
  2
 10
      389.865356
 20
      139.000000
 30
        0.000000
 11
      390.912567
 21
      135.000000
 31
        0.000000
  0
LINE
  8
LVL0000
 62
  2
 10
      390.912567
 20
      135.000000
 30
        0.000000
 11
      391.959778
 21
      139.000000
 31
        0.000000
  0
LINE
  8
LVL0000
 62
  2
 10
      391.959778
 20
      261.000000
 30
        0.000000
 11
      390.912567
 21
      265.000000
 31
        0.000000
  0
LINE
  8
LVL0000
 62
  2
 10
      390.912567
 20
      265.000000
 30
        0.000000
 11
      389.865356
 21
      261.000000
 31
        0.000000
  0
LINE
  8
LVL0000
 62
  2
 10
      390.912567
 20
      135.000000
 30
        0.000000
 11
      390.912567
 21
      265.000000
 31
        0.000000
  0
ENDBLK
  0
BLOCK
  8
0
  2
BLK0002
 70
    64
 10
        0.000000
 20
        0.000000
  0
TEXT
  8
LVL0000
 62
  2
 10
      157.377945
 20
      118.808243
 30
        0.000000
 40
        4.000000
  1
３８７．５
 50
        0.000000
 41
        0.835000
 51
        0.000000
  7
BIGFONT
  0
LINE
  8
LVL0000
 62
  2
 10
      358.000000
 20
      138.000000
 30
        0.000000
 11
      358.000000
 21
      117.408241
 31
        0.000000
  0
LINE
  8
LVL0000
 62
  2
 10
      -29.500000
 20
      138.000000
 30
        0.000000
 11
      -29.500000
 21
      117.408241
 31
        0.000000
  0
LINE
  8
LVL0000
 62
  2
 10
      354.000000
 20
      117.061043
 30
        0.000000
 11
      358.000000
 21
      118.108238
 31
        0.000000
  0
LINE
  8
LVL0000
 62
  2
 10
      358.000000
 20
      118.108238
 30
        0.000000
 11
      354.000000
 21
      119.155434
 31
        0.000000
  0
LINE
  8
LVL0000
 62
  2
 10
      -25.500000
 20
      119.155434
 30
        0.000000
 11
      -29.500000
 21
      118.108238
 31
        0.000000
  0
LINE
  8
LVL0000
 62
  2
 10
      -29.500000
 20
      118.108238
 30
        0.000000
 11
      -25.500000
 21
      117.061043
 31
        0.000000
  0
LINE
  8
LVL0000
 62
  2
 10
      358.000000
 20
      118.108238
 30
        0.000000
 11
      -29.500000
 21
      118.108238
 31
        0.000000
  0
ENDBLK
  0
BLOCK
  8
0
  2
BLK0003
 70
    64
 10
        0.000000
 20
        0.000000
  0
TEXT
  8
LVL0000
 62
  2
 10
      360.116791
 20
      118.808243
 30
        0.000000
 40
        4.000000
  1
８
 50
        0.000000
 41
        0.835000
 51
        0.000000
  7
BIGFONT
  0
LINE
  8
LVL0000
 62
  2
 10
      358.000000
 20
      137.000000
 30
        0.000000
 11
      358.000000
 21
      117.408241
 31
        0.000000
  0
LINE
  8
LVL0000
 62
  2
 10
      366.000000
 20
      137.000000
 30
        0.000000
 11
      366.000000
 21
      117.408241
 31
        0.000000
  0
LINE
  8
LVL0000
 62
  2
 10
      354.000000
 20
      117.061043
 30
        0.000000
 11
      358.000000
 21
      118.108238
 31
        0.000000
  0
LINE
  8
LVL0000
 62
  2
 10
      358.000000
 20
      118.108238
 30
        0.000000
 11
      354.000000
 21
      119.155434
 31
        0.000000
  0
LINE
  8
LVL0000
 62
  2
 10
      370.000000
 20
      119.155434
 30
        0.000000
 11
      366.000000
 21
      118.108238
 31
        0.000000
  0
LINE
  8
LVL0000
 62
  2
 10
      366.000000
 20
      118.108238
 30
        0.000000
 11
      370.000000
 21
      117.061043
 31
        0.000000
  0
LINE
  8
LVL0000
 62
  2
 10
      352.500000
 20
      118.108238
 30
        0.000000
 11
      371.500000
 21
      118.108238
 31
        0.000000
  0
ENDBLK
  0
BLOCK
  8
0
  2
BLK0004
 70
    64
 10
        0.000000
 20
        0.000000
  0
TEXT
  8
LVL0000
 62
  2
 10
      379.955078
 20
      259.219696
 30
        0.000000
 40
        4.000000
  1
８
 50
       90.000000
 41
        0.835000
 51
        0.000000
  7
BIGFONT
  0
LINE
  8
LVL0000
 62
  2
 10
      351.000000
 20
      265.000000
 30
        0.000000
 11
      381.355072
 21
      265.000000
 31
        0.000000
  0
LINE
  8
LVL0000
 62
  2
 10
      374.271118
 20
      257.000000
 30
        0.000000
 11
      381.355072
 21
      257.000000
 31
        0.000000
  0
LINE
  8
LVL0000
 62
  2
 10
      379.869659
 20
      268.000000
 30
        0.000000
 11
      380.655060
 21
      265.000000
 31
        0.000000
  0
LINE
  8
LVL0000
 62
  2
 10
      380.655060
 20
      265.000000
 30
        0.000000
 11
      381.440460
 21
      268.000000
 31
        0.000000
  0
LINE
  8
LVL0000
 62
  2
 10
      381.440460
 20
      254.000000
 30
        0.000000
 11
      380.655060
 21
      257.000000
 31
        0.000000
  0
LINE
  8
LVL0000
 62
  2
 10
      380.655060
 20
      257.000000
 30
        0.000000
 11
      379.869659
 21
      254.000000
 31
        0.000000
  0
LINE
  8
LVL0000
 62
  2
 10
      380.655060
 20
      270.500000
 30
        0.000000
 11
      380.655060
 21
      251.500000
 31
        0.000000
  0
ENDBLK
  0
BLOCK
  8
0
  2
BLK0005
 70
    64
 10
        0.000000
 20
        0.000000
  0
TEXT
  8
LVL0000
 62
  2
 10
      379.955078
 20
      195.800369
 30
        0.000000
 40
        4.000000
  1
１１８
 50
       90.000000
 41
        0.835000
 51
        0.000000
  7
BIGFONT
  0
LINE
  8
LVL0000
 62
  2
 10
      359.000000
 20
      257.000000
 30
        0.000000
 11
      381.355072
 21
      257.000000
 31
        0.000000
  0
LINE
  8
LVL0000
 62
  2
 10
      359.000000
 20
      139.000000
 30
        0.000000
 11
      381.355072
 21
      139.000000
 31
        0.000000
  0
LINE
  8
LVL0000
 62
  2
 10
      381.440460
 20
      254.000000
 30
        0.000000
 11
      380.655060
 21
      257.000000
 31
        0.000000
  0
LINE
  8
LVL0000
 62
  2
 10
      380.655060
 20
      257.000000
 30
        0.000000
 11
      379.869659
 21
      254.000000
 31
        0.000000
  0
LINE
  8
LVL0000
 62
  2
 10
      379.869659
 20
      142.000000
 30
        0.000000
 11
      380.655060
 21
      139.000000
 31
        0.000000
  0
LINE
  8
LVL0000
 62
  2
 10
      380.655060
 20
      139.000000
 30
        0.000000
 11
      381.440460
 21
      142.000000
 31
        0.000000
  0
LINE
  8
LVL0000
 62
  2
 10
      380.655060
 20
      257.000000
 30
        0.000000
 11
      380.655060
 21
      139.000000
 31
        0.000000
  0
ENDBLK
  0
BLOCK
  8
0
  2
BLK0006
 70
    64
 10
        0.000000
 20
        0.000000
  0
TEXT
  8
LVL0000
 62
  2
 10
      157.719803
 20
      106.614532
 30
        0.000000
 40
        4.000000
  1
４０３．５
 50
        0.000000
 41
        0.835000
 51
        0.000000
  7
BIGFONT
  0
LINE
  8
LVL0000
 62
  2
 10
      366.000000
 20
      138.000000
 30
        0.000000
 11
      366.000000
 21
      105.214531
 31
        0.000000
  0
LINE
  8
LVL0000
 62
  2
 10
      -37.500000
 20
      138.000000
 30
        0.000000
 11
      -37.500000
 21
      105.214531
 31
        0.000000
  0
LINE
  8
LVL0000
 62
  2
 10
      362.000000
 20
      104.867332
 30
        0.000000
 11
      366.000000
 21
      105.914528
 31
        0.000000
  0
LINE
  8
LVL0000
 62
  2
 10
      366.000000
 20
      105.914528
 30
        0.000000
 11
      362.000000
 21
      106.961723
 31
        0.000000
  0
LINE
  8
LVL0000
 62
  2
 10
      -33.500000
 20
      106.961723
 30
        0.000000
 11
      -37.500000
 21
      105.914528
 31
        0.000000
  0
LINE
  8
LVL0000
 62
  2
 10
      -37.500000
 20
      105.914528
 30
        0.000000
 11
      -33.500000
 21
      104.867332
 31
        0.000000
  0
LINE
  8
LVL0000
 62
  2
 10
      366.000000
 20
      105.914528
 30
        0.000000
 11
      -37.500000
 21
      105.914528
 31
        0.000000
  0
ENDBLK
  0
BLOCK
  8
0
  2
BLK0007
 70
    64
 10
        0.000000
 20
        0.000000
  0
TEXT
  8
LVL0000
 62
  2
 10
      450.370209
 20
      274.683044
 30
        0.000000
 40
        4.000000
  1
７．６
 50
        0.000000
 41
        0.835000
 51
        0.000000
  7
BIGFONT
  0
LINE
  8
LVL0000
 62
  2
 10
      439.799988
 20
      266.000000
 30
        0.000000
 11
      439.799988
 21
      274.683044
 31
        0.000000
  0
LINE
  8
LVL0000
 62
  2
 10
      447.399994
 20
      264.399994
 30
        0.000000
 11
      447.399994
 21
      274.683044
 31
        0.000000
  0
LINE
  8
LVL0000
 62
  2
 10
      436.799988
 20
      273.197632
 30
        0.000000
 11
      439.799988
 21
      273.983032
 31
        0.000000
  0
LINE
  8
LVL0000
 62
  2
 10
      439.799988
 20
      273.983032
 30
        0.000000
 11
      436.799988
 21
      274.768433
 31
        0.000000
  0
LINE
  8
LVL0000
 62
  2
 10
      450.399994
 20
      274.768433
 30
        0.000000
 11
      447.399994
 21
      273.983032
 31
        0.000000
  0
LINE
  8
LVL0000
 62
  2
 10
      447.399994
 20
      273.983032
 30
        0.000000
 11
      450.399994
 21
      273.197632
 31
        0.000000
  0
LINE
  8
LVL0000
 62
  2
 10
      462.370209
 20
      273.983032
 30
        0.000000
 11
      434.299988
 21
      273.983032
 31
        0.000000
  0
ENDBLK
  0
ENDSEC
  0
SECTION
  2
ENTITIES
  0
ARC
  8
LVL0000
 10
      -35.500000
 20
      -61.000000
 30
        0.000000
 40
        2.000000
 50
      179.999995
 51
      270.000000
  0
LINE
  8
LVL0000
 10
      -35.500000
 20
      -63.000000
 30
        0.000000
 11
      -32.500000
 21
      -63.000000
 31
        0.000000
  0
LINE
  8
LVL0000
 10
      -37.500000
 20
       61.000000
 30
        0.000000
 11
      -37.500000
 21
      -61.000000
 31
        0.000000
  0
ARC
  8
LVL0000
 10
      -35.500000
 20
       61.000000
 30
        0.000000
 40
        2.000000
 50
       90.000000
 51
      179.999995
  0
LINE
  8
LVL0000
 10
      -35.500000
 20
       63.000000
 30
        0.000000
 11
      -21.500000
 21
       63.000000
 31
        0.000000
  0
ARC
  8
LVL0000
 10
      364.000000
 20
      -61.000000
 30
        0.000000
 40
        2.000000
 50
      270.000000
 51
      360.000000
  0
LINE
  8
LVL0000
 10
      366.000000
 20
       61.000000
 30
        0.000000
 11
      366.000000
 21
      -61.000000
 31
        0.000000
  0
LINE
  8
LVL0000
 10
      361.000000
 20
      -63.000000
 30
        0.000000
 11
      364.000000
 21
      -63.000000
 31
        0.000000
  0
ARC
  8
LVL0000
 10
      364.000000
 20
       61.000000
 30
        0.000000
 40
        2.000000
 50
        0.000000
 51
       90.000000
  0
LINE
  8
LVL0000
 10
      350.000000
 20
       63.000000
 30
        0.000000
 11
      364.000000
 21
       63.000000
 31
        0.000000
  0
ARC
  8
LVL0000
 10
      364.000000
 20
      139.000000
 30
        0.000000
 40
        2.000000
 50
      270.000000
 51
      360.000000
  0
LINE
  8
LVL0000
 10
      366.000000
 20
      261.000000
 30
        0.000000
 11
      366.000000
 21
      139.000000
 31
        0.000000
  0
LINE
  8
LVL0000
 10
      361.000000
 20
      137.000000
 30
        0.000000
 11
      364.000000
 21
      137.000000
 31
        0.000000
  0
ARC
  8
LVL0000
 10
      -35.500000
 20
      139.000000
 30
        0.000000
 40
        2.000000
 50
      179.999995
 51
      270.000000
  0
LINE
  8
LVL0000
 10
      -35.500000
 20
      137.000000
 30
        0.000000
 11
      -32.500000
 21
      137.000000
 31
        0.000000
  0
LINE
  8
LVL0000
 10
      -37.500000
 20
      261.000000
 30
        0.000000
 11
      -37.500000
 21
      139.000000
 31
        0.000000
  0
ARC
  8
LVL0000
 10
      -35.500000
 20
      261.000000
 30
        0.000000
 40
        2.000000
 50
       90.000000
 51
      179.999995
  0
LINE
  8
LVL0000
 10
      -35.500000
 20
      263.000000
 30
        0.000000
 11
      -21.500000
 21
      263.000000
 31
        0.000000
  0
ARC
  8
LVL0000
 10
      364.000000
 20
      261.000000
 30
        0.000000
 40
        2.000000
 50
        0.000000
 51
       90.000000
  0
LINE
  8
LVL0000
 10
      350.000000
 20
      263.000000
 30
        0.000000
 11
      364.000000
 21
      263.000000
 31
        0.000000
  0
DIMENSION
  8
LVL0000
 62
  5
  2
BLK0001
 10
      390.912567
 20
      135.000000
 11
      390.212585
 21
      198.282074
 13
      350.000000
 23
      135.000000
 14
      350.000000
 24
      265.000000
 50
       90.0
 70
  0
  0
DIMENSION
  8
LVL0000
 62
  5
  2
BLK0002
 10
      358.000000
 20
      118.108238
 11
      157.377945
 21
      118.808243
 13
      358.000000
 23
      139.000000
 14
      -29.500000
 24
      139.000000
 50
        0.0
 70
  0
  0
DIMENSION
  8
LVL0000
 62
  5
  2
BLK0003
 10
      352.500000
 20
      118.108238
 11
      360.116791
 21
      118.808243
 13
      358.000000
 23
      138.000000
 14
      366.000000
 24
      138.000000
 50
        0.0
 70
  0
  0
DIMENSION
  8
LVL0000
 62
  5
  2
BLK0004
 10
      380.655060
 20
      270.500000
 11
      379.955078
 21
      259.219696
 13
      350.000000
 23
      265.000000
 14
      373.271118
 24
      257.000000
 50
       90.0
 70
  0
  0
DIMENSION
  8
LVL0000
 62
  5
  2
BLK0005
 10
      380.655060
 20
      257.000000
 11
      379.955078
 21
      195.800369
 13
      358.000000
 23
      257.000000
 14
      358.000000
 24
      139.000000
 50
       90.0
 70
  0
  0
LINE
  8
LVL0000
 10
      350.000000
 20
      -38.700006
 30
        0.000000
 11
      350.000000
 21
      -42.300005
 31
        0.000000
  0
LINE
  8
LVL0000
 10
      348.200016
 20
      -40.500025
 30
        0.000000
 11
      351.799984
 21
      -40.500006
 31
        0.000000
  0
CIRCLE
  8
LVL0000
 10
      350.000000
 20
      -40.500015
 30
        0.000000
 40
        2.750000
  0
CIRCLE
  8
LVL0000
 10
      340.000015
 20
      -40.500000
 30
        0.000000
 40
        1.750000
  0
CIRCLE
  8
LVL0000
 10
      340.500015
 20
       50.999969
 30
        0.000000
 40
        2.750000
  0
LINE
  8
LVL0000
 10
      340.500015
 20
       52.799978
 30
        0.000000
 11
      340.500015
 21
       49.199980
 31
        0.000000
  0
LINE
  8
LVL0000
 10
      339.000000
 20
       50.999962
 30
        0.000000
 11
      342.299999
 21
       50.999979
 31
        0.000000
  0
LINE
  8
LVL0000
 10
      345.000015
 20
       49.499985
 30
        0.000000
 11
      366.000015
 21
       49.499985
 31
        0.000000
  0
LINE
  8
LVL0000
 10
      337.000000
 20
       54.499969
 30
        0.000000
 11
      345.000015
 21
       54.499969
 31
        0.000000
  0
LINE
  8
LVL0000
 10
      345.000015
 20
       49.499985
 30
        0.000000
 11
      345.000015
 21
       54.499985
 31
        0.000000
  0
LINE
  8
LVL0000
 10
      345.000000
 20
       54.499985
 30
        0.000000
 11
      345.000000
 21
       49.499985
 31
        0.000000
  0
LINE
  8
LVL0000
 10
      -21.500000
 20
      -65.000000
 30
        0.000000
 11
      350.000000
 21
      -65.000000
 31
        0.000000
  0
LINE
  8
LVL0000
 10
      350.000000
 20
      -51.900000
 30
        0.000000
 11
      350.000000
 21
      -65.000000
 31
        0.000000
  0
LINE
  8
LVL0000
 10
      337.000000
 20
      -55.000000
 30
        0.000000
 11
      350.000000
 21
      -55.000000
 31
        0.000000
  0
LINE
  8
LVL0000
 10
      337.000000
 20
      -44.000000
 30
        0.000000
 11
      366.000015
 21
      -44.000000
 31
        0.000000
  0
LINE
  8
LVL0000
 10
      337.000000
 20
      -44.000015
 30
        0.000000
 11
      366.000015
 21
      -44.000015
 31
        0.000000
  0
LINE
  8
LVL0000
 10
      363.500000
 20
      -46.900000
 30
        0.000000
 11
      337.000000
 21
      -46.900000
 31
        0.000000
  0
LINE
  8
LVL0000
 10
      363.500000
 20
      -51.900000
 30
        0.000000
 11
      350.000000
 21
      -51.900000
 31
        0.000000
  0
LINE
  8
LVL0000
 10
      364.400000
 20
      -46.900000
 30
        0.000000
 11
      366.000000
 21
      -46.900000
 31
        0.000000
  0
ARC
  8
LVL0000
 10
      358.000000
 20
      -61.000000
 30
        0.000000
 40
        3.000000
 50
        0.000000
 51
      179.999995
  0
LINE
  8
LVL0000
 10
      355.000000
 20
      -61.000000
 30
        0.000000
 11
      355.000000
 21
      -63.000000
 31
        0.000000
  0
LINE
  8
LVL0000
 10
      361.000000
 20
      -61.000000
 30
        0.000000
 11
      361.000000
 21
      -63.000000
 31
        0.000000
  0
LINE
  8
LVL0000
 10
      350.000000
 20
      -63.000000
 30
        0.000000
 11
      355.000000
 21
      -63.000000
 31
        0.000000
  0
LINE
  8
LVL0000
 10
      364.400000
 20
      -44.000015
 30
        0.000000
 11
      364.400000
 21
      -46.900000
 31
        0.000000
  0
LINE
  8
LVL0000
 10
      363.500000
 20
      -44.000015
 30
        0.000000
 11
      363.500000
 21
      -51.900000
 31
        0.000000
  0
LINE
  8
LVL0000
 10
      -21.500000
 20
       65.000000
 30
        0.000000
 11
      350.000000
 21
       65.000000
 31
        0.000000
  0
LINE
  8
LVL0000
 10
      366.000015
 20
      -44.000015
 30
        0.000000
 11
      366.000015
 21
       49.499969
 31
        0.000000
  0
CIRCLE
  8
LVL0000
 10
      358.000000
 20
       57.000000
 30
        0.000000
 40
        3.000000
  0
LINE
  8
LVL0000
 10
      350.000000
 20
       65.000000
 30
        0.000000
 11
      350.000000
 21
       49.499985
 31
        0.000000
  0
LINE
  8
LVL0000
 10
      350.000015
 20
      307.399994
 30
        0.000000
 11
      350.000015
 21
      315.000000
 31
        0.000000
  0
LINE
  8
LVL0000
 10
      366.000015
 20
      313.400000
 30
        0.000000
 11
      350.000015
 21
      313.400000
 31
        0.000000
  0
LINE
  8
LVL0000
 10
      366.000015
 20
      315.000000
 30
        0.000000
 11
      -37.500002
 21
      315.000000
 31
        0.000000
  0
LINE
  8
LVL0000
 10
      366.000015
 20
      307.399994
 30
        0.000000
 11
      -37.500002
 21
      307.399994
 31
        0.000000
  0
LINE
  8
LVL0000
 10
      366.000015
 20
      305.800000
 30
        0.000000
 11
      -37.500002
 21
      305.800000
 31
        0.000000
  0
LINE
  8
LVL0000
 10
      366.000015
 20
      315.000000
 30
        0.000000
 11
      366.000015
 21
      305.800000
 31
        0.000000
  0
CIRCLE
  8
LVL0000
 10
      330.500015
 20
      250.999969
 30
        0.000000
 40
        1.750000
  0
LINE
  8
LVL0000
 10
      338.700031
 20
      250.999960
 30
        0.000000
 11
      342.299999
 21
      250.999979
 31
        0.000000
  0
LINE
  8
LVL0000
 10
      340.500015
 20
      252.799978
 30
        0.000000
 11
      340.500015
 21
      249.199980
 31
        0.000000
  0
CIRCLE
  8
LVL0000
 10
      340.500015
 20
      250.999969
 30
        0.000000
 40
        2.750000
  0
CIRCLE
  8
LVL0000
 10
      340.000015
 20
      159.500000
 30
        0.000000
 40
        1.750000
  0
CIRCLE
  8
LVL0000
 10
      350.000000
 20
      159.499985
 30
        0.000000
 40
        2.750000
  0
LINE
  8
LVL0000
 10
      348.200016
 20
      159.499975
 30
        0.000000
 11
      351.799984
 21
      159.499994
 31
        0.000000
  0
LINE
  8
LVL0000
 10
      350.000000
 20
      161.299994
 30
        0.000000
 11
      350.000000
 21
      157.699995
 31
        0.000000
  0
LINE
  8
LVL0000
 10
      363.500000
 20
      155.999985
 30
        0.000000
 11
      363.500000
 21
      148.100000
 31
        0.000000
  0
LINE
  8
LVL0000
 10
      364.400000
 20
      155.999985
 30
        0.000000
 11
      364.400000
 21
      153.100000
 31
        0.000000
  0
LINE
  8
LVL0000
 10
      361.000000
 20
      139.000000
 30
        0.000000
 11
      361.000000
 21
      137.000000
 31
        0.000000
  0
LINE
  8
LVL0000
 10
      355.000000
 20
      139.000000
 30
        0.000000
 11
      355.000000
 21
      137.000000
 31
        0.000000
  0
ARC
  8
LVL0000
 10
      358.000000
 20
      139.000000
 30
        0.000000
 40
        3.000000
 50
        0.000000
 51
      179.999995
  0
LINE
  8
LVL0000
 10
      364.400000
 20
      153.100000
 30
        0.000000
 11
      366.000000
 21
      153.100000
 31
        0.000000
  0
LINE
  8
LVL0000
 10
      -37.500000
 20
      155.999985
 30
        0.000000
 11
      366.000000
 21
      155.999985
 31
        0.000000
  0
LINE
  8
LVL0000
 10
      -37.500002
 20
      156.000000
 30
        0.000000
 11
      366.000015
 21
      156.000000
 31
        0.000000
  0
DIMENSION
  8
LVL0000
 62
  5
  2
BLK0006
 10
      366.000000
 20
      105.914528
 11
      157.719803
 21
      106.614532
 13
      366.000000
 23
      139.000000
 14
      -37.500000
 24
      139.000000
 50
        0.0
 70
  0
  0
LINE
  8
LVL0000
 10
      363.500000
 20
      153.100000
 30
        0.000000
 11
      -35.000000
 21
      153.100000
 31
        0.000000
  0
LINE
  8
LVL0000
 10
      330.400000
 20
      145.000000
 30
        0.000000
 11
      350.000000
 21
      145.000000
 31
        0.000000
  0
LINE
  8
LVL0000
 10
      350.000000
 20
      137.000000
 30
        0.000000
 11
      355.000000
 21
      137.000000
 31
        0.000000
  0
LINE
  8
LVL0000
 10
      363.500000
 20
      148.100000
 30
        0.000000
 11
      350.000000
 21
      148.100000
 31
        0.000000
  0
LINE
  8
LVL0000
 10
      -21.500000
 20
      135.000000
 30
        0.000000
 11
      350.000000
 21
      135.000000
 31
        0.000000
  0
LINE
  8
LVL0000
 10
      350.000000
 20
      148.100000
 30
        0.000000
 11
      350.000000
 21
      135.000000
 31
        0.000000
  0
LINE
  8
LVL0000
 10
      -21.500000
 20
      265.000000
 30
        0.000000
 11
      350.000000
 21
      265.000000
 31
        0.000000
  0
LINE
  8
LVL0000
 10
      350.000000
 20
      265.000000
 30
        0.000000
 11
      350.000000
 21
      249.499985
 31
        0.000000
  0
CIRCLE
  8
LVL0000
 10
      358.000000
 20
      257.000000
 30
        0.000000
 40
        3.000000
  0
LINE
  8
LVL0000
 10
      -21.499998
 20
      254.499969
 30
        0.000000
 11
      345.000015
 21
      254.499969
 31
        0.000000
  0
LINE
  8
LVL0000
 10
      345.000015
 20
      249.499985
 30
        0.000000
 11
      345.000015
 21
      254.499985
 31
        0.000000
  0
LINE
  8
LVL0000
 10
      345.000000
 20
      254.499985
 30
        0.000000
 11
      345.000000
 21
      249.499985
 31
        0.000000
  0
LINE
  8
LVL0000
 10
      345.000015
 20
      249.499985
 30
        0.000000
 11
      366.000015
 21
      249.499985
 31
        0.000000
  0
CIRCLE
  8
LVL0000
 10
       76.300003
 20
      244.574982
 30
        0.000000
 40
        1.149994
  0
LINE
  8
LVL0000
 10
       74.449997
 20
      246.429993
 30
        0.000000
 11
       78.149994
 21
      246.429993
 31
        0.000000
  0
LINE
  8
LVL0000
 10
       73.000000
 20
      243.579987
 30
        0.000000
 11
       74.449997
 21
      243.579987
 31
        0.000000
  0
LINE
  8
LVL0000
 10
       78.149994
 20
      243.579987
 30
        0.000000
 11
       80.000000
 21
      243.579987
 31
        0.000000
  0
LINE
  8
LVL0000
 10
       73.899994
 20
      242.129990
 30
        0.000000
 11
       78.699997
 21
      242.129990
 31
        0.000000
  0
LINE
  8
LVL0000
 10
       74.449997
 20
      243.579987
 30
        0.000000
 11
       74.449997
 21
      246.429993
 31
        0.000000
  0
LINE
  8
LVL0000
 10
       78.149994
 20
      243.579987
 30
        0.000000
 11
       78.149994
 21
      246.429993
 31
        0.000000
  0
LINE
  8
LVL0000
 10
       80.000000
 20
      241.629990
 30
        0.000000
 11
       80.000000
 21
      247.129990
 31
        0.000000
  0
LINE
  8
LVL0000
 10
       79.599998
 20
      241.629990
 30
        0.000000
 11
       80.000000
 21
      241.629990
 31
        0.000000
  0
LINE
  8
LVL0000
 10
       73.000000
 20
      247.129990
 30
        0.000000
 11
       80.000000
 21
      247.129990
 31
        0.000000
  0
LINE
  8
LVL0000
 10
       73.899994
 20
      214.000000
 30
        0.000000
 11
       78.699997
 21
      214.000000
 31
        0.000000
  0
CIRCLE
  8
LVL0000
 10
       76.300003
 20
      211.555008
 30
        0.000000
 40
        1.149994
  0
LINE
  8
LVL0000
 10
       74.449997
 20
      209.699997
 30
        0.000000
 11
       78.149994
 21
      209.699997
 31
        0.000000
  0
LINE
  8
LVL0000
 10
       73.000000
 20
      212.550003
 30
        0.000000
 11
       74.449997
 21
      212.550003
 31
        0.000000
  0
LINE
  8
LVL0000
 10
       78.149994
 20
      212.550003
 30
        0.000000
 11
       80.000000
 21
      212.550003
 31
        0.000000
  0
LINE
  8
LVL0000
 10
       74.449997
 20
      212.550003
 30
        0.000000
 11
       74.449997
 21
      209.699997
 31
        0.000000
  0
LINE
  8
LVL0000
 10
       78.149994
 20
      212.550003
 30
        0.000000
 11
       78.149994
 21
      209.699997
 31
        0.000000
  0
LINE
  8
LVL0000
 10
       73.000000
 20
      209.000000
 30
        0.000000
 11
       80.000000
 21
      209.000000
 31
        0.000000
  0
LINE
  8
LVL0000
 10
       80.000000
 20
      214.500000
 30
        0.000000
 11
       80.000000
 21
      209.000000
 31
        0.000000
  0
LINE
  8
LVL0000
 10
       79.599998
 20
      214.500000
 30
        0.000000
 11
       80.000000
 21
      214.500000
 31
        0.000000
  0
LINE
  8
LVL0000
 10
       78.699997
 20
      214.000000
 30
        0.000000
 11
       78.699997
 21
      242.129990
 31
        0.000000
  0
LINE
  8
LVL0000
 10
       73.899994
 20
      214.000000
 30
        0.000000
 11
       73.899994
 21
      242.129990
 31
        0.000000
  0
LINE
  8
LVL0000
 10
       73.000000
 20
      209.000000
 30
        0.000000
 11
       73.000000
 21
      247.129990
 31
        0.000000
  0
LINE
  8
LVL0000
 10
       79.599998
 20
      214.500000
 30
        0.000000
 11
       79.599998
 21
      241.629990
 31
        0.000000
  0
LINE
  8
LVL0000
 10
       77.699997
 20
      215.000000
 30
        0.000000
 11
       77.699997
 21
      241.129990
 31
        0.000000
  0
LINE
  8
LVL0000
 10
       74.899994
 20
      215.000000
 30
        0.000000
 11
       74.899994
 21
      241.129990
 31
        0.000000
  0
LINE
  8
LVL0000
 10
       74.899994
 20
      215.000000
 30
        0.000000
 11
       77.699997
 21
      215.000000
 31
        0.000000
  0
LINE
  8
LVL0000
 10
       74.899994
 20
      241.129990
 30
        0.000000
 11
       77.699997
 21
      241.129990
 31
        0.000000
  0
LINE
  8
LVL0000
 10
      271.600000
 20
      145.000000
 30
        0.000000
 11
      271.600000
 21
      140.000000
 31
        0.000000
  0
LINE
  8
LVL0000
 10
      236.100000
 20
      145.000000
 30
        0.000000
 11
      236.100000
 21
      140.000000
 31
        0.000000
  0
LINE
  8
LVL0000
 10
      259.400000
 20
      145.000000
 30
        0.000000
 11
      259.400000
 21
      140.000000
 31
        0.000000
  0
LINE
  8
LVL0000
 10
      223.900000
 20
      145.000000
 30
        0.000000
 11
      223.900000
 21
      140.000000
 31
        0.000000
  0
LINE
  8
LVL0000
 10
      200.600000
 20
      145.000000
 30
        0.000000
 11
      200.600000
 21
      140.000000
 31
        0.000000
  0
LINE
  8
LVL0000
 10
      165.100000
 20
      145.000000
 30
        0.000000
 11
      165.100000
 21
      140.000000
 31
        0.000000
  0
LINE
  8
LVL0000
 10
      188.400000
 20
      145.000000
 30
        0.000000
 11
      188.400000
 21
      140.000000
 31
        0.000000
  0
LINE
  8
LVL0000
 10
      152.900000
 20
      145.000000
 30
        0.000000
 11
      152.900000
 21
      140.000000
 31
        0.000000
  0
LINE
  8
LVL0000
 10
      129.600000
 20
      145.000000
 30
        0.000000
 11
      129.600000
 21
      140.000000
 31
        0.000000
  0
LINE
  8
LVL0000
 10
       94.100000
 20
      145.000000
 30
        0.000000
 11
       94.100000
 21
      140.000000
 31
        0.000000
  0
LINE
  8
LVL0000
 10
      117.400000
 20
      145.000000
 30
        0.000000
 11
      117.400000
 21
      140.000000
 31
        0.000000
  0
LINE
  8
LVL0000
 10
       81.900000
 20
      145.000000
 30
        0.000000
 11
       81.900000
 21
      140.000000
 31
        0.000000
  0
LINE
  8
LVL0000
 10
       58.600000
 20
      145.000000
 30
        0.000000
 11
       58.600000
 21
      140.000000
 31
        0.000000
  0
LINE
  8
LVL0000
 10
       23.100000
 20
      145.000000
 30
        0.000000
 11
       23.100000
 21
      140.000000
 31
        0.000000
  0
LINE
  8
LVL0000
 10
       46.400000
 20
      145.000000
 30
        0.000000
 11
       46.400000
 21
      140.000000
 31
        0.000000
  0
LINE
  8
LVL0000
 10
       10.900000
 20
      145.000000
 30
        0.000000
 11
       10.900000
 21
      140.000000
 31
        0.000000
  0
LINE
  8
LVL0000
 10
      -12.400000
 20
      145.000000
 30
        0.000000
 11
      -12.400000
 21
      140.000000
 31
        0.000000
  0
CIRCLE
  8
LVL0000
 10
        0.000000
 20
      259.500000
 30
        0.000000
 40
        1.500000
  0
CIRCLE
  8
LVL0000
 10
        0.000000
 20
      259.500000
 30
        0.000000
 40
        2.000000
  0
CIRCLE
  8
LVL0000
 10
       35.500000
 20
      259.500000
 30
        0.000000
 40
        1.500000
  0
CIRCLE
  8
LVL0000
 10
       35.500000
 20
      259.500000
 30
        0.000000
 40
        2.000000
  0
CIRCLE
  8
LVL0000
 10
       71.000000
 20
      259.500000
 30
        0.000000
 40
        1.500000
  0
CIRCLE
  8
LVL0000
 10
       71.000000
 20
      259.500000
 30
        0.000000
 40
        2.000000
  0
CIRCLE
  8
LVL0000
 10
      106.500000
 20
      259.500000
 30
        0.000000
 40
        1.500000
  0
CIRCLE
  8
LVL0000
 10
      106.500000
 20
      259.500000
 30
        0.000000
 40
        2.000000
  0
CIRCLE
  8
LVL0000
 10
      142.000000
 20
      259.500000
 30
        0.000000
 40
        1.500000
  0
CIRCLE
  8
LVL0000
 10
      142.000000
 20
      259.500000
 30
        0.000000
 40
        2.000000
  0
CIRCLE
  8
LVL0000
 10
      177.500000
 20
      259.500000
 30
        0.000000
 40
        1.500000
  0
CIRCLE
  8
LVL0000
 10
      177.500000
 20
      259.500000
 30
        0.000000
 40
        2.000000
  0
CIRCLE
  8
LVL0000
 10
      213.000000
 20
      259.500000
 30
        0.000000
 40
        1.500000
  0
CIRCLE
  8
LVL0000
 10
      213.000000
 20
      259.500000
 30
        0.000000
 40
        2.000000
  0
CIRCLE
  8
LVL0000
 10
      248.500000
 20
      259.500000
 30
        0.000000
 40
        1.500000
  0
CIRCLE
  8
LVL0000
 10
      248.500000
 20
      259.500000
 30
        0.000000
 40
        2.000000
  0
CIRCLE
  8
LVL0000
 10
      284.000000
 20
      259.500000
 30
        0.000000
 40
        1.500000
  0
CIRCLE
  8
LVL0000
 10
      284.000000
 20
      259.500000
 30
        0.000000
 40
        2.000000
  0
LINE
  8
LVL0000
 10
       39.399998
 20
      176.899963
 30
        0.000000
 11
       39.399998
 21
      241.129990
 31
        0.000000
  0
LINE
  8
LVL0000
 10
       42.200001
 20
      176.899963
 30
        0.000000
 11
       42.200001
 21
      241.129990
 31
        0.000000
  0
LINE
  8
LVL0000
 10
       39.399998
 20
      176.899963
 30
        0.000000
 11
       42.200001
 21
      176.899963
 31
        0.000000
  0
LINE
  8
LVL0000
 10
       39.399998
 20
      241.129990
 30
        0.000000
 11
       42.200001
 21
      241.129990
 31
        0.000000
  0
LINE
  8
LVL0000
 10
       43.200001
 20
      175.899963
 30
        0.000000
 11
       43.200001
 21
      242.129990
 31
        0.000000
  0
LINE
  8
LVL0000
 10
       38.399998
 20
      175.899963
 30
        0.000000
 11
       38.399998
 21
      242.129990
 31
        0.000000
  0
LINE
  8
LVL0000
 10
       44.099998
 20
      176.399963
 30
        0.000000
 11
       44.099998
 21
      241.629990
 31
        0.000000
  0
LINE
  8
LVL0000
 10
       37.500000
 20
      170.899979
 30
        0.000000
 11
       44.500000
 21
      170.899979
 31
        0.000000
  0
LINE
  8
LVL0000
 10
       37.500000
 20
      170.899979
 30
        0.000000
 11
       37.500000
 21
      247.129990
 31
        0.000000
  0
LINE
  8
LVL0000
 10
       37.500000
 20
      247.129990
 30
        0.000000
 11
       44.500000
 21
      247.129990
 31
        0.000000
  0
LINE
  8
LVL0000
 10
       44.099998
 20
      176.399963
 30
        0.000000
 11
       44.500000
 21
      176.399963
 31
        0.000000
  0
LINE
  8
LVL0000
 10
       44.500000
 20
      176.399963
 30
        0.000000
 11
       44.500000
 21
      170.899963
 31
        0.000000
  0
LINE
  8
LVL0000
 10
       38.399998
 20
      175.899963
 30
        0.000000
 11
       43.200001
 21
      175.899963
 31
        0.000000
  0
LINE
  8
LVL0000
 10
       42.649998
 20
      174.449966
 30
        0.000000
 11
       42.649998
 21
      171.599960
 31
        0.000000
  0
LINE
  8
LVL0000
 10
       38.950001
 20
      174.449966
 30
        0.000000
 11
       38.950001
 21
      171.599960
 31
        0.000000
  0
LINE
  8
LVL0000
 10
       42.649998
 20
      174.449966
 30
        0.000000
 11
       44.500000
 21
      174.449966
 31
        0.000000
  0
LINE
  8
LVL0000
 10
       37.500000
 20
      174.449966
 30
        0.000000
 11
       38.950001
 21
      174.449966
 31
        0.000000
  0
LINE
  8
LVL0000
 10
       38.950001
 20
      171.599960
 30
        0.000000
 11
       42.649998
 21
      171.599960
 31
        0.000000
  0
CIRCLE
  8
LVL0000
 10
       40.799999
 20
      173.454971
 30
        0.000000
 40
        1.150002
  0
LINE
  8
LVL0000
 10
       44.099998
 20
      241.629990
 30
        0.000000
 11
       44.500000
 21
      241.629990
 31
        0.000000
  0
LINE
  8
LVL0000
 10
       44.500000
 20
      241.629990
 30
        0.000000
 11
       44.500000
 21
      247.129990
 31
        0.000000
  0
LINE
  8
LVL0000
 10
       42.649998
 20
      243.579987
 30
        0.000000
 11
       42.649998
 21
      246.429993
 31
        0.000000
  0
LINE
  8
LVL0000
 10
       38.950001
 20
      243.579987
 30
        0.000000
 11
       38.950001
 21
      246.429993
 31
        0.000000
  0
LINE
  8
LVL0000
 10
       38.399998
 20
      242.129990
 30
        0.000000
 11
       43.200001
 21
      242.129990
 31
        0.000000
  0
LINE
  8
LVL0000
 10
       42.649998
 20
      243.579987
 30
        0.000000
 11
       44.500000
 21
      243.579987
 31
        0.000000
  0
LINE
  8
LVL0000
 10
       37.500000
 20
      243.579987
 30
        0.000000
 11
       38.950001
 21
      243.579987
 31
        0.000000
  0
LINE
  8
LVL0000
 10
       38.950001
 20
      246.429993
 30
        0.000000
 11
       42.649998
 21
      246.429993
 31
        0.000000
  0
CIRCLE
  8
LVL0000
 10
       40.799999
 20
      244.574982
 30
        0.000000
 40
        1.150002
  0
LINE
  8
LVL0000
 10
      -21.500000
 20
      148.100000
 30
        0.000000
 11
      -21.500000
 21
      135.000000
 31
        0.000000
  0
LINE
  8
LVL0000
 10
      110.399994
 20
      241.129990
 30
        0.000000
 11
      113.199997
 21
      241.129990
 31
        0.000000
  0
LINE
  8
LVL0000
 10
      110.399994
 20
      215.000000
 30
        0.000000
 11
      113.199997
 21
      215.000000
 31
        0.000000
  0
LINE
  8
LVL0000
 10
      110.399994
 20
      215.000000
 30
        0.000000
 11
      110.399994
 21
      241.129990
 31
        0.000000
  0
LINE
  8
LVL0000
 10
      113.199997
 20
      215.000000
 30
        0.000000
 11
      113.199997
 21
      241.129990
 31
        0.000000
  0
LINE
  8
LVL0000
 10
      115.099998
 20
      214.500000
 30
        0.000000
 11
      115.099998
 21
      241.629990
 31
        0.000000
  0
LINE
  8
LVL0000
 10
      108.500000
 20
      209.000000
 30
        0.000000
 11
      108.500000
 21
      247.129990
 31
        0.000000
  0
LINE
  8
LVL0000
 10
      109.399994
 20
      214.000000
 30
        0.000000
 11
      109.399994
 21
      242.129990
 31
        0.000000
  0
LINE
  8
LVL0000
 10
      114.199997
 20
      214.000000
 30
        0.000000
 11
      114.199997
 21
      242.129990
 31
        0.000000
  0
LINE
  8
LVL0000
 10
      115.099998
 20
      214.500000
 30
        0.000000
 11
      115.500000
 21
      214.500000
 31
        0.000000
  0
LINE
  8
LVL0000
 10
      115.500000
 20
      214.500000
 30
        0.000000
 11
      115.500000
 21
      209.000000
 31
        0.000000
  0
LINE
  8
LVL0000
 10
      108.500000
 20
      209.000000
 30
        0.000000
 11
      115.500000
 21
      209.000000
 31
        0.000000
  0
LINE
  8
LVL0000
 10
      113.649994
 20
      212.550003
 30
        0.000000
 11
      113.649994
 21
      209.699997
 31
        0.000000
  0
LINE
  8
LVL0000
 10
      109.949997
 20
      212.550003
 30
        0.000000
 11
      109.949997
 21
      209.699997
 31
        0.000000
  0
LINE
  8
LVL0000
 10
      113.649994
 20
      212.550003
 30
        0.000000
 11
      115.500000
 21
      212.550003
 31
        0.000000
  0
LINE
  8
LVL0000
 10
      108.500000
 20
      212.550003
 30
        0.000000
 11
      109.949997
 21
      212.550003
 31
        0.000000
  0
LINE
  8
LVL0000
 10
      109.949997
 20
      209.699997
 30
        0.000000
 11
      113.649994
 21
      209.699997
 31
        0.000000
  0
CIRCLE
  8
LVL0000
 10
      111.800003
 20
      211.555008
 30
        0.000000
 40
        1.149994
  0
LINE
  8
LVL0000
 10
      109.399994
 20
      214.000000
 30
        0.000000
 11
      114.199997
 21
      214.000000
 31
        0.000000
  0
LINE
  8
LVL0000
 10
      108.500000
 20
      247.129990
 30
        0.000000
 11
      115.500000
 21
      247.129990
 31
        0.000000
  0
LINE
  8
LVL0000
 10
      115.099998
 20
      241.629990
 30
        0.000000
 11
      115.500000
 21
      241.629990
 31
        0.000000
  0
LINE
  8
LVL0000
 10
      115.500000
 20
      241.629990
 30
        0.000000
 11
      115.500000
 21
      247.129990
 31
        0.000000
  0
LINE
  8
LVL0000
 10
      113.649994
 20
      243.579987
 30
        0.000000
 11
      113.649994
 21
      246.429993
 31
        0.000000
  0
LINE
  8
LVL0000
 10
      109.949997
 20
      243.579987
 30
        0.000000
 11
      109.949997
 21
      246.429993
 31
        0.000000
  0
LINE
  8
LVL0000
 10
      109.399994
 20
      242.129990
 30
        0.000000
 11
      114.199997
 21
      242.129990
 31
        0.000000
  0
LINE
  8
LVL0000
 10
      113.649994
 20
      243.579987
 30
        0.000000
 11
      115.500000
 21
      243.579987
 31
        0.000000
  0
LINE
  8
LVL0000
 10
      108.500000
 20
      243.579987
 30
        0.000000
 11
      109.949997
 21
      243.579987
 31
        0.000000
  0
LINE
  8
LVL0000
 10
      109.949997
 20
      246.429993
 30
        0.000000
 11
      113.649994
 21
      246.429993
 31
        0.000000
  0
CIRCLE
  8
LVL0000
 10
      111.800003
 20
      244.574982
 30
        0.000000
 40
        1.149994
  0
LINE
  8
LVL0000
 10
      145.899994
 20
      241.129990
 30
        0.000000
 11
      148.699997
 21
      241.129990
 31
        0.000000
  0
LINE
  8
LVL0000
 10
      145.899994
 20
      215.000000
 30
        0.000000
 11
      148.699997
 21
      215.000000
 31
        0.000000
  0
LINE
  8
LVL0000
 10
      145.899994
 20
      215.000000
 30
        0.000000
 11
      145.899994
 21
      241.129990
 31
        0.000000
  0
LINE
  8
LVL0000
 10
      148.699997
 20
      215.000000
 30
        0.000000
 11
      148.699997
 21
      241.129990
 31
        0.000000
  0
LINE
  8
LVL0000
 10
      150.600006
 20
      214.500000
 30
        0.000000
 11
      150.600006
 21
      241.629990
 31
        0.000000
  0
LINE
  8
LVL0000
 10
      144.000000
 20
      209.000000
 30
        0.000000
 11
      144.000000
 21
      247.129990
 31
        0.000000
  0
LINE
  8
LVL0000
 10
      144.899994
 20
      214.000000
 30
        0.000000
 11
      144.899994
 21
      242.129990
 31
        0.000000
  0
LINE
  8
LVL0000
 10
      149.699997
 20
      214.000000
 30
        0.000000
 11
      149.699997
 21
      242.129990
 31
        0.000000
  0
LINE
  8
LVL0000
 10
      150.600006
 20
      214.500000
 30
        0.000000
 11
      151.000000
 21
      214.500000
 31
        0.000000
  0
LINE
  8
LVL0000
 10
      151.000000
 20
      214.500000
 30
        0.000000
 11
      151.000000
 21
      209.000000
 31
        0.000000
  0
LINE
  8
LVL0000
 10
      144.000000
 20
      209.000000
 30
        0.000000
 11
      151.000000
 21
      209.000000
 31
        0.000000
  0
LINE
  8
LVL0000
 10
      149.149994
 20
      212.550003
 30
        0.000000
 11
      149.149994
 21
      209.699997
 31
        0.000000
  0
LINE
  8
LVL0000
 10
      145.449997
 20
      212.550003
 30
        0.000000
 11
      145.449997
 21
      209.699997
 31
        0.000000
  0
LINE
  8
LVL0000
 10
      149.149994
 20
      212.550003
 30
        0.000000
 11
      151.000000
 21
      212.550003
 31
        0.000000
  0
LINE
  8
LVL0000
 10
      144.000000
 20
      212.550003
 30
        0.000000
 11
      145.449997
 21
      212.550003
 31
        0.000000
  0
LINE
  8
LVL0000
 10
      145.449997
 20
      209.699997
 30
        0.000000
 11
      149.149994
 21
      209.699997
 31
        0.000000
  0
CIRCLE
  8
LVL0000
 10
      147.300003
 20
      211.555008
 30
        0.000000
 40
        1.149994
  0
LINE
  8
LVL0000
 10
      144.899994
 20
      214.000000
 30
        0.000000
 11
      149.699997
 21
      214.000000
 31
        0.000000
  0
LINE
  8
LVL0000
 10
      144.000000
 20
      247.129990
 30
        0.000000
 11
      151.000000
 21
      247.129990
 31
        0.000000
  0
LINE
  8
LVL0000
 10
      150.600006
 20
      241.629990
 30
        0.000000
 11
      151.000000
 21
      241.629990
 31
        0.000000
  0
LINE
  8
LVL0000
 10
      151.000000
 20
      241.629990
 30
        0.000000
 11
      151.000000
 21
      247.129990
 31
        0.000000
  0
LINE
  8
LVL0000
 10
      149.149994
 20
      243.579987
 30
        0.000000
 11
      149.149994
 21
      246.429993
 31
        0.000000
  0
LINE
  8
LVL0000
 10
      145.449997
 20
      243.579987
 30
        0.000000
 11
      145.449997
 21
      246.429993
 31
        0.000000
  0
LINE
  8
LVL0000
 10
      144.899994
 20
      242.129990
 30
        0.000000
 11
      149.699997
 21
      242.129990
 31
        0.000000
  0
LINE
  8
LVL0000
 10
      149.149994
 20
      243.579987
 30
        0.000000
 11
      151.000000
 21
      243.579987
 31
        0.000000
  0
LINE
  8
LVL0000
 10
      144.000000
 20
      243.579987
 30
        0.000000
 11
      145.449997
 21
      243.579987
 31
        0.000000
  0
LINE
  8
LVL0000
 10
      145.449997
 20
      246.429993
 30
        0.000000
 11
      149.149994
 21
      246.429993
 31
        0.000000
  0
CIRCLE
  8
LVL0000
 10
      147.300003
 20
      244.574982
 30
        0.000000
 40
        1.149994
  0
LINE
  8
LVL0000
 10
      181.399994
 20
      241.129990
 30
        0.000000
 11
      184.199997
 21
      241.129990
 31
        0.000000
  0
LINE
  8
LVL0000
 10
      181.399994
 20
      215.000000
 30
        0.000000
 11
      184.199997
 21
      215.000000
 31
        0.000000
  0
LINE
  8
LVL0000
 10
      181.399994
 20
      215.000000
 30
        0.000000
 11
      181.399994
 21
      241.129990
 31
        0.000000
  0
LINE
  8
LVL0000
 10
      184.199997
 20
      215.000000
 30
        0.000000
 11
      184.199997
 21
      241.129990
 31
        0.000000
  0
LINE
  8
LVL0000
 10
      186.100006
 20
      214.500000
 30
        0.000000
 11
      186.100006
 21
      241.629990
 31
        0.000000
  0
LINE
  8
LVL0000
 10
      179.500000
 20
      209.000000
 30
        0.000000
 11
      179.500000
 21
      247.129990
 31
        0.000000
  0
LINE
  8
LVL0000
 10
      180.399994
 20
      214.000000
 30
        0.000000
 11
      180.399994
 21
      242.129990
 31
        0.000000
  0
LINE
  8
LVL0000
 10
      185.199997
 20
      214.000000
 30
        0.000000
 11
      185.199997
 21
      242.129990
 31
        0.000000
  0
LINE
  8
LVL0000
 10
      186.100006
 20
      214.500000
 30
        0.000000
 11
      186.500000
 21
      214.500000
 31
        0.000000
  0
LINE
  8
LVL0000
 10
      186.500000
 20
      214.500000
 30
        0.000000
 11
      186.500000
 21
      209.000000
 31
        0.000000
  0
LINE
  8
LVL0000
 10
      179.500000
 20
      209.000000
 30
        0.000000
 11
      186.500000
 21
      209.000000
 31
        0.000000
  0
LINE
  8
LVL0000
 10
      184.649994
 20
      212.550003
 30
        0.000000
 11
      184.649994
 21
      209.699997
 31
        0.000000
  0
LINE
  8
LVL0000
 10
      180.949997
 20
      212.550003
 30
        0.000000
 11
      180.949997
 21
      209.699997
 31
        0.000000
  0
LINE
  8
LVL0000
 10
      184.649994
 20
      212.550003
 30
        0.000000
 11
      186.500000
 21
      212.550003
 31
        0.000000
  0
LINE
  8
LVL0000
 10
      179.500000
 20
      212.550003
 30
        0.000000
 11
      180.949997
 21
      212.550003
 31
        0.000000
  0
LINE
  8
LVL0000
 10
      180.949997
 20
      209.699997
 30
        0.000000
 11
      184.649994
 21
      209.699997
 31
        0.000000
  0
CIRCLE
  8
LVL0000
 10
      182.800003
 20
      211.555008
 30
        0.000000
 40
        1.149994
  0
LINE
  8
LVL0000
 10
      180.399994
 20
      214.000000
 30
        0.000000
 11
      185.199997
 21
      214.000000
 31
        0.000000
  0
LINE
  8
LVL0000
 10
      179.500000
 20
      247.129990
 30
        0.000000
 11
      186.500000
 21
      247.129990
 31
        0.000000
  0
LINE
  8
LVL0000
 10
      186.100006
 20
      241.629990
 30
        0.000000
 11
      186.500000
 21
      241.629990
 31
        0.000000
  0
LINE
  8
LVL0000
 10
      186.500000
 20
      241.629990
 30
        0.000000
 11
      186.500000
 21
      247.129990
 31
        0.000000
  0
LINE
  8
LVL0000
 10
      184.649994
 20
      243.579987
 30
        0.000000
 11
      184.649994
 21
      246.429993
 31
        0.000000
  0
LINE
  8
LVL0000
 10
      180.949997
 20
      243.579987
 30
        0.000000
 11
      180.949997
 21
      246.429993
 31
        0.000000
  0
LINE
  8
LVL0000
 10
      180.399994
 20
      242.129990
 30
        0.000000
 11
      185.199997
 21
      242.129990
 31
        0.000000
  0
LINE
  8
LVL0000
 10
      184.649994
 20
      243.579987
 30
        0.000000
 11
      186.500000
 21
      243.579987
 31
        0.000000
  0
LINE
  8
LVL0000
 10
      179.500000
 20
      243.579987
 30
        0.000000
 11
      180.949997
 21
      243.579987
 31
        0.000000
  0
LINE
  8
LVL0000
 10
      180.949997
 20
      246.429993
 30
        0.000000
 11
      184.649994
 21
      246.429993
 31
        0.000000
  0
CIRCLE
  8
LVL0000
 10
      182.800003
 20
      244.574982
 30
        0.000000
 40
        1.149994
  0
LINE
  8
LVL0000
 10
        5.707108
 20
      240.457886
 30
        0.000000
 11
        7.121323
 21
      239.043671
 31
        0.000000
  0
ARC
  8
LVL0000
 10
        5.000000
 20
      239.750778
 30
        0.000000
 40
        1.000001
 50
       45.000000
 51
      180.000010
  0
ARC
  8
LVL0000
 10
        5.000000
 20
      236.922348
 30
        0.000000
 40
        3.000000
 50
        0.000000
 51
       45.000051
  0
LINE
  8
LVL0000
 10
        3.000000
 20
      243.564987
 30
        0.000000
 11
        9.000000
 21
      243.564987
 31
        0.000000
  0
LINE
  8
LVL0000
 10
        3.000000
 20
      209.064987
 30
        0.000000
 11
        9.000000
 21
      209.064987
 31
        0.000000
  0
LINE
  8
LVL0000
 10
        9.000000
 20
      243.564987
 30
        0.000000
 11
        9.000000
 21
      209.064987
 31
        0.000000
  0
LINE
  8
LVL0000
 10
        3.000000
 20
      243.564987
 30
        0.000000
 11
        3.000000
 21
      209.064987
 31
        0.000000
  0
ARC
  8
LVL0000
 10
        5.000000
 20
      212.879196
 30
        0.000000
 40
        1.000000
 50
      180.000010
 51
      315.000020
  0
LINE
  8
LVL0000
 10
        4.000000
 20
      239.750778
 30
        0.000000
 11
        4.000000
 21
      212.879196
 31
        0.000000
  0
LINE
  8
LVL0000
 10
        5.707108
 20
      212.172089
 30
        0.000000
 11
        7.121323
 21
      213.586304
 31
        0.000000
  0
ARC
  8
LVL0000
 10
        5.000000
 20
      215.707626
 30
        0.000000
 40
        3.000004
 50
      315.000020
 51
      360.000000
  0
LINE
  8
LVL0000
 10
        8.000000
 20
      236.922348
 30
        0.000000
 11
        8.000000
 21
      215.707626
 31
        0.000000
  0
LINE
  8
LVL0000
 10
      216.899994
 20
      241.129990
 30
        0.000000
 11
      219.699997
 21
      241.129990
 31
        0.000000
  0
LINE
  8
LVL0000
 10
      216.899994
 20
      215.000000
 30
        0.000000
 11
      219.699997
 21
      215.000000
 31
        0.000000
  0
LINE
  8
LVL0000
 10
      216.899994
 20
      215.000000
 30
        0.000000
 11
      216.899994
 21
      241.129990
 31
        0.000000
  0
LINE
  8
LVL0000
 10
      219.699997
 20
      215.000000
 30
        0.000000
 11
      219.699997
 21
      241.129990
 31
        0.000000
  0
LINE
  8
LVL0000
 10
      221.600006
 20
      214.500000
 30
        0.000000
 11
      221.600006
 21
      241.629990
 31
        0.000000
  0
LINE
  8
LVL0000
 10
      215.000000
 20
      209.000000
 30
        0.000000
 11
      215.000000
 21
      247.129990
 31
        0.000000
  0
LINE
  8
LVL0000
 10
      215.899994
 20
      214.000000
 30
        0.000000
 11
      215.899994
 21
      242.129990
 31
        0.000000
  0
LINE
  8
LVL0000
 10
      220.699997
 20
      214.000000
 30
        0.000000
 11
      220.699997
 21
      242.129990
 31
        0.000000
  0
LINE
  8
LVL0000
 10
      221.600006
 20
      214.500000
 30
        0.000000
 11
      222.000000
 21
      214.500000
 31
        0.000000
  0
LINE
  8
LVL0000
 10
      222.000000
 20
      214.500000
 30
        0.000000
 11
      222.000000
 21
      209.000000
 31
        0.000000
  0
LINE
  8
LVL0000
 10
      215.000000
 20
      209.000000
 30
        0.000000
 11
      222.000000
 21
      209.000000
 31
        0.000000
  0
LINE
  8
LVL0000
 10
      220.149994
 20
      212.550003
 30
        0.000000
 11
      220.149994
 21
      209.699997
 31
        0.000000
  0
LINE
  8
LVL0000
 10
      216.449997
 20
      212.550003
 30
        0.000000
 11
      216.449997
 21
      209.699997
 31
        0.000000
  0
LINE
  8
LVL0000
 10
      220.149994
 20
      212.550003
 30
        0.000000
 11
      222.000000
 21
      212.550003
 31
        0.000000
  0
LINE
  8
LVL0000
 10
      215.000000
 20
      212.550003
 30
        0.000000
 11
      216.449997
 21
      212.550003
 31
        0.000000
  0
LINE
  8
LVL0000
 10
      216.449997
 20
      209.699997
 30
        0.000000
 11
      220.149994
 21
      209.699997
 31
        0.000000
  0
CIRCLE
  8
LVL0000
 10
      218.300003
 20
      211.555008
 30
        0.000000
 40
        1.149994
  0
LINE
  8
LVL0000
 10
      215.899994
 20
      214.000000
 30
        0.000000
 11
      220.699997
 21
      214.000000
 31
        0.000000
  0
LINE
  8
LVL0000
 10
      215.000000
 20
      247.129990
 30
        0.000000
 11
      222.000000
 21
      247.129990
 31
        0.000000
  0
LINE
  8
LVL0000
 10
      221.600006
 20
      241.629990
 30
        0.000000
 11
      222.000000
 21
      241.629990
 31
        0.000000
  0
LINE
  8
LVL0000
 10
      222.000000
 20
      241.629990
 30
        0.000000
 11
      222.000000
 21
      247.129990
 31
        0.000000
  0
LINE
  8
LVL0000
 10
      220.149994
 20
      243.579987
 30
        0.000000
 11
      220.149994
 21
      246.429993
 31
        0.000000
  0
LINE
  8
LVL0000
 10
      216.449997
 20
      243.579987
 30
        0.000000
 11
      216.449997
 21
      246.429993
 31
        0.000000
  0
LINE
  8
LVL0000
 10
      215.899994
 20
      242.129990
 30
        0.000000
 11
      220.699997
 21
      242.129990
 31
        0.000000
  0
LINE
  8
LVL0000
 10
      220.149994
 20
      243.579987
 30
        0.000000
 11
      222.000000
 21
      243.579987
 31
        0.000000
  0
LINE
  8
LVL0000
 10
      215.000000
 20
      243.579987
 30
        0.000000
 11
      216.449997
 21
      243.579987
 31
        0.000000
  0
LINE
  8
LVL0000
 10
      216.449997
 20
      246.429993
 30
        0.000000
 11
      220.149994
 21
      246.429993
 31
        0.000000
  0
CIRCLE
  8
LVL0000
 10
      218.300003
 20
      244.574982
 30
        0.000000
 40
        1.149994
  0
LINE
  8
LVL0000
 10
      252.399994
 20
      241.129990
 30
        0.000000
 11
      255.199997
 21
      241.129990
 31
        0.000000
  0
LINE
  8
LVL0000
 10
      252.399994
 20
      215.000000
 30
        0.000000
 11
      255.199997
 21
      215.000000
 31
        0.000000
  0
LINE
  8
LVL0000
 10
      252.399994
 20
      215.000000
 30
        0.000000
 11
      252.399994
 21
      241.129990
 31
        0.000000
  0
LINE
  8
LVL0000
 10
      255.199997
 20
      215.000000
 30
        0.000000
 11
      255.199997
 21
      241.129990
 31
        0.000000
  0
LINE
  8
LVL0000
 10
      257.100006
 20
      214.500000
 30
        0.000000
 11
      257.100006
 21
      241.629990
 31
        0.000000
  0
LINE
  8
LVL0000
 10
      250.500000
 20
      209.000000
 30
        0.000000
 11
      250.500000
 21
      247.129990
 31
        0.000000
  0
LINE
  8
LVL0000
 10
      251.399994
 20
      214.000000
 30
        0.000000
 11
      251.399994
 21
      242.129990
 31
        0.000000
  0
LINE
  8
LVL0000
 10
      256.199997
 20
      214.000000
 30
        0.000000
 11
      256.199997
 21
      242.129990
 31
        0.000000
  0
LINE
  8
LVL0000
 10
      257.100006
 20
      214.500000
 30
        0.000000
 11
      257.500000
 21
      214.500000
 31
        0.000000
  0
LINE
  8
LVL0000
 10
      257.500000
 20
      214.500000
 30
        0.000000
 11
      257.500000
 21
      209.000000
 31
        0.000000
  0
LINE
  8
LVL0000
 10
      250.500000
 20
      209.000000
 30
        0.000000
 11
      257.500000
 21
      209.000000
 31
        0.000000
  0
LINE
  8
LVL0000
 10
      255.649994
 20
      212.550003
 30
        0.000000
 11
      255.649994
 21
      209.699997
 31
        0.000000
  0
LINE
  8
LVL0000
 10
      251.949997
 20
      212.550003
 30
        0.000000
 11
      251.949997
 21
      209.699997
 31
        0.000000
  0
LINE
  8
LVL0000
 10
      255.649994
 20
      212.550003
 30
        0.000000
 11
      257.500000
 21
      212.550003
 31
        0.000000
  0
LINE
  8
LVL0000
 10
      250.500000
 20
      212.550003
 30
        0.000000
 11
      251.949997
 21
      212.550003
 31
        0.000000
  0
LINE
  8
LVL0000
 10
      251.949997
 20
      209.699997
 30
        0.000000
 11
      255.649994
 21
      209.699997
 31
        0.000000
  0
CIRCLE
  8
LVL0000
 10
      253.800003
 20
      211.555008
 30
        0.000000
 40
        1.149994
  0
LINE
  8
LVL0000
 10
      251.399994
 20
      214.000000
 30
        0.000000
 11
      256.199997
 21
      214.000000
 31
        0.000000
  0
LINE
  8
LVL0000
 10
      250.500000
 20
      247.129990
 30
        0.000000
 11
      257.500000
 21
      247.129990
 31
        0.000000
  0
LINE
  8
LVL0000
 10
      257.100006
 20
      241.629990
 30
        0.000000
 11
      257.500000
 21
      241.629990
 31
        0.000000
  0
LINE
  8
LVL0000
 10
      257.500000
 20
      241.629990
 30
        0.000000
 11
      257.500000
 21
      247.129990
 31
        0.000000
  0
LINE
  8
LVL0000
 10
      255.649994
 20
      243.579987
 30
        0.000000
 11
      255.649994
 21
      246.429993
 31
        0.000000
  0
LINE
  8
LVL0000
 10
      251.949997
 20
      243.579987
 30
        0.000000
 11
      251.949997
 21
      246.429993
 31
        0.000000
  0
LINE
  8
LVL0000
 10
      251.399994
 20
      242.129990
 30
        0.000000
 11
      256.199997
 21
      242.129990
 31
        0.000000
  0
LINE
  8
LVL0000
 10
      255.649994
 20
      243.579987
 30
        0.000000
 11
      257.500000
 21
      243.579987
 31
        0.000000
  0
LINE
  8
LVL0000
 10
      250.500000
 20
      243.579987
 30
        0.000000
 11
      251.949997
 21
      243.579987
 31
        0.000000
  0
LINE
  8
LVL0000
 10
      251.949997
 20
      246.429993
 30
        0.000000
 11
      255.649994
 21
      246.429993
 31
        0.000000
  0
CIRCLE
  8
LVL0000
 10
      253.800003
 20
      244.574982
 30
        0.000000
 40
        1.149994
  0
LINE
  8
LVL0000
 10
      287.899994
 20
      241.129990
 30
        0.000000
 11
      290.700012
 21
      241.129990
 31
        0.000000
  0
LINE
  8
LVL0000
 10
      287.899994
 20
      215.000000
 30
        0.000000
 11
      290.700012
 21
      215.000000
 31
        0.000000
  0
LINE
  8
LVL0000
 10
      287.899994
 20
      215.000000
 30
        0.000000
 11
      287.899994
 21
      241.129990
 31
        0.000000
  0
LINE
  8
LVL0000
 10
      290.700012
 20
      215.000000
 30
        0.000000
 11
      290.700012
 21
      241.129990
 31
        0.000000
  0
LINE
  8
LVL0000
 10
      292.600006
 20
      214.500000
 30
        0.000000
 11
      292.600006
 21
      241.629990
 31
        0.000000
  0
LINE
  8
LVL0000
 10
      286.000000
 20
      209.000000
 30
        0.000000
 11
      286.000000
 21
      247.129990
 31
        0.000000
  0
LINE
  8
LVL0000
 10
      286.899994
 20
      214.000000
 30
        0.000000
 11
      286.899994
 21
      242.129990
 31
        0.000000
  0
LINE
  8
LVL0000
 10
      291.700012
 20
      214.000000
 30
        0.000000
 11
      291.700012
 21
      242.129990
 31
        0.000000
  0
LINE
  8
LVL0000
 10
      292.600006
 20
      214.500000
 30
        0.000000
 11
      293.000000
 21
      214.500000
 31
        0.000000
  0
LINE
  8
LVL0000
 10
      293.000000
 20
      214.500000
 30
        0.000000
 11
      293.000000
 21
      209.000000
 31
        0.000000
  0
LINE
  8
LVL0000
 10
      286.000000
 20
      209.000000
 30
        0.000000
 11
      293.000000
 21
      209.000000
 31
        0.000000
  0
LINE
  8
LVL0000
 10
      291.149994
 20
      212.550003
 30
        0.000000
 11
      291.149994
 21
      209.699997
 31
        0.000000
  0
LINE
  8
LVL0000
 10
      287.450012
 20
      212.550003
 30
        0.000000
 11
      287.450012
 21
      209.699997
 31
        0.000000
  0
LINE
  8
LVL0000
 10
      291.149994
 20
      212.550003
 30
        0.000000
 11
      293.000000
 21
      212.550003
 31
        0.000000
  0
LINE
  8
LVL0000
 10
      286.000000
 20
      212.550003
 30
        0.000000
 11
      287.450012
 21
      212.550003
 31
        0.000000
  0
LINE
  8
LVL0000
 10
      287.450012
 20
      209.699997
 30
        0.000000
 11
      291.149994
 21
      209.699997
 31
        0.000000
  0
CIRCLE
  8
LVL0000
 10
      289.299988
 20
      211.555008
 30
        0.000000
 40
        1.150024
  0
LINE
  8
LVL0000
 10
      286.899994
 20
      214.000000
 30
        0.000000
 11
      291.700012
 21
      214.000000
 31
        0.000000
  0
LINE
  8
LVL0000
 10
      286.000000
 20
      247.129990
 30
        0.000000
 11
      293.000000
 21
      247.129990
 31
        0.000000
  0
LINE
  8
LVL0000
 10
      292.600006
 20
      241.629990
 30
        0.000000
 11
      293.000000
 21
      241.629990
 31
        0.000000
  0
LINE
  8
LVL0000
 10
      293.000000
 20
      241.629990
 30
        0.000000
 11
      293.000000
 21
      247.129990
 31
        0.000000
  0
LINE
  8
LVL0000
 10
      291.149994
 20
      243.579987
 30
        0.000000
 11
      291.149994
 21
      246.429993
 31
        0.000000
  0
LINE
  8
LVL0000
 10
      287.450012
 20
      243.579987
 30
        0.000000
 11
      287.450012
 21
      246.429993
 31
        0.000000
  0
LINE
  8
LVL0000
 10
      286.899994
 20
      242.129990
 30
        0.000000
 11
      291.700012
 21
      242.129990
 31
        0.000000
  0
LINE
  8
LVL0000
 10
      291.149994
 20
      243.579987
 30
        0.000000
 11
      293.000000
 21
      243.579987
 31
        0.000000
  0
LINE
  8
LVL0000
 10
      286.000000
 20
      243.579987
 30
        0.000000
 11
      287.450012
 21
      243.579987
 31
        0.000000
  0
LINE
  8
LVL0000
 10
      287.450012
 20
      246.429993
 30
        0.000000
 11
      291.149994
 21
      246.429993
 31
        0.000000
  0
CIRCLE
  8
LVL0000
 10
      289.299988
 20
      244.574982
 30
        0.000000
 40
        1.150024
  0
CIRCLE
  8
LVL0000
 10
      149.500000
 20
      160.999985
 30
        0.000000
 40
        2.500000
  0
CIRCLE
  8
LVL0000
 10
      291.500000
 20
      160.999985
 30
        0.000000
 40
        2.500000
  0
CIRCLE
  8
LVL0000
 10
      220.500015
 20
      161.000000
 30
        0.000000
 40
        2.500000
  0
LINE
  8
LVL0000
 10
      -32.500000
 20
      187.999985
 30
        0.000000
 11
      -19.500000
 21
      187.999985
 31
        0.000000
  0
LINE
  8
LVL0000
 10
      -32.500000
 20
      187.999985
 30
        0.000000
 11
      -32.500000
 21
      167.999985
 31
        0.000000
  0
LINE
  8
LVL0000
 10
      -19.500000
 20
      187.999985
 30
        0.000000
 11
      -19.500000
 21
      167.999985
 31
        0.000000
  0
LINE
  8
LVL0000
 10
      -32.500000
 20
      167.999985
 30
        0.000000
 11
      -19.500000
 21
      167.999985
 31
        0.000000
  0
LINE
  8
LVL0000
 10
      -32.500000
 20
      187.149979
 30
        0.000000
 11
      -20.800003
 21
      187.149979
 31
        0.000000
  0
LINE
  8
LVL0000
 10
      -20.800003
 20
      187.999985
 30
        0.000000
 11
      -20.800003
 21
      187.149979
 31
        0.000000
  0
LINE
  8
LVL0000
 10
      -32.500000
 20
      185.849991
 30
        0.000000
 11
      -20.800003
 21
      185.849991
 31
        0.000000
  0
LINE
  8
LVL0000
 10
      -20.800003
 20
      185.849991
 30
        0.000000
 11
      -20.800003
 21
      178.649979
 31
        0.000000
  0
LINE
  8
LVL0000
 10
      -32.500000
 20
      178.649979
 30
        0.000000
 11
      -20.800003
 21
      178.649979
 31
        0.000000
  0
LINE
  8
LVL0000
 10
      -32.500000
 20
      177.349991
 30
        0.000000
 11
      -20.800003
 21
      177.349991
 31
        0.000000
  0
LINE
  8
LVL0000
 10
      -20.800003
 20
      177.349991
 30
        0.000000
 11
      -20.800003
 21
      170.149979
 31
        0.000000
  0
LINE
  8
LVL0000
 10
      -32.500000
 20
      170.149979
 30
        0.000000
 11
      -20.800003
 21
      170.149979
 31
        0.000000
  0
LINE
  8
LVL0000
 10
      -32.500000
 20
      168.849991
 30
        0.000000
 11
      -20.800003
 21
      168.849991
 31
        0.000000
  0
LINE
  8
LVL0000
 10
      -20.800003
 20
      168.849991
 30
        0.000000
 11
      -20.800003
 21
      167.999985
 31
        0.000000
  0
LINE
  8
LVL0000
 10
      -29.099998
 20
      185.849991
 30
        0.000000
 11
      -29.099998
 21
      178.649979
 31
        0.000000
  0
LINE
  8
LVL0000
 10
      -29.099998
 20
      177.349991
 30
        0.000000
 11
      -29.099998
 21
      170.149979
 31
        0.000000
  0
LINE
  8
LVL0000
 10
      -21.900002
 20
      185.849991
 30
        0.000000
 11
      -21.900002
 21
      178.649979
 31
        0.000000
  0
LINE
  8
LVL0000
 10
      -21.900002
 20
      177.349991
 30
        0.000000
 11
      -21.900002
 21
      170.149979
 31
        0.000000
  0
CIRCLE
  8
LVL0000
 10
      -25.500000
 20
      182.249985
 30
        0.000000
 40
        3.000000
  0
CIRCLE
  8
LVL0000
 10
      -25.500000
 20
      173.749985
 30
        0.000000
 40
        3.000000
  0
LINE
  8
LVL0000
 10
      -29.099998
 20
      176.249985
 30
        0.000000
 11
      -29.599998
 21
      176.249985
 31
        0.000000
  0
LINE
  8
LVL0000
 10
      -29.599998
 20
      176.249985
 30
        0.000000
 11
      -29.599998
 21
      171.249985
 31
        0.000000
  0
LINE
  8
LVL0000
 10
      -21.400002
 20
      176.249985
 30
        0.000000
 11
      -21.900002
 21
      176.249985
 31
        0.000000
  0
LINE
  8
LVL0000
 10
      -21.400002
 20
      176.249985
 30
        0.000000
 11
      -21.400002
 21
      171.249985
 31
        0.000000
  0
LINE
  8
LVL0000
 10
      -21.400002
 20
      184.749985
 30
        0.000000
 11
      -21.900002
 21
      184.749985
 31
        0.000000
  0
LINE
  8
LVL0000
 10
      -21.400002
 20
      184.749985
 30
        0.000000
 11
      -21.400002
 21
      179.749985
 31
        0.000000
  0
LINE
  8
LVL0000
 10
      -29.099998
 20
      184.749985
 30
        0.000000
 11
      -29.599998
 21
      184.749985
 31
        0.000000
  0
LINE
  8
LVL0000
 10
      -29.599998
 20
      184.749985
 30
        0.000000
 11
      -29.599998
 21
      179.749985
 31
        0.000000
  0
LINE
  8
LVL0000
 10
      -29.099998
 20
      179.749985
 30
        0.000000
 11
      -29.599998
 21
      179.749985
 31
        0.000000
  0
LINE
  8
LVL0000
 10
      -21.400002
 20
      179.749985
 30
        0.000000
 11
      -21.900002
 21
      179.749985
 31
        0.000000
  0
LINE
  8
LVL0000
 10
      -21.400002
 20
      171.249985
 30
        0.000000
 11
      -21.900002
 21
      171.249985
 31
        0.000000
  0
LINE
  8
LVL0000
 10
      -29.099998
 20
      171.249985
 30
        0.000000
 11
      -29.599998
 21
      171.249985
 31
        0.000000
  0
LINE
  8
LVL0000
 10
      -27.621323
 20
      180.128662
 30
        0.000000
 11
      -23.378677
 21
      184.371307
 31
        0.000000
  0
LINE
  8
LVL0000
 10
      -26.560661
 20
      183.310654
 30
        0.000000
 11
      -24.439346
 21
      181.189316
 31
        0.000000
  0
LINE
  8
LVL0000
 10
      -27.621323
 20
      171.628662
 30
        0.000000
 11
      -23.378677
 21
      175.871307
 31
        0.000000
  0
LINE
  8
LVL0000
 10
      -26.560661
 20
      174.810654
 30
        0.000000
 11
      -24.439346
 21
      172.689316
 31
        0.000000
  0
CIRCLE
  8
LVL0000
 10
      185.000002
 20
      160.999985
 30
        0.000000
 40
        2.500000
  0
CIRCLE
  8
LVL0000
 10
      114.000002
 20
      160.999985
 30
        0.000000
 40
        2.500000
  0
CIRCLE
  8
LVL0000
 10
      256.000017
 20
      160.999985
 30
        0.000000
 40
        2.500000
  0
CIRCLE
  8
LVL0000
 10
      272.500002
 20
      159.499985
 30
        0.000000
 40
        2.750000
  0
CIRCLE
  8
LVL0000
 10
      201.500002
 20
      159.499985
 30
        0.000000
 40
        2.750000
  0
CIRCLE
  8
LVL0000
 10
      130.500002
 20
      159.499985
 30
        0.000000
 40
        2.750000
  0
CIRCLE
  8
LVL0000
 10
       59.500002
 20
      159.499985
 30
        0.000000
 40
        2.750000
  0
CIRCLE
  8
LVL0000
 10
      -25.499998
 20
      159.499985
 30
        0.000000
 40
        2.750000
  0
CIRCLE
  8
LVL0000
 10
      272.500002
 20
      250.999969
 30
        0.000000
 40
        2.750000
  0
CIRCLE
  8
LVL0000
 10
      201.500002
 20
      250.999969
 30
        0.000000
 40
        2.750000
  0
CIRCLE
  8
LVL0000
 10
      130.500002
 20
      250.999969
 30
        0.000000
 40
        2.750000
  0
CIRCLE
  8
LVL0000
 10
       59.500002
 20
      250.999969
 30
        0.000000
 40
        2.750000
  0
CIRCLE
  8
LVL0000
 10
      -17.499998
 20
      250.999969
 30
        0.000000
 40
        2.750000
  0
LINE
  8
LVL0000
 10
      -25.499998
 20
      161.299984
 30
        0.000000
 11
      -25.499998
 21
      157.699986
 31
        0.000000
  0
LINE
  8
LVL0000
 10
      -27.299982
 20
      159.499966
 30
        0.000000
 11
      -23.700014
 21
      159.499985
 31
        0.000000
  0
LINE
  8
LVL0000
 10
      -19.299982
 20
      250.999960
 30
        0.000000
 11
      -15.700014
 21
      250.999979
 31
        0.000000
  0
LINE
  8
LVL0000
 10
      -17.499998
 20
      252.799978
 30
        0.000000
 11
      -17.499998
 21
      249.199980
 31
        0.000000
  0
LINE
  8
LVL0000
 10
       59.500002
 20
      252.799978
 30
        0.000000
 11
       59.500002
 21
      249.199980
 31
        0.000000
  0
LINE
  8
LVL0000
 10
       57.700018
 20
      250.999960
 30
        0.000000
 11
       61.299986
 21
      250.999979
 31
        0.000000
  0
LINE
  8
LVL0000
 10
       57.700018
 20
      159.499975
 30
        0.000000
 11
       61.299986
 21
      159.499994
 31
        0.000000
  0
LINE
  8
LVL0000
 10
       59.500002
 20
      161.299994
 30
        0.000000
 11
       59.500002
 21
      157.699995
 31
        0.000000
  0
LINE
  8
LVL0000
 10
      128.700018
 20
      250.999960
 30
        0.000000
 11
      132.299986
 21
      250.999979
 31
        0.000000
  0
LINE
  8
LVL0000
 10
      130.500002
 20
      252.799978
 30
        0.000000
 11
      130.500002
 21
      249.199980
 31
        0.000000
  0
LINE
  8
LVL0000
 10
      130.500002
 20
      161.299994
 30
        0.000000
 11
      130.500002
 21
      157.699995
 31
        0.000000
  0
LINE
  8
LVL0000
 10
      128.700018
 20
      159.499975
 30
        0.000000
 11
      132.299986
 21
      159.499994
 31
        0.000000
  0
LINE
  8
LVL0000
 10
      199.700018
 20
      159.499975
 30
        0.000000
 11
      203.299986
 21
      159.499994
 31
        0.000000
  0
LINE
  8
LVL0000
 10
      201.500002
 20
      161.299994
 30
        0.000000
 11
      201.500002
 21
      157.699995
 31
        0.000000
  0
LINE
  8
LVL0000
 10
      201.500002
 20
      252.799978
 30
        0.000000
 11
      201.500002
 21
      249.199980
 31
        0.000000
  0
LINE
  8
LVL0000
 10
      199.700018
 20
      250.999960
 30
        0.000000
 11
      203.299986
 21
      250.999979
 31
        0.000000
  0
LINE
  8
LVL0000
 10
      270.700018
 20
      250.999960
 30
        0.000000
 11
      274.299986
 21
      250.999979
 31
        0.000000
  0
LINE
  8
LVL0000
 10
      272.500002
 20
      252.799978
 30
        0.000000
 11
      272.500002
 21
      249.199980
 31
        0.000000
  0
LINE
  8
LVL0000
 10
      272.500002
 20
      161.299994
 30
        0.000000
 11
      272.500002
 21
      157.699995
 31
        0.000000
  0
LINE
  8
LVL0000
 10
      270.700018
 20
      159.499975
 30
        0.000000
 11
      274.299986
 21
      159.499994
 31
        0.000000
  0
LINE
  8
LVL0000
 10
      -37.500000
 20
      249.499985
 30
        0.000000
 11
      -21.500000
 21
      249.499985
 31
        0.000000
  0
CIRCLE
  8
LVL0000
 10
       -7.500000
 20
      250.999985
 30
        0.000000
 40
        1.750000
  0
LINE
  8
LVL0000
 10
      -21.500000
 20
      265.000000
 30
        0.000000
 11
      -21.500000
 21
      249.499985
 31
        0.000000
  0
LINE
  8
LVL0000
 10
      -35.000000
 20
      155.999985
 30
        0.000000
 11
      -35.000000
 21
      148.100000
 31
        0.000000
  0
LINE
  8
LVL0000
 10
      -35.900000
 20
      155.999985
 30
        0.000000
 11
      -35.900000
 21
      153.100000
 31
        0.000000
  0
LINE
  8
LVL0000
 10
      -35.900000
 20
      153.100000
 30
        0.000000
 11
      -37.500000
 21
      153.100000
 31
        0.000000
  0
LINE
  8
LVL0000
 10
      259.400000
 20
      145.000000
 30
        0.000000
 11
      271.600000
 21
      145.000000
 31
        0.000000
  0
LINE
  8
LVL0000
 10
      223.900000
 20
      145.000000
 30
        0.000000
 11
      236.100000
 21
      145.000000
 31
        0.000000
  0
LINE
  8
LVL0000
 10
      188.400000
 20
      145.000000
 30
        0.000000
 11
      200.600000
 21
      145.000000
 31
        0.000000
  0
LINE
  8
LVL0000
 10
      152.900000
 20
      145.000000
 30
        0.000000
 11
      165.100000
 21
      145.000000
 31
        0.000000
  0
LINE
  8
LVL0000
 10
      117.400000
 20
      145.000000
 30
        0.000000
 11
      129.600000
 21
      145.000000
 31
        0.000000
  0
LINE
  8
LVL0000
 10
       81.900000
 20
      145.000000
 30
        0.000000
 11
       94.100000
 21
      145.000000
 31
        0.000000
  0
LINE
  8
LVL0000
 10
       46.400000
 20
      145.000000
 30
        0.000000
 11
       58.600000
 21
      145.000000
 31
        0.000000
  0
LINE
  8
LVL0000
 10
       10.900000
 20
      145.000000
 30
        0.000000
 11
       23.100000
 21
      145.000000
 31
        0.000000
  0
LINE
  8
LVL0000
 10
      -21.500000
 20
      145.000000
 30
        0.000000
 11
      -12.400000
 21
      145.000000
 31
        0.000000
  0
CIRCLE
  8
LVL0000
 10
      -29.500000
 20
      257.000000
 30
        0.000000
 40
        3.000000
  0
ARC
  8
LVL0000
 10
      -29.500000
 20
      139.000000
 30
        0.000000
 40
        3.000000
 50
        0.000000
 51
      179.999995
  0
LINE
  8
LVL0000
 10
      -26.500000
 20
      139.000000
 30
        0.000000
 11
      -26.500000
 21
      137.000000
 31
        0.000000
  0
LINE
  8
LVL0000
 10
      -32.500000
 20
      139.000000
 30
        0.000000
 11
      -32.500000
 21
      137.000000
 31
        0.000000
  0
LINE
  8
LVL0000
 10
      -26.500000
 20
      137.000000
 30
        0.000000
 11
      -21.500000
 21
      137.000000
 31
        0.000000
  0
LINE
  8
LVL0000
 10
      -21.500000
 20
      148.100000
 30
        0.000000
 11
      -35.000000
 21
      148.100000
 31
        0.000000
  0
CIRCLE
  8
LVL0000
 10
      224.000000
 20
      258.500000
 30
        0.000000
 40
        2.500000
  0
CIRCLE
  8
LVL0000
 10
      259.500000
 20
      258.500000
 30
        0.000000
 40
        2.500000
  0
CIRCLE
  8
LVL0000
 10
      295.000000
 20
      258.500000
 30
        0.000000
 40
        2.500000
  0
CIRCLE
  8
LVL0000
 10
       11.000000
 20
      258.500000
 30
        0.000000
 40
        2.500000
  0
CIRCLE
  8
LVL0000
 10
       46.500000
 20
      258.500000
 30
        0.000000
 40
        2.500000
  0
CIRCLE
  8
LVL0000
 10
       82.000000
 20
      258.500000
 30
        0.000000
 40
        2.500000
  0
CIRCLE
  8
LVL0000
 10
      117.500000
 20
      258.500000
 30
        0.000000
 40
        2.500000
  0
CIRCLE
  8
LVL0000
 10
      153.000000
 20
      258.500000
 30
        0.000000
 40
        2.500000
  0
CIRCLE
  8
LVL0000
 10
      188.500000
 20
      258.500000
 30
        0.000000
 40
        2.500000
  0
LINE
  8
LVL0000
 10
      294.900000
 20
      143.500000
 30
        0.000000
 11
      271.600000
 21
      143.500000
 31
        0.000000
  0
LINE
  8
LVL0000
 10
      259.400000
 20
      143.500000
 30
        0.000000
 11
      236.100000
 21
      143.500000
 31
        0.000000
  0
LINE
  8
LVL0000
 10
      223.900000
 20
      143.500000
 30
        0.000000
 11
      200.600000
 21
      143.500000
 31
        0.000000
  0
LINE
  8
LVL0000
 10
      188.400000
 20
      143.500000
 30
        0.000000
 11
      165.100000
 21
      143.500000
 31
        0.000000
  0
LINE
  8
LVL0000
 10
      152.900000
 20
      143.500000
 30
        0.000000
 11
      129.600000
 21
      143.500000
 31
        0.000000
  0
LINE
  8
LVL0000
 10
      117.400000
 20
      143.500000
 30
        0.000000
 11
       94.100000
 21
      143.500000
 31
        0.000000
  0
LINE
  8
LVL0000
 10
       81.900000
 20
      143.500000
 30
        0.000000
 11
       58.600000
 21
      143.500000
 31
        0.000000
  0
LINE
  8
LVL0000
 10
       46.400000
 20
      143.500000
 30
        0.000000
 11
       23.100000
 21
      143.500000
 31
        0.000000
  0
LINE
  8
LVL0000
 10
       10.900000
 20
      143.500000
 30
        0.000000
 11
      -12.400000
 21
      143.500000
 31
        0.000000
  0
LINE
  8
LVL0000
 10
      -12.400000
 20
      140.000000
 30
        0.000000
 11
       10.900000
 21
      140.000000
 31
        0.000000
  0
LINE
  8
LVL0000
 10
       23.100000
 20
      140.000000
 30
        0.000000
 11
       46.400000
 21
      140.000000
 31
        0.000000
  0
LINE
  8
LVL0000
 10
       58.600000
 20
      140.000000
 30
        0.000000
 11
       81.900000
 21
      140.000000
 31
        0.000000
  0
LINE
  8
LVL0000
 10
       94.100000
 20
      140.000000
 30
        0.000000
 11
      117.400000
 21
      140.000000
 31
        0.000000
  0
LINE
  8
LVL0000
 10
      129.600000
 20
      140.000000
 30
        0.000000
 11
      152.900000
 21
      140.000000
 31
        0.000000
  0
LINE
  8
LVL0000
 10
      165.100000
 20
      140.000000
 30
        0.000000
 11
      188.400000
 21
      140.000000
 31
        0.000000
  0
LINE
  8
LVL0000
 10
      200.600000
 20
      140.000000
 30
        0.000000
 11
      223.900000
 21
      140.000000
 31
        0.000000
  0
LINE
  8
LVL0000
 10
      236.100000
 20
      140.000000
 30
        0.000000
 11
      259.400000
 21
      140.000000
 31
        0.000000
  0
LINE
  8
LVL0000
 10
      271.600000
 20
      140.000000
 30
        0.000000
 11
      294.900000
 21
      140.000000
 31
        0.000000
  0
LINE
  8
LVL0000
 10
      -21.500000
 20
      -51.900000
 30
        0.000000
 11
      -21.500000
 21
      -65.000000
 31
        0.000000
  0
LINE
  8
LVL0000
  6
CENTER
 10
        0.000000
 20
      -65.000000
 30
        0.000000
 11
        0.000000
 21
       65.000000
 31
        0.000000
  0
LINE
  8
LVL0000
  6
CENTER
 10
      337.000000
 20
        0.000000
 30
        0.000000
 11
      -17.500000
 21
        0.000000
 31
        0.000000
  0
LINE
  8
LVL0000
 10
      -37.500002
 20
      -44.000000
 30
        0.000000
 11
      -17.500000
 21
      -44.000000
 31
        0.000000
  0
LINE
  8
LVL0000
 10
      -37.500000
 20
      -44.000015
 30
        0.000000
 11
      -17.500000
 21
      -44.000015
 31
        0.000000
  0
LINE
  8
LVL0000
 10
      -21.499998
 20
       54.499969
 30
        0.000000
 11
      -17.500000
 21
       54.499969
 31
        0.000000
  0
LINE
  8
LVL0000
 10
      -17.500000
 20
      -46.900000
 30
        0.000000
 11
      -35.000000
 21
      -46.900000
 31
        0.000000
  0
LINE
  8
LVL0000
 10
      -21.500000
 20
      -55.000000
 30
        0.000000
 11
      -17.500000
 21
      -55.000000
 31
        0.000000
  0
LINE
  8
LVL0000
 10
       18.000000
 20
      -65.000000
 30
        0.000000
 11
       18.000000
 21
       65.000000
 31
        0.000000
  0
LINE
  8
LVL0000
 10
       17.500000
 20
      -65.000000
 30
        0.000000
 11
       17.500000
 21
       65.000000
 31
        0.000000
  0
LINE
  8
LVL0000
 10
      -17.500000
 20
      -65.000000
 30
        0.000000
 11
      -17.500000
 21
       65.000000
 31
        0.000000
  0
LINE
  8
LVL0000
 10
      -19.299982
 20
       50.999960
 30
        0.000000
 11
      -17.500000
 21
       50.999969
 31
        0.000000
  0
ARC
  8
LVL0000
 10
      -17.499998
 20
       50.999969
 30
        0.000000
 40
        2.750000
 50
       90.000000
 51
      270.000000
  0
LINE
  8
LVL0000
 10
      -37.500002
 20
       49.499985
 30
        0.000000
 11
      -21.500000
 21
       49.499985
 31
        0.000000
  0
LINE
  8
LVL0000
 10
      -32.500000
 20
      -12.000015
 30
        0.000000
 11
      -19.500000
 21
      -12.000015
 31
        0.000000
  0
LINE
  8
LVL0000
 10
      -32.500000
 20
      -12.000015
 30
        0.000000
 11
      -32.500000
 21
      -32.000015
 31
        0.000000
  0
LINE
  8
LVL0000
 10
      -19.500000
 20
      -12.000015
 30
        0.000000
 11
      -19.500000
 21
      -32.000015
 31
        0.000000
  0
LINE
  8
LVL0000
 10
      -32.500000
 20
      -32.000015
 30
        0.000000
 11
      -19.500000
 21
      -32.000015
 31
        0.000000
  0
LINE
  8
LVL0000
 10
      -32.500000
 20
      -12.850021
 30
        0.000000
 11
      -20.800003
 21
      -12.850021
 31
        0.000000
  0
LINE
  8
LVL0000
 10
      -20.800003
 20
      -12.000015
 30
        0.000000
 11
      -20.800003
 21
      -12.850021
 31
        0.000000
  0
LINE
  8
LVL0000
 10
      -32.500000
 20
      -14.150009
 30
        0.000000
 11
      -20.800003
 21
      -14.150009
 31
        0.000000
  0
LINE
  8
LVL0000
 10
      -20.800003
 20
      -14.150009
 30
        0.000000
 11
      -20.800003
 21
      -21.350021
 31
        0.000000
  0
LINE
  8
LVL0000
 10
      -32.500000
 20
      -21.350021
 30
        0.000000
 11
      -20.800003
 21
      -21.350021
 31
        0.000000
  0
LINE
  8
LVL0000
 10
      -32.500000
 20
      -22.650009
 30
        0.000000
 11
      -20.800003
 21
      -22.650009
 31
        0.000000
  0
LINE
  8
LVL0000
 10
      -20.800003
 20
      -22.650009
 30
        0.000000
 11
      -20.800003
 21
      -29.850021
 31
        0.000000
  0
LINE
  8
LVL0000
 10
      -32.500000
 20
      -29.850021
 30
        0.000000
 11
      -20.800003
 21
      -29.850021
 31
        0.000000
  0
LINE
  8
LVL0000
 10
      -32.500000
 20
      -31.150009
 30
        0.000000
 11
      -20.800003
 21
      -31.150009
 31
        0.000000
  0
LINE
  8
LVL0000
 10
      -20.800003
 20
      -31.150009
 30
        0.000000
 11
      -20.800003
 21
      -32.000015
 31
        0.000000
  0
LINE
  8
LVL0000
 10
      -29.099998
 20
      -14.150009
 30
        0.000000
 11
      -29.099998
 21
      -21.350021
 31
        0.000000
  0
LINE
  8
LVL0000
 10
      -29.099998
 20
      -22.650009
 30
        0.000000
 11
      -29.099998
 21
      -29.850021
 31
        0.000000
  0
LINE
  8
LVL0000
 10
      -21.900002
 20
      -14.150009
 30
        0.000000
 11
      -21.900002
 21
      -21.350021
 31
        0.000000
  0
LINE
  8
LVL0000
 10
      -21.900002
 20
      -22.650009
 30
        0.000000
 11
      -21.900002
 21
      -29.850021
 31
        0.000000
  0
CIRCLE
  8
LVL0000
 10
      -25.500000
 20
      -17.750015
 30
        0.000000
 40
        3.000000
  0
CIRCLE
  8
LVL0000
 10
      -25.500000
 20
      -26.250015
 30
        0.000000
 40
        3.000000
  0
LINE
  8
LVL0000
 10
      -29.099998
 20
      -23.750015
 30
        0.000000
 11
      -29.599998
 21
      -23.750015
 31
        0.000000
  0
LINE
  8
LVL0000
 10
      -29.599998
 20
      -23.750015
 30
        0.000000
 11
      -29.599998
 21
      -28.750015
 31
        0.000000
  0
LINE
  8
LVL0000
 10
      -21.400002
 20
      -23.750015
 30
        0.000000
 11
      -21.900002
 21
      -23.750015
 31
        0.000000
  0
LINE
  8
LVL0000
 10
      -21.400002
 20
      -23.750015
 30
        0.000000
 11
      -21.400002
 21
      -28.750015
 31
        0.000000
  0
LINE
  8
LVL0000
 10
      -21.400002
 20
      -15.250015
 30
        0.000000
 11
      -21.900002
 21
      -15.250015
 31
        0.000000
  0
LINE
  8
LVL0000
 10
      -21.400002
 20
      -15.250015
 30
        0.000000
 11
      -21.400002
 21
      -20.250015
 31
        0.000000
  0
LINE
  8
LVL0000
 10
      -29.099998
 20
      -15.250015
 30
        0.000000
 11
      -29.599998
 21
      -15.250015
 31
        0.000000
  0
LINE
  8
LVL0000
 10
      -29.599998
 20
      -15.250015
 30
        0.000000
 11
      -29.599998
 21
      -20.250015
 31
        0.000000
  0
LINE
  8
LVL0000
 10
      -29.099998
 20
      -20.250015
 30
        0.000000
 11
      -29.599998
 21
      -20.250015
 31
        0.000000
  0
LINE
  8
LVL0000
 10
      -21.400002
 20
      -20.250015
 30
        0.000000
 11
      -21.900002
 21
      -20.250015
 31
        0.000000
  0
LINE
  8
LVL0000
 10
      -21.400002
 20
      -28.750015
 30
        0.000000
 11
      -21.900002
 21
      -28.750015
 31
        0.000000
  0
LINE
  8
LVL0000
 10
      -29.099998
 20
      -28.750015
 30
        0.000000
 11
      -29.599998
 21
      -28.750015
 31
        0.000000
  0
LINE
  8
LVL0000
 10
      -27.621323
 20
      -19.871338
 30
        0.000000
 11
      -23.378677
 21
      -15.628693
 31
        0.000000
  0
LINE
  8
LVL0000
 10
      -26.560661
 20
      -16.689346
 30
        0.000000
 11
      -24.439346
 21
      -18.810684
 31
        0.000000
  0
LINE
  8
LVL0000
 10
      -27.621323
 20
      -28.371338
 30
        0.000000
 11
      -23.378677
 21
      -24.128693
 31
        0.000000
  0
LINE
  8
LVL0000
 10
      -26.560661
 20
      -25.189346
 30
        0.000000
 11
      -24.439346
 21
      -27.310684
 31
        0.000000
  0
CIRCLE
  8
LVL0000
 10
      -25.499998
 20
      -40.500015
 30
        0.000000
 40
        2.750000
  0
LINE
  8
LVL0000
 10
      -25.499998
 20
      -38.700016
 30
        0.000000
 11
      -25.499998
 21
      -42.300014
 31
        0.000000
  0
LINE
  8
LVL0000
 10
      -27.299982
 20
      -40.500034
 30
        0.000000
 11
      -23.700014
 21
      -40.500015
 31
        0.000000
  0
LINE
  8
LVL0000
 10
      -17.499998
 20
       52.799978
 30
        0.000000
 11
      -17.499998
 21
       49.199980
 31
        0.000000
  0
LINE
  8
LVL0000
 10
      -21.500000
 20
      -51.900000
 30
        0.000000
 11
      -35.000000
 21
      -51.900000
 31
        0.000000
  0
LINE
  8
LVL0000
 10
      -26.500000
 20
      -63.000000
 30
        0.000000
 11
      -21.500000
 21
      -63.000000
 31
        0.000000
  0
LINE
  8
LVL0000
 10
      -32.500000
 20
      -61.000000
 30
        0.000000
 11
      -32.500000
 21
      -63.000000
 31
        0.000000
  0
LINE
  8
LVL0000
 10
      -26.500000
 20
      -61.000000
 30
        0.000000
 11
      -26.500000
 21
      -63.000000
 31
        0.000000
  0
ARC
  8
LVL0000
 10
      -29.500000
 20
      -61.000000
 30
        0.000000
 40
        3.000000
 50
        0.000000
 51
      179.999995
  0
CIRCLE
  8
LVL0000
 10
      -29.500000
 20
       57.000000
 30
        0.000000
 40
        3.000000
  0
LINE
  8
LVL0000
 10
      -35.900000
 20
      -46.900000
 30
        0.000000
 11
      -37.500000
 21
      -46.900000
 31
        0.000000
  0
LINE
  8
LVL0000
 10
      -35.900000
 20
      -44.000015
 30
        0.000000
 11
      -35.900000
 21
      -46.900000
 31
        0.000000
  0
LINE
  8
LVL0000
 10
      -35.000000
 20
      -44.000015
 30
        0.000000
 11
      -35.000000
 21
      -51.900000
 31
        0.000000
  0
LINE
  8
LVL0000
 10
      -21.500000
 20
       65.000000
 30
        0.000000
 11
      -21.500000
 21
       49.499985
 31
        0.000000
  0
LINE
  8
LVL0000
 10
       53.000000
 20
      -65.000000
 30
        0.000000
 11
       53.000000
 21
       65.000000
 31
        0.000000
  0
LINE
  8
LVL0000
 10
       53.500000
 20
      -65.000000
 30
        0.000000
 11
       53.500000
 21
       65.000000
 31
        0.000000
  0
LINE
  8
LVL0000
  6
CENTER
 10
       71.000000
 20
      -65.000000
 30
        0.000000
 11
       71.000000
 21
       65.000000
 31
        0.000000
  0
LINE
  8
LVL0000
  6
CENTER
 10
       35.500000
 20
      -65.000000
 30
        0.000000
 11
       35.500000
 21
       65.000000
 31
        0.000000
  0
TEXT
  8
LVL0000
 62
  2
 10
      -36.175040
 20
      329.502931
 30
        0.000000
 40
        5.000000
  1
ＪＷ３１８ＫＢ
 50
        0.000000
 41
        0.835000
 51
        0.000000
  7
BIGFONT
  0
LINE
  8
LVL0000
 10
      -37.500002
 20
      315.000000
 30
        0.000000
 11
      -37.500002
 21
      305.800000
 31
        0.000000
  0
LINE
  8
LVL0000
 10
      -21.500002
 20
      313.400000
 30
        0.000000
 11
      -37.500002
 21
      313.400000
 31
        0.000000
  0
LINE
  8
LVL0000
 10
      -21.500002
 20
      307.399994
 30
        0.000000
 11
      -21.500002
 21
      315.000000
 31
        0.000000
  0
LINE
  8
LVL0000
 10
      -32.500002
 20
      290.800000
 30
        0.000000
 11
      -32.500002
 21
      305.800000
 31
        0.000000
  0
LINE
  8
LVL0000
 10
      -19.500002
 20
      290.800000
 30
        0.000000
 11
      -19.500002
 21
      305.800000
 31
        0.000000
  0
LINE
  8
LVL0000
 10
      -32.500002
 20
      290.800000
 30
        0.000000
 11
      -19.500002
 21
      290.800000
 31
        0.000000
  0
LINE
  8
LVL0000
 10
        7.999998
 20
      296.100000
 30
        0.000000
 11
        7.999998
 21
      301.800000
 31
        0.000000
  0
LINE
  8
LVL0000
 10
        3.999998
 20
      296.100000
 30
        0.000000
 11
        3.999998
 21
      301.800000
 31
        0.000000
  0
LINE
  8
LVL0000
 10
        8.999998
 20
      301.800000
 30
        0.000000
 11
        2.999998
 21
      301.800000
 31
        0.000000
  0
LINE
  8
LVL0000
 10
        7.999998
 20
      296.100000
 30
        0.000000
 11
        3.999998
 21
      296.100000
 31
        0.000000
  0
LINE
  8
LVL0000
 10
        2.999998
 20
      301.800000
 30
        0.000000
 11
        2.999998
 21
      305.800000
 31
        0.000000
  0
LINE
  8
LVL0000
 10
        8.999998
 20
      301.800000
 30
        0.000000
 11
        8.999998
 21
      305.800000
 31
        0.000000
  0
LINE
  8
LVL0000
 10
       37.499998
 20
      295.099976
 30
        0.000000
 11
       37.499998
 21
      305.800000
 31
        0.000000
  0
LINE
  8
LVL0000
 10
       44.500029
 20
      295.099976
 30
        0.000000
 11
       44.500029
 21
      305.800000
 31
        0.000000
  0
LINE
  8
LVL0000
 10
       44.500029
 20
      298.749969
 30
        0.000000
 11
       37.499998
 21
      298.749969
 31
        0.000000
  0
LINE
  8
LVL0000
 10
       44.500029
 20
      295.099976
 30
        0.000000
 11
       37.499998
 21
      295.099976
 31
        0.000000
  0
LINE
  8
LVL0000
 10
      439.799988
 20
      154.700000
 30
        0.000000
 11
      439.799988
 21
      265.000000
 31
        0.000000
  0
LINE
  8
LVL0000
 10
      354.000000
 20
      245.614990
 30
        0.000000
 11
      354.000000
 21
      241.314987
 31
        0.000000
  0
LINE
  8
LVL0000
 10
      349.400024
 20
      245.614990
 30
        0.000000
 11
      349.400024
 21
      241.314987
 31
        0.000000
  0
LINE
  8
LVL0000
 10
      354.000000
 20
      210.784988
 30
        0.000000
 11
      354.000000
 21
      206.484985
 31
        0.000000
  0
LINE
  8
LVL0000
 10
      349.400024
 20
      210.784988
 30
        0.000000
 11
      349.400024
 21
      206.484985
 31
        0.000000
  0
LINE
  8
LVL0000
 10
      349.950012
 20
      209.799988
 30
        0.000000
 11
      353.450012
 21
      209.799988
 31
        0.000000
  0
LINE
  8
LVL0000
 10
      349.950012
 20
      242.299988
 30
        0.000000
 11
      353.450012
 21
      242.299988
 31
        0.000000
  0
LINE
  8
LVL0000
 10
      349.400024
 20
      245.614990
 30
        0.000000
 11
      354.000000
 21
      245.614990
 31
        0.000000
  0
LINE
  8
LVL0000
 10
      349.400024
 20
      206.484985
 30
        0.000000
 11
      354.000000
 21
      206.484985
 31
        0.000000
  0
LINE
  8
LVL0000
 10
      353.450012
 20
      210.784988
 30
        0.000000
 11
      353.450012
 21
      209.799988
 31
        0.000000
  0
LINE
  8
LVL0000
 10
      349.950012
 20
      210.784988
 30
        0.000000
 11
      349.950012
 21
      209.799988
 31
        0.000000
  0
LINE
  8
LVL0000
 10
      353.450012
 20
      242.299988
 30
        0.000000
 11
      353.450012
 21
      241.314987
 31
        0.000000
  0
LINE
  8
LVL0000
 10
      349.950012
 20
      242.299988
 30
        0.000000
 11
      349.950012
 21
      241.314987
 31
        0.000000
  0
LINE
  8
LVL0000
 10
      355.000000
 20
      241.314987
 30
        0.000000
 11
      355.000000
 21
      210.784988
 31
        0.000000
  0
LINE
  8
LVL0000
 10
      348.399994
 20
      210.784988
 30
        0.000000
 11
      355.400024
 21
      210.784988
 31
        0.000000
  0
LINE
  8
LVL0000
 10
      348.399994
 20
      241.314987
 30
        0.000000
 11
      355.400024
 21
      241.314987
 31
        0.000000
  0
LINE
  8
LVL0000
 10
      355.000000
 20
      239.114990
 30
        0.000000
 11
      355.400024
 21
      239.114990
 31
        0.000000
  0
LINE
  8
LVL0000
 10
      355.000000
 20
      212.984985
 30
        0.000000
 11
      355.400024
 21
      212.984985
 31
        0.000000
  0
LINE
  8
LVL0000
 10
      355.400024
 20
      212.984985
 30
        0.000000
 11
      355.400024
 21
      205.784988
 31
        0.000000
  0
LINE
  8
LVL0000
 10
      355.400024
 20
      246.314987
 30
        0.000000
 11
      355.400024
 21
      239.114990
 31
        0.000000
  0
LINE
  8
LVL0000
 10
      348.399994
 20
      205.784988
 30
        0.000000
 11
      355.400024
 21
      205.784988
 31
        0.000000
  0
LINE
  8
LVL0000
 10
      348.399994
 20
      246.314987
 30
        0.000000
 11
      355.400024
 21
      246.314987
 31
        0.000000
  0
LINE
  8
LVL0000
 10
      348.399994
 20
      246.314987
 30
        0.000000
 11
      348.399994
 21
      205.784988
 31
        0.000000
  0
LINE
  8
LVL0000
 10
      350.747498
 20
      238.964981
 30
        0.000000
 11
      350.747498
 21
      213.134987
 31
        0.000000
  0
LINE
  8
LVL0000
 10
      352.652527
 20
      238.964981
 30
        0.000000
 11
      352.652527
 21
      213.134987
 31
        0.000000
  0
CIRCLE
  8
LVL0000
 10
      351.700012
 20
      208.269989
 30
        0.000000
 40
        1.149994
  0
CIRCLE
  8
LVL0000
 10
      351.700012
 20
      243.829987
 30
        0.000000
 40
        1.149994
  0
LINE
  8
LVL0000
 10
      350.450012
 20
      238.964981
 30
        0.000000
 11
      350.450012
 21
      213.134987
 31
        0.000000
  0
LINE
  8
LVL0000
 10
      352.950012
 20
      238.964981
 30
        0.000000
 11
      352.950012
 21
      213.134987
 31
        0.000000
  0
LINE
  8
LVL0000
 10
      349.200012
 20
      240.314987
 30
        0.000000
 11
      349.200012
 21
      211.784988
 31
        0.000000
  0
LINE
  8
LVL0000
 10
      354.200012
 20
      240.314987
 30
        0.000000
 11
      354.200012
 21
      211.784988
 31
        0.000000
  0
LINE
  8
LVL0000
 10
      350.450012
 20
      213.134987
 30
        0.000000
 11
      352.950012
 21
      213.134987
 31
        0.000000
  0
LINE
  8
LVL0000
 10
      350.450012
 20
      238.964981
 30
        0.000000
 11
      352.950012
 21
      238.964981
 31
        0.000000
  0
LINE
  8
LVL0000
 10
      349.200012
 20
      211.784988
 30
        0.000000
 11
      354.200012
 21
      211.784988
 31
        0.000000
  0
LINE
  8
LVL0000
 10
      349.200012
 20
      240.314987
 30
        0.000000
 11
      354.200012
 21
      240.314987
 31
        0.000000
  0
LINE
  8
LVL0000
 10
      323.399994
 20
      241.129990
 30
        0.000000
 11
      326.200012
 21
      241.129990
 31
        0.000000
  0
LINE
  8
LVL0000
 10
      323.399994
 20
      215.000000
 30
        0.000000
 11
      326.200012
 21
      215.000000
 31
        0.000000
  0
LINE
  8
LVL0000
 10
      323.399994
 20
      215.000000
 30
        0.000000
 11
      323.399994
 21
      241.129990
 31
        0.000000
  0
LINE
  8
LVL0000
 10
      326.200012
 20
      215.000000
 30
        0.000000
 11
      326.200012
 21
      241.129990
 31
        0.000000
  0
LINE
  8
LVL0000
 10
      328.100006
 20
      214.500000
 30
        0.000000
 11
      328.100006
 21
      241.629990
 31
        0.000000
  0
LINE
  8
LVL0000
 10
      321.500000
 20
      209.000000
 30
        0.000000
 11
      321.500000
 21
      247.129990
 31
        0.000000
  0
LINE
  8
LVL0000
 10
      322.399994
 20
      214.000000
 30
        0.000000
 11
      322.399994
 21
      242.129990
 31
        0.000000
  0
LINE
  8
LVL0000
 10
      327.200012
 20
      214.000000
 30
        0.000000
 11
      327.200012
 21
      242.129990
 31
        0.000000
  0
LINE
  8
LVL0000
 10
      328.100006
 20
      214.500000
 30
        0.000000
 11
      328.500000
 21
      214.500000
 31
        0.000000
  0
LINE
  8
LVL0000
 10
      328.500000
 20
      214.500000
 30
        0.000000
 11
      328.500000
 21
      209.000000
 31
        0.000000
  0
LINE
  8
LVL0000
 10
      321.500000
 20
      209.000000
 30
        0.000000
 11
      328.500000
 21
      209.000000
 31
        0.000000
  0
LINE
  8
LVL0000
 10
      326.649994
 20
      212.550003
 30
        0.000000
 11
      326.649994
 21
      209.699997
 31
        0.000000
  0
LINE
  8
LVL0000
 10
      322.950012
 20
      212.550003
 30
        0.000000
 11
      322.950012
 21
      209.699997
 31
        0.000000
  0
LINE
  8
LVL0000
 10
      326.649994
 20
      212.550003
 30
        0.000000
 11
      328.500000
 21
      212.550003
 31
        0.000000
  0
LINE
  8
LVL0000
 10
      321.500000
 20
      212.550003
 30
        0.000000
 11
      322.950012
 21
      212.550003
 31
        0.000000
  0
LINE
  8
LVL0000
 10
      322.950012
 20
      209.699997
 30
        0.000000
 11
      326.649994
 21
      209.699997
 31
        0.000000
  0
CIRCLE
  8
LVL0000
 10
      324.799988
 20
      211.555008
 30
        0.000000
 40
        1.150024
  0
LINE
  8
LVL0000
 10
      322.399994
 20
      214.000000
 30
        0.000000
 11
      327.200012
 21
      214.000000
 31
        0.000000
  0
LINE
  8
LVL0000
 10
      321.500000
 20
      247.129990
 30
        0.000000
 11
      328.500000
 21
      247.129990
 31
        0.000000
  0
LINE
  8
LVL0000
 10
      328.100006
 20
      241.629990
 30
        0.000000
 11
      328.500000
 21
      241.629990
 31
        0.000000
  0
LINE
  8
LVL0000
 10
      328.500000
 20
      241.629990
 30
        0.000000
 11
      328.500000
 21
      247.129990
 31
        0.000000
  0
LINE
  8
LVL0000
 10
      326.649994
 20
      243.579987
 30
        0.000000
 11
      326.649994
 21
      246.429993
 31
        0.000000
  0
LINE
  8
LVL0000
 10
      322.950012
 20
      243.579987
 30
        0.000000
 11
      322.950012
 21
      246.429993
 31
        0.000000
  0
LINE
  8
LVL0000
 10
      322.399994
 20
      242.129990
 30
        0.000000
 11
      327.200012
 21
      242.129990
 31
        0.000000
  0
LINE
  8
LVL0000
 10
      326.649994
 20
      243.579987
 30
        0.000000
 11
      328.500000
 21
      243.579987
 31
        0.000000
  0
LINE
  8
LVL0000
 10
      321.500000
 20
      243.579987
 30
        0.000000
 11
      322.950012
 21
      243.579987
 31
        0.000000
  0
LINE
  8
LVL0000
 10
      322.950012
 20
      246.429993
 30
        0.000000
 11
      326.649994
 21
      246.429993
 31
        0.000000
  0
CIRCLE
  8
LVL0000
 10
      324.799988
 20
      244.574982
 30
        0.000000
 40
        1.150024
  0
CIRCLE
  8
LVL0000
 10
      327.000000
 20
      160.999985
 30
        0.000000
 40
        2.500000
  0
LINE
  8
LVL0000
 10
      354.000000
 20
       45.614990
 30
        0.000000
 11
      354.000000
 21
       41.314987
 31
        0.000000
  0
LINE
  8
LVL0000
 10
      349.400024
 20
       45.614990
 30
        0.000000
 11
      349.400024
 21
       41.314987
 31
        0.000000
  0
LINE
  8
LVL0000
 10
      354.000000
 20
       10.784988
 30
        0.000000
 11
      354.000000
 21
        6.484985
 31
        0.000000
  0
LINE
  8
LVL0000
 10
      349.400024
 20
       10.784988
 30
        0.000000
 11
      349.400024
 21
        6.484985
 31
        0.000000
  0
LINE
  8
LVL0000
 10
      349.950012
 20
        9.799988
 30
        0.000000
 11
      353.450012
 21
        9.799988
 31
        0.000000
  0
LINE
  8
LVL0000
 10
      349.950012
 20
       42.299988
 30
        0.000000
 11
      353.450012
 21
       42.299988
 31
        0.000000
  0
LINE
  8
LVL0000
 10
      349.400024
 20
       45.614990
 30
        0.000000
 11
      354.000000
 21
       45.614990
 31
        0.000000
  0
LINE
  8
LVL0000
 10
      349.400024
 20
        6.484985
 30
        0.000000
 11
      354.000000
 21
        6.484985
 31
        0.000000
  0
LINE
  8
LVL0000
 10
      353.450012
 20
       10.784988
 30
        0.000000
 11
      353.450012
 21
        9.799988
 31
        0.000000
  0
LINE
  8
LVL0000
 10
      349.950012
 20
       10.784988
 30
        0.000000
 11
      349.950012
 21
        9.799988
 31
        0.000000
  0
LINE
  8
LVL0000
 10
      353.450012
 20
       42.299988
 30
        0.000000
 11
      353.450012
 21
       41.314987
 31
        0.000000
  0
LINE
  8
LVL0000
 10
      349.950012
 20
       42.299988
 30
        0.000000
 11
      349.950012
 21
       41.314987
 31
        0.000000
  0
LINE
  8
LVL0000
 10
      355.000000
 20
       41.314987
 30
        0.000000
 11
      355.000000
 21
       10.784988
 31
        0.000000
  0
LINE
  8
LVL0000
 10
      348.399994
 20
       10.784988
 30
        0.000000
 11
      355.400024
 21
       10.784988
 31
        0.000000
  0
LINE
  8
LVL0000
 10
      348.399994
 20
       41.314987
 30
        0.000000
 11
      355.400024
 21
       41.314987
 31
        0.000000
  0
LINE
  8
LVL0000
 10
      355.000000
 20
       39.114990
 30
        0.000000
 11
      355.400024
 21
       39.114990
 31
        0.000000
  0
LINE
  8
LVL0000
 10
      355.000000
 20
       12.984985
 30
        0.000000
 11
      355.400024
 21
       12.984985
 31
        0.000000
  0
LINE
  8
LVL0000
 10
      355.400024
 20
       12.984985
 30
        0.000000
 11
      355.400024
 21
        5.784988
 31
        0.000000
  0
LINE
  8
LVL0000
 10
      355.400024
 20
       46.314987
 30
        0.000000
 11
      355.400024
 21
       39.114990
 31
        0.000000
  0
LINE
  8
LVL0000
 10
      348.399994
 20
        5.784988
 30
        0.000000
 11
      355.400024
 21
        5.784988
 31
        0.000000
  0
LINE
  8
LVL0000
 10
      348.399994
 20
       46.314987
 30
        0.000000
 11
      355.400024
 21
       46.314987
 31
        0.000000
  0
LINE
  8
LVL0000
 10
      348.399994
 20
       46.314987
 30
        0.000000
 11
      348.399994
 21
        5.784988
 31
        0.000000
  0
LINE
  8
LVL0000
 10
      350.747498
 20
       38.964981
 30
        0.000000
 11
      350.747498
 21
       13.134987
 31
        0.000000
  0
LINE
  8
LVL0000
 10
      352.652527
 20
       38.964981
 30
        0.000000
 11
      352.652527
 21
       13.134987
 31
        0.000000
  0
CIRCLE
  8
LVL0000
 10
      351.700012
 20
        8.269989
 30
        0.000000
 40
        1.149994
  0
CIRCLE
  8
LVL0000
 10
      351.700012
 20
       43.829987
 30
        0.000000
 40
        1.149994
  0
LINE
  8
LVL0000
 10
      350.450012
 20
       38.964981
 30
        0.000000
 11
      350.450012
 21
       13.134987
 31
        0.000000
  0
LINE
  8
LVL0000
 10
      352.950012
 20
       38.964981
 30
        0.000000
 11
      352.950012
 21
       13.134987
 31
        0.000000
  0
LINE
  8
LVL0000
 10
      349.200012
 20
       40.314987
 30
        0.000000
 11
      349.200012
 21
       11.784988
 31
        0.000000
  0
LINE
  8
LVL0000
 10
      354.200012
 20
       40.314987
 30
        0.000000
 11
      354.200012
 21
       11.784988
 31
        0.000000
  0
LINE
  8
LVL0000
 10
      350.450012
 20
       13.134987
 30
        0.000000
 11
      352.950012
 21
       13.134987
 31
        0.000000
  0
LINE
  8
LVL0000
 10
      350.450012
 20
       38.964981
 30
        0.000000
 11
      352.950012
 21
       38.964981
 31
        0.000000
  0
LINE
  8
LVL0000
 10
      349.200012
 20
       11.784988
 30
        0.000000
 11
      354.200012
 21
       11.784988
 31
        0.000000
  0
LINE
  8
LVL0000
 10
      349.200012
 20
       40.314987
 30
        0.000000
 11
      354.200012
 21
       40.314987
 31
        0.000000
  0
LINE
  8
LVL0000
 10
      441.399994
 20
      265.000000
 30
        0.000000
 11
      441.399994
 21
      249.000000
 31
        0.000000
  0
LINE
  8
LVL0000
 10
      439.799988
 20
      265.000000
 30
        0.000000
 11
      445.799994
 21
      265.000000
 31
        0.000000
  0
LINE
  8
LVL0000
 10
      441.399994
 20
      263.399994
 30
        0.000000
 11
      444.999994
 21
      263.399994
 31
        0.000000
  0
DIMENSION
  8
LVL0000
 62
  5
  2
BLK0007
 10
      462.370209
 20
      273.983032
 11
      450.370209
 21
      274.683044
 13
      439.799988
 23
      265.000000
 14
      447.399994
 24
      263.399994
 50
        0.0
 70
  0
  0
LINE
  8
LVL0000
  6
CENTER
 10
      106.500000
 20
      -65.000000
 30
        0.000000
 11
      106.500000
 21
       65.000000
 31
        0.000000
  0
LINE
  8
LVL0000
  6
CENTER
 10
      142.000000
 20
      -65.000000
 30
        0.000000
 11
      142.000000
 21
       65.000000
 31
        0.000000
  0
LINE
  8
LVL0000
  6
CENTER
 10
      177.500000
 20
      -65.000000
 30
        0.000000
 11
      177.500000
 21
       65.000000
 31
        0.000000
  0
LINE
  8
LVL0000
  6
CENTER
 10
      213.000000
 20
      -65.000000
 30
        0.000000
 11
      213.000000
 21
       65.000000
 31
        0.000000
  0
LINE
  8
LVL0000
  6
CENTER
 10
      248.500000
 20
      -65.000000
 30
        0.000000
 11
      248.500000
 21
       65.000000
 31
        0.000000
  0
LINE
  8
LVL0000
  6
CENTER
 10
      284.000000
 20
      -65.000000
 30
        0.000000
 11
      284.000000
 21
       65.000000
 31
        0.000000
  0
LINE
  8
LVL0000
  6
CENTER
 10
      319.500000
 20
      -65.000000
 30
        0.000000
 11
      319.500000
 21
       65.000000
 31
        0.000000
  0
LINE
  8
LVL0000
 10
      337.000000
 20
      -65.000000
 30
        0.000000
 11
      337.000000
 21
       65.000000
 31
        0.000000
  0
LINE
  8
LVL0000
 10
      302.000000
 20
      -65.000000
 30
        0.000000
 11
      302.000000
 21
       65.000000
 31
        0.000000
  0
LINE
  8
LVL0000
 10
      266.500000
 20
      -65.000000
 30
        0.000000
 11
      266.500000
 21
       65.000000
 31
        0.000000
  0
LINE
  8
LVL0000
 10
      301.500000
 20
      -65.000000
 30
        0.000000
 11
      301.500000
 21
       65.000000
 31
        0.000000
  0
LINE
  8
LVL0000
 10
      266.000000
 20
      -65.000000
 30
        0.000000
 11
      266.000000
 21
       65.000000
 31
        0.000000
  0
LINE
  8
LVL0000
 10
      231.000000
 20
      -65.000000
 30
        0.000000
 11
      231.000000
 21
       65.000000
 31
        0.000000
  0
LINE
  8
LVL0000
 10
      195.500000
 20
      -65.000000
 30
        0.000000
 11
      195.500000
 21
       65.000000
 31
        0.000000
  0
LINE
  8
LVL0000
 10
      230.500000
 20
      -65.000000
 30
        0.000000
 11
      230.500000
 21
       65.000000
 31
        0.000000
  0
LINE
  8
LVL0000
 10
      195.000000
 20
      -65.000000
 30
        0.000000
 11
      195.000000
 21
       65.000000
 31
        0.000000
  0
LINE
  8
LVL0000
 10
      160.000000
 20
      -65.000000
 30
        0.000000
 11
      160.000000
 21
       65.000000
 31
        0.000000
  0
LINE
  8
LVL0000
 10
      124.500000
 20
      -65.000000
 30
        0.000000
 11
      124.500000
 21
       65.000000
 31
        0.000000
  0
LINE
  8
LVL0000
 10
      159.500000
 20
      -65.000000
 30
        0.000000
 11
      159.500000
 21
       65.000000
 31
        0.000000
  0
LINE
  8
LVL0000
 10
      124.000000
 20
      -65.000000
 30
        0.000000
 11
      124.000000
 21
       65.000000
 31
        0.000000
  0
LINE
  8
LVL0000
 10
       89.000000
 20
      -65.000000
 30
        0.000000
 11
       89.000000
 21
       65.000000
 31
        0.000000
  0
LINE
  8
LVL0000
 10
       88.500000
 20
      -65.000000
 30
        0.000000
 11
       88.500000
 21
       65.000000
 31
        0.000000
  0
CIRCLE
  8
LVL0000
 10
      343.000000
 20
      -59.500000
 30
        0.000000
 40
        1.500000
  0
CIRCLE
  8
LVL0000
 10
      343.000000
 20
       59.500000
 30
        0.000000
 40
        1.500000
  0
CIRCLE
  8
LVL0000
 10
      343.000000
 20
       59.500000
 30
        0.000000
 40
        2.000000
  0
CIRCLE
  8
LVL0000
 10
      343.000000
 20
      -59.500000
 30
        0.000000
 40
        2.000000
  0
LINE
  8
LVL0000
 10
      439.799988
 20
      247.800000
 30
        0.000000
 11
      440.000000
 21
      247.800000
 31
        0.000000
  0
LINE
  8
LVL0000
 10
      439.799988
 20
      249.000000
 30
        0.000000
 11
      440.000000
 21
      249.000000
 31
        0.000000
  0
LINE
  8
LVL0000
 10
      440.000000
 20
      249.000000
 30
        0.000000
 11
      447.399994
 21
      249.000000
 31
        0.000000
  0
LINE
  8
LVL0000
 10
      444.599994
 20
      153.100000
 30
        0.000000
 11
      444.599994
 21
      143.500000
 31
        0.000000
  0
ARC
  8
LVL0000
 10
      440.999988
 20
      154.700000
 30
        0.000000
 40
        1.200000
 50
      179.999995
 51
      213.558368
  0
LINE
  8
LVL0000
 10
      439.799988
 20
      164.200000
 30
        0.000000
 11
      440.000000
 21
      164.200000
 31
        0.000000
  0
LINE
  8
LVL0000
 10
      440.000000
 20
      246.300000
 30
        0.000000
 11
      439.799988
 21
      246.300000
 31
        0.000000
  0
LINE
  8
LVL0000
 10
      445.799994
 20
      262.599994
 30
        0.000000
 11
      445.799994
 21
      249.000000
 31
        0.000000
  0
LINE
  8
LVL0000
 10
      445.799988
 20
      152.400003
 30
        0.000000
 11
      445.799988
 21
      153.100000
 31
        0.000000
  0
LINE
  8
LVL0000
 10
      445.799994
 20
      153.100000
 30
        0.000000
 11
      445.799994
 21
      137.399969
 31
        0.000000
  0
LINE
  8
LVL0000
 10
      440.000000
 20
      153.100000
 30
        0.000000
 11
      440.000000
 21
      249.000000
 31
        0.000000
  0
LINE
  8
LVL0000
 10
      440.000000
 20
      153.100000
 30
        0.000000
 11
      447.399994
 21
      153.100000
 31
        0.000000
  0
LINE
  8
LVL0000
 10
      444.599994
 20
      143.500000
 30
        0.000000
 11
      445.799994
 21
      143.500000
 31
        0.000000
  0
LINE
  8
LVL0000
 10
      438.799988
 20
      145.000000
 30
        0.000000
 11
      437.199982
 21
      145.000000
 31
        0.000000
  0
ARC
  8
LVL0000
 10
      444.999994
 20
      262.599994
 30
        0.000000
 40
        0.800000
 50
        0.000000
 51
       90.000000
  0
ARC
  8
LVL0000
 10
      445.799994
 20
      263.400000
 30
        0.000000
 40
        1.600000
 50
        0.000000
 51
       90.000000
  0
ARC
  8
LVL0000
 10
      444.999994
 20
      137.399969
 30
        0.000000
 40
        0.800000
 50
      270.000000
 51
      360.000000
  0
LINE
  8
LVL0000
 10
      439.599976
 20
      136.599969
 30
        0.000000
 11
      444.999994
 21
      136.599969
 31
        0.000000
  0
LINE
  8
LVL0000
 10
      437.199982
 20
      136.599954
 30
        0.000000
 11
      437.199982
 21
      145.000000
 31
        0.000000
  0
LINE
  8
LVL0000
 10
      438.799988
 20
      137.399972
 30
        0.000000
 11
      438.799988
 21
      145.000000
 31
        0.000000
  0
LINE
  8
LVL0000
 10
      447.399994
 20
      263.400000
 30
        0.000000
 11
      447.399994
 21
      136.599963
 31
        0.000000
  0
ARC
  8
LVL0000
 10
      445.799994
 20
      136.599963
 30
        0.000000
 40
        1.600000
 50
      270.000000
 51
      360.000000
  0
LINE
  8
LVL0000
 10
      438.799988
 20
      134.999963
 30
        0.000000
 11
      445.799994
 21
      134.999963
 31
        0.000000
  0
ARC
  8
LVL0000
 10
      439.599976
 20
      137.399972
 30
        0.000000
 40
        0.799988
 50
      180.000010
 51
      270.000000
  0
ARC
  8
LVL0000
 10
      438.799988
 20
      136.599954
 30
        0.000000
 40
        1.600006
 50
      180.000010
 51
      270.000000
  0
LINE
  8
LVL0000
 10
      438.199982
 20
      254.500100
 30
        0.000000
 11
      439.799988
 21
      254.500100
 31
        0.000000
  0
LINE
  8
LVL0000
 10
      438.199982
 20
      156.000100
 30
        0.000000
 11
      439.799988
 21
      156.000100
 31
        0.000000
  0
LINE
  8
LVL0000
 10
      438.199982
 20
      156.000100
 30
        0.000000
 11
      438.199982
 21
      254.500100
 31
        0.000000
  0
LINE
  8
LVL0000
 10
      431.149963
 20
      205.785104
 30
        0.000000
 11
      431.149963
 21
      210.785104
 31
        0.000000
  0
LINE
  8
LVL0000
 10
      431.149963
 20
      205.785104
 30
        0.000000
 11
      438.199982
 21
      205.785104
 31
        0.000000
  0
LINE
  8
LVL0000
 10
      431.149963
 20
      246.315102
 30
        0.000000
 11
      438.199982
 21
      246.315102
 31
        0.000000
  0
LINE
  8
LVL0000
 10
      431.149963
 20
      241.315102
 30
        0.000000
 11
      431.149963
 21
      246.315102
 31
        0.000000
  0
LINE
  8
LVL0000
 10
      427.499969
 20
      241.315102
 30
        0.000000
 11
      431.149963
 21
      241.315102
 31
        0.000000
  0
LINE
  8
LVL0000
 10
      427.499969
 20
      210.785104
 30
        0.000000
 11
      427.499969
 21
      241.315102
 31
        0.000000
  0
LINE
  8
LVL0000
 10
      427.499969
 20
      210.785104
 30
        0.000000
 11
      431.149963
 21
      210.785104
 31
        0.000000
  0
LINE
  8
LVL0000
 10
      437.699982
 20
      162.500100
 30
        0.000000
 11
      438.199982
 21
      162.500100
 31
        0.000000
  0
ARC
  8
LVL0000
 10
      437.699982
 20
      160.500100
 30
        0.000000
 40
        2.000000
 50
       90.000000
 51
      180.000010
  0
LINE
  8
LVL0000
 10
      437.699982
 20
      156.500100
 30
        0.000000
 11
      438.199982
 21
      156.500100
 31
        0.000000
  0
LINE
  8
LVL0000
 10
      435.699982
 20
      158.500100
 30
        0.000000
 11
      435.699982
 21
      160.500100
 31
        0.000000
  0
ARC
  8
LVL0000
 10
      437.699982
 20
      158.500100
 30
        0.000000
 40
        2.000000
 50
      180.000010
 51
      270.000000
  0
LINE
  8
LVL0000
 10
      437.699982
 20
      254.000100
 30
        0.000000
 11
      438.199982
 21
      254.000100
 31
        0.000000
  0
ARC
  8
LVL0000
 10
      437.699982
 20
      252.000100
 30
        0.000000
 40
        2.000000
 50
       90.000000
 51
      180.000010
  0
LINE
  8
LVL0000
 10
      435.699982
 20
      250.000100
 30
        0.000000
 11
      435.699982
 21
      252.000100
 31
        0.000000
  0
LINE
  8
LVL0000
 10
      437.699982
 20
      248.000100
 30
        0.000000
 11
      438.199982
 21
      248.000100
 31
        0.000000
  0
ARC
  8
LVL0000
 10
      437.699982
 20
      250.000100
 30
        0.000000
 40
        2.000000
 50
      180.000010
 51
      270.000000
  0
CIRCLE
  8
LVL0000
 10
      343.000000
 20
      140.500000
 30
        0.000000
 40
        2.000000
  0
CIRCLE
  8
LVL0000
 10
      343.000000
 20
      259.500000
 30
        0.000000
 40
        2.000000
  0
LINE
  8
LVL0000
 10
      294.900000
 20
      145.000000
 30
        0.000000
 11
      307.100000
 21
      145.000000
 31
        0.000000
  0
LINE
  8
LVL0000
 10
      330.400000
 20
      143.500000
 30
        0.000000
 11
      307.100000
 21
      143.500000
 31
        0.000000
  0
LINE
  8
LVL0000
 10
      330.400000
 20
      145.000000
 30
        0.000000
 11
      330.400000
 21
      140.000000
 31
        0.000000
  0
LINE
  8
LVL0000
 10
      307.100000
 20
      140.000000
 30
        0.000000
 11
      330.400000
 21
      140.000000
 31
        0.000000
  0
LINE
  8
LVL0000
 10
      307.100000
 20
      145.000000
 30
        0.000000
 11
      307.100000
 21
      140.000000
 31
        0.000000
  0
CIRCLE
  8
LVL0000
 10
      330.500000
 20
      258.500000
 30
        0.000000
 40
        2.500000
  0
LINE
  8
LVL0000
 10
      294.900000
 20
      145.000000
 30
        0.000000
 11
      294.900000
 21
      140.000000
 31
        0.000000
  0
CIRCLE
  8
LVL0000
 10
      343.000000
 20
      259.500000
 30
        0.000000
 40
        1.500000
  0
CIRCLE
  8
LVL0000
 10
      343.000000
 20
      140.500000
 30
        0.000000
 40
        1.500000
  0
CIRCLE
  8
LVL0000
 10
      319.500000
 20
      259.500000
 30
        0.000000
 40
        2.000000
  0
CIRCLE
  8
LVL0000
 10
      319.500000
 20
      259.500000
 30
        0.000000
 40
        1.500000
  0
LINE
  8
LVL0000
 10
      250.499998
 20
      295.099976
 30
        0.000000
 11
      250.499998
 21
      305.800000
 31
        0.000000
  0
LINE
  8
LVL0000
 10
      257.500029
 20
      295.099976
 30
        0.000000
 11
      257.500029
 21
      305.800000
 31
        0.000000
  0
LINE
  8
LVL0000
 10
      257.500029
 20
      298.749969
 30
        0.000000
 11
      250.499998
 21
      298.749969
 31
        0.000000
  0
LINE
  8
LVL0000
 10
      257.500029
 20
      295.099976
 30
        0.000000
 11
      250.499998
 21
      295.099976
 31
        0.000000
  0
LINE
  8
LVL0000
 10
      214.999998
 20
      295.099976
 30
        0.000000
 11
      214.999998
 21
      305.800000
 31
        0.000000
  0
LINE
  8
LVL0000
 10
      222.000029
 20
      295.099976
 30
        0.000000
 11
      222.000029
 21
      305.800000
 31
        0.000000
  0
LINE
  8
LVL0000
 10
      222.000029
 20
      298.749969
 30
        0.000000
 11
      214.999998
 21
      298.749969
 31
        0.000000
  0
LINE
  8
LVL0000
 10
      222.000029
 20
      295.099976
 30
        0.000000
 11
      214.999998
 21
      295.099976
 31
        0.000000
  0
LINE
  8
LVL0000
 10
       72.999998
 20
      295.099976
 30
        0.000000
 11
       72.999998
 21
      305.800000
 31
        0.000000
  0
LINE
  8
LVL0000
 10
       80.000029
 20
      295.099976
 30
        0.000000
 11
       80.000029
 21
      305.800000
 31
        0.000000
  0
LINE
  8
LVL0000
 10
       80.000029
 20
      298.749969
 30
        0.000000
 11
       72.999998
 21
      298.749969
 31
        0.000000
  0
LINE
  8
LVL0000
 10
       80.000029
 20
      295.099976
 30
        0.000000
 11
       72.999998
 21
      295.099976
 31
        0.000000
  0
LINE
  8
LVL0000
 10
      108.499998
 20
      295.099976
 30
        0.000000
 11
      108.499998
 21
      305.800000
 31
        0.000000
  0
LINE
  8
LVL0000
 10
      115.500029
 20
      295.099976
 30
        0.000000
 11
      115.500029
 21
      305.800000
 31
        0.000000
  0
LINE
  8
LVL0000
 10
      115.500029
 20
      298.749969
 30
        0.000000
 11
      108.499998
 21
      298.749969
 31
        0.000000
  0
LINE
  8
LVL0000
 10
      115.500029
 20
      295.099976
 30
        0.000000
 11
      108.499998
 21
      295.099976
 31
        0.000000
  0
LINE
  8
LVL0000
 10
      143.999998
 20
      295.099976
 30
        0.000000
 11
      143.999998
 21
      305.800000
 31
        0.000000
  0
LINE
  8
LVL0000
 10
      151.000029
 20
      295.099976
 30
        0.000000
 11
      151.000029
 21
      305.800000
 31
        0.000000
  0
LINE
  8
LVL0000
 10
      151.000029
 20
      298.749969
 30
        0.000000
 11
      143.999998
 21
      298.749969
 31
        0.000000
  0
LINE
  8
LVL0000
 10
      151.000029
 20
      295.099976
 30
        0.000000
 11
      143.999998
 21
      295.099976
 31
        0.000000
  0
LINE
  8
LVL0000
 10
      179.499998
 20
      295.099976
 30
        0.000000
 11
      179.499998
 21
      305.800000
 31
        0.000000
  0
LINE
  8
LVL0000
 10
      186.500029
 20
      295.099976
 30
        0.000000
 11
      186.500029
 21
      305.800000
 31
        0.000000
  0
LINE
  8
LVL0000
 10
      186.500029
 20
      298.749969
 30
        0.000000
 11
      179.499998
 21
      298.749969
 31
        0.000000
  0
LINE
  8
LVL0000
 10
      186.500029
 20
      295.099976
 30
        0.000000
 11
      179.499998
 21
      295.099976
 31
        0.000000
  0
LINE
  8
LVL0000
 10
      293.000029
 20
      295.099976
 30
        0.000000
 11
      285.999998
 21
      295.099976
 31
        0.000000
  0
LINE
  8
LVL0000
 10
      293.000029
 20
      298.749969
 30
        0.000000
 11
      285.999998
 21
      298.749969
 31
        0.000000
  0
LINE
  8
LVL0000
 10
      293.000029
 20
      295.099976
 30
        0.000000
 11
      293.000029
 21
      305.800000
 31
        0.000000
  0
LINE
  8
LVL0000
 10
      285.999998
 20
      295.099976
 30
        0.000000
 11
      285.999998
 21
      305.800000
 31
        0.000000
  0
LINE
  8
LVL0000
 10
      321.499998
 20
      295.099976
 30
        0.000000
 11
      321.499998
 21
      305.800000
 31
        0.000000
  0
LINE
  8
LVL0000
 10
      328.500029
 20
      295.099976
 30
        0.000000
 11
      328.500029
 21
      305.800000
 31
        0.000000
  0
LINE
  8
LVL0000
 10
      328.500029
 20
      298.749969
 30
        0.000000
 11
      321.499998
 21
      298.749969
 31
        0.000000
  0
LINE
  8
LVL0000
 10
      328.500029
 20
      295.099976
 30
        0.000000
 11
      321.499998
 21
      295.099976
 31
        0.000000
  0
LINE
  8
LVL0000
 10
      355.400040
 20
      295.099976
 30
        0.000000
 11
      348.400009
 21
      295.099976
 31
        0.000000
  0
LINE
  8
LVL0000
 10
      355.400040
 20
      298.749969
 30
        0.000000
 11
      348.400009
 21
      298.749969
 31
        0.000000
  0
LINE
  8
LVL0000
 10
      355.400040
 20
      295.099976
 30
        0.000000
 11
      355.400040
 21
      305.800000
 31
        0.000000
  0
LINE
  8
LVL0000
 10
      348.400009
 20
      295.099976
 30
        0.000000
 11
      348.400009
 21
      305.800000
 31
        0.000000
  0
ENDSEC
  0
EOF
