  0
SECTION
  2
HEADER
  9
$ACADVER
  1
AC1006
  9
$INSBASE
 10
0.0
 20
0.0
 30
0.0
  9
$EXTMIN
 10
      -70.484238
 20
      -70.484238
  9
$EXTMAX
 10
      173.714722
 20
      134.000809
  9
$LIMMIN
 10
      -70.484238
 20
      -70.484238
  9
$LIMMAX
 10
      173.714722
 20
      134.000809
  9
$VIEWCTR
 10
       51.615242
 20
       51.615242
  9
$ORTHOMODE
 70
     0
  9
$ANGBASE
 50
0.0
  9
$ANGDIR
 70
     0
  9
$SPLINETYPE
 70
     6
  9
$SPLINESEGS
 70
     8
9
$DIMASZ
 40
        3.000000
9
$DIMEXE
 40
        0.933333
9
$DIMEXO
 40
        1.333333
9
$DIMTXT
 40
        4.000000
9
$DIMGAP
 40
        0.933333
9
$DIMTAD
 70
1
9
$DIMTIH
 70
0
9
$DIMTOH
 70
0
  0
ENDSEC
  0
SECTION
  2
TABLES
  0
TABLE
  2
LTYPE
 70
     5
  0
LTYPE
  2
CONTINUOUS
 70
    64
  3
SOLID LINE
 72
    65
 73
     0
 40
0.0
  0
LTYPE
  2
DASHED
 70
    64
  3
-- -- -- -- -- --
 72
    65
 73
     2
 40
  0.75  
 49
  0.50  
 49
 -0.25  
  0
LTYPE
  2
DOT
 70
    64
  3
....................
 72
    65
 73
     2
 40
  0.25  
 49
  0.02  
 49
 -0.23  
  0
LTYPE
  2
CENTER
 70
    64
  3
-- . -- . -- . -- .
 72
    65
 73
    4
 40
  2.00  
 49
  1.25  
 49
 -0.25  
 49
  0.25  
 49
 -0.25  
  0
LTYPE
  2
PHANTOM
 70
    64
  3
-- .. -- .. -- ..
 72
    65
 73
    6
 40
  2.50  
 49
  1.25  
 49
 -0.25  
 49
  0.25  
 49
 -0.25  
 49
  0.25  
 49
 -0.25  
  0
ENDTAB
  0
TABLE
  2
LAYER
 70
     1
  0
LAYER
  2
LVL0000
 70
    64
 62
     2
  6
CONTINUOUS
  0
ENDTAB
  0
TABLE
  2
STYLE
 70
     2
  0
STYLE
  2
STANDARD
 70
    64
 40
0.0
 41
1.0
 50
0.0
 71
     0
 42
5.0
  3
ROMANS
  4
BIGFONT
  0
STYLE
  2
BIGFONT
 70
    64
 40
0.0
 41
1.0
 50
0.0
 71
     0
 42
5.0
  3
ROMANS
  4
BIGFONT
  0
ENDTAB
  0
TABLE
  2
VIEW
 70
     0
  0
ENDTAB
  0
TABLE
  2
UCS
 70
     0
  0
ENDTAB
  0
TABLE
  2
DWGMGR
 70
     0
  0
ENDTAB
  0
ENDSEC
  0
SECTION
  2
BLOCKS
  0
BLOCK
  8
0
  2
BLK0001
 70
    64
 10
        0.000000
 20
        0.000000
  0
TEXT
  8
LVL0000
 10
       30.266211
 20
       -7.154851
 30
        0.000000
 40
        4.000000
  1
１３０
 50
       90.000000
 41
        0.835000
 51
        0.000000
  7
BIGFONT
  0
LINE
  8
LVL0000
 10
       18.333334
 20
      -65.000015
 30
        0.000000
 11
       32.132877
 21
      -65.000015
 31
        0.000000
  0
LINE
  8
LVL0000
 10
       18.333334
 20
       65.000000
 30
        0.000000
 11
       32.132877
 21
       65.000000
 31
        0.000000
  0
LINE
  8
LVL0000
 10
       30.728306
 20
      -62.000015
 30
        0.000000
 11
       31.199545
 21
      -65.000015
 31
        0.000000
  0
LINE
  8
LVL0000
 10
       31.199545
 20
      -65.000015
 30
        0.000000
 11
       31.670784
 21
      -62.000015
 31
        0.000000
  0
LINE
  8
LVL0000
 10
       31.670784
 20
       62.000000
 30
        0.000000
 11
       31.199545
 21
       65.000000
 31
        0.000000
  0
LINE
  8
LVL0000
 10
       31.199545
 20
       65.000000
 30
        0.000000
 11
       30.728306
 21
       62.000000
 31
        0.000000
  0
LINE
  8
LVL0000
 10
       31.199545
 20
      -65.000015
 30
        0.000000
 11
       31.199545
 21
       65.000000
 31
        0.000000
  0
ENDBLK
  0
BLOCK
  8
0
  2
BLK0002
 70
    64
 10
        0.000000
 20
        0.000000
  0
TEXT
  8
LVL0000
 10
       -4.513413
 20
      -75.189445
 30
        0.000000
 40
        4.000000
  1
３５
 50
        0.000000
 41
        0.835000
 51
        0.000000
  7
BIGFONT
  0
LINE
  8
LVL0000
 10
      -17.500000
 20
      -65.833351
 30
        0.000000
 11
      -17.500000
 21
      -77.056114
 31
        0.000000
  0
LINE
  8
LVL0000
 10
       17.500000
 20
      -65.833351
 30
        0.000000
 11
       17.500000
 21
      -77.056114
 31
        0.000000
  0
LINE
  8
LVL0000
 10
      -14.500000
 20
      -75.651543
 30
        0.000000
 11
      -17.500000
 21
      -76.122780
 31
        0.000000
  0
LINE
  8
LVL0000
 10
      -17.500000
 20
      -76.122780
 30
        0.000000
 11
      -14.500000
 21
      -76.594017
 31
        0.000000
  0
LINE
  8
LVL0000
 10
       14.500000
 20
      -76.594017
 30
        0.000000
 11
       17.500000
 21
      -76.122780
 31
        0.000000
  0
LINE
  8
LVL0000
 10
       17.500000
 20
      -76.122780
 30
        0.000000
 11
       14.500000
 21
      -75.651543
 31
        0.000000
  0
LINE
  8
LVL0000
 10
      -17.500000
 20
      -76.122780
 30
        0.000000
 11
       17.500000
 21
      -76.122780
 31
        0.000000
  0
ENDBLK
  0
BLOCK
  8
0
  2
BLK0003
 70
    64
 10
        0.000000
 20
        0.000000
  0
TEXT
  8
LVL0000
 10
      111.208282
 20
      -80.675560
 30
        0.000000
 40
        4.000000
  1
１０２．９
 50
        0.000000
 41
        0.835000
 51
        0.000000
  7
BIGFONT
  0
LINE
  8
LVL0000
 10
       63.814575
 20
      -65.833015
 30
        0.000000
 11
       63.814575
 21
      -82.542229
 31
        0.000000
  0
LINE
  8
LVL0000
 10
      166.714722
 20
       54.166988
 30
        0.000000
 11
      166.714722
 21
      -82.542221
 31
        0.000000
  0
LINE
  8
LVL0000
 10
       66.814575
 20
      -81.137657
 30
        0.000000
 11
       63.814575
 21
      -81.608894
 31
        0.000000
  0
LINE
  8
LVL0000
 10
       63.814575
 20
      -81.608894
 30
        0.000000
 11
       66.814575
 21
      -82.080132
 31
        0.000000
  0
LINE
  8
LVL0000
 10
      163.714722
 20
      -82.080124
 30
        0.000000
 11
      166.714722
 21
      -81.608887
 31
        0.000000
  0
LINE
  8
LVL0000
 10
      166.714722
 20
      -81.608887
 30
        0.000000
 11
      163.714722
 21
      -81.137650
 31
        0.000000
  0
LINE
  8
LVL0000
 10
       63.814575
 20
      -81.608894
 30
        0.000000
 11
      166.714722
 21
      -81.608887
 31
        0.000000
  0
ENDBLK
  0
ENDSEC
  0
SECTION
  2
ENTITIES
  0
TEXT
  8
LVL0000
 10
      -15.895217
 20
       93.192561
 30
        0.000000
 40
        5.000000
  1
ＪＷ３００ＣＭ
 50
        0.000000
 41
        0.835000
 51
        0.000000
  7
BIGFONT
  0
DIMENSION
  8
LVL0000
 62
  5
  2
BLK0001
 10
       31.199545
 20
      -65.000015
 11
       30.266211
 21
       -7.154851
 13
       17.000000
 23
      -65.000015
 14
       17.000000
 24
       65.000000
 50
       90.0
 70
  0
  0
DIMENSION
  8
LVL0000
 62
  5
  2
BLK0002
 10
      -17.500000
 20
      -76.122780
 11
       -4.513413
 21
      -75.189445
 13
      -17.500000
 23
      -64.500015
 14
       17.500000
 24
      -64.500015
 50
        0.0
 70
  0
  0
DIMENSION
  8
LVL0000
 62
  5
  2
BLK0003
 10
       63.814575
 20
      -81.608894
 11
      111.208282
 21
      -80.675560
 13
       63.814575
 23
      -64.499680
 14
      166.714722
 24
       55.500320
 50
        0.0
 70
  0
  0
LINE
  8
LVL0000
 62
  3
 10
       11.699951
 20
       38.500229
 30
        0.000000
 11
       12.699951
 21
       38.500229
 31
        0.000000
  0
LINE
  8
LVL0000
 62
  3
 10
       11.699951
 20
       40.500229
 30
        0.000000
 11
       12.699951
 21
       40.500229
 31
        0.000000
  0
LINE
  8
LVL0000
 62
  3
 10
       11.699951
 20
       38.500229
 30
        0.000000
 11
       11.699951
 21
       40.500229
 31
        0.000000
  0
LINE
  8
LVL0000
 62
  3
 10
       12.699951
 20
       38.500229
 30
        0.000000
 11
       12.699951
 21
       40.500229
 31
        0.000000
  0
LINE
  8
LVL0000
 62
  3
 10
        7.699951
 20
       50.500229
 30
        0.000000
 11
        7.699951
 21
       52.500229
 31
        0.000000
  0
LINE
  8
LVL0000
 62
  3
 10
        8.699951
 20
       50.500229
 30
        0.000000
 11
        8.699951
 21
       52.500229
 31
        0.000000
  0
LINE
  8
LVL0000
 62
  3
 10
        7.699951
 20
       52.500229
 30
        0.000000
 11
        8.699951
 21
       52.500229
 31
        0.000000
  0
LINE
  8
LVL0000
 62
  3
 10
        7.699951
 20
       50.500229
 30
        0.000000
 11
        8.699951
 21
       50.500229
 31
        0.000000
  0
LINE
  8
LVL0000
 62
  3
 10
        7.699951
 20
       39.500229
 30
        0.000000
 11
        8.699951
 21
       39.500229
 31
        0.000000
  0
LINE
  8
LVL0000
 62
  3
 10
        7.699951
 20
       41.500229
 30
        0.000000
 11
        8.699951
 21
       41.500229
 31
        0.000000
  0
LINE
  8
LVL0000
 62
  3
 10
        7.699951
 20
       43.500229
 30
        0.000000
 11
        8.699951
 21
       43.500229
 31
        0.000000
  0
LINE
  8
LVL0000
 62
  3
 10
        7.699951
 20
       45.500229
 30
        0.000000
 11
        8.699951
 21
       45.500229
 31
        0.000000
  0
LINE
  8
LVL0000
 62
  3
 10
        7.699951
 20
       39.500229
 30
        0.000000
 11
        7.699951
 21
       41.500229
 31
        0.000000
  0
LINE
  8
LVL0000
 62
  3
 10
        8.699951
 20
       39.500229
 30
        0.000000
 11
        8.699951
 21
       41.500229
 31
        0.000000
  0
LINE
  8
LVL0000
 62
  3
 10
        7.699951
 20
       43.500229
 30
        0.000000
 11
        7.699951
 21
       45.500229
 31
        0.000000
  0
LINE
  8
LVL0000
 62
  3
 10
        8.699951
 20
       43.500229
 30
        0.000000
 11
        8.699951
 21
       45.500229
 31
        0.000000
  0
LINE
  8
LVL0000
 62
  3
 10
        4.999951
 20
       50.500229
 30
        0.000000
 11
        5.999951
 21
       50.500229
 31
        0.000000
  0
LINE
  8
LVL0000
 62
  3
 10
        4.999951
 20
       52.500229
 30
        0.000000
 11
        5.999951
 21
       52.500229
 31
        0.000000
  0
LINE
  8
LVL0000
 62
  3
 10
        5.999951
 20
       50.500229
 30
        0.000000
 11
        5.999951
 21
       52.500229
 31
        0.000000
  0
LINE
  8
LVL0000
 62
  3
 10
        4.999951
 20
       50.500229
 30
        0.000000
 11
        4.999951
 21
       52.500229
 31
        0.000000
  0
LINE
  8
LVL0000
 62
  3
 10
        5.999951
 20
       43.500229
 30
        0.000000
 11
        5.999951
 21
       45.500229
 31
        0.000000
  0
LINE
  8
LVL0000
 62
  3
 10
        4.999951
 20
       43.500229
 30
        0.000000
 11
        4.999951
 21
       45.500229
 31
        0.000000
  0
LINE
  8
LVL0000
 62
  3
 10
        5.999951
 20
       39.500229
 30
        0.000000
 11
        5.999951
 21
       41.500229
 31
        0.000000
  0
LINE
  8
LVL0000
 62
  3
 10
        4.999951
 20
       39.500229
 30
        0.000000
 11
        4.999951
 21
       41.500229
 31
        0.000000
  0
LINE
  8
LVL0000
 62
  3
 10
        4.999951
 20
       45.500229
 30
        0.000000
 11
        5.999951
 21
       45.500229
 31
        0.000000
  0
LINE
  8
LVL0000
 62
  3
 10
        4.999951
 20
       43.500229
 30
        0.000000
 11
        5.999951
 21
       43.500229
 31
        0.000000
  0
LINE
  8
LVL0000
 62
  3
 10
        4.999951
 20
       41.500229
 30
        0.000000
 11
        5.999951
 21
       41.500229
 31
        0.000000
  0
LINE
  8
LVL0000
 62
  3
 10
        4.999951
 20
       39.500229
 30
        0.000000
 11
        5.999951
 21
       39.500229
 31
        0.000000
  0
LINE
  8
LVL0000
 62
  3
 10
        2.299951
 20
       39.500229
 30
        0.000000
 11
        3.299951
 21
       39.500229
 31
        0.000000
  0
LINE
  8
LVL0000
 62
  3
 10
        2.299951
 20
       41.500229
 30
        0.000000
 11
        3.299951
 21
       41.500229
 31
        0.000000
  0
LINE
  8
LVL0000
 62
  3
 10
        2.299951
 20
       43.500229
 30
        0.000000
 11
        3.299951
 21
       43.500229
 31
        0.000000
  0
LINE
  8
LVL0000
 62
  3
 10
        2.299951
 20
       45.500229
 30
        0.000000
 11
        3.299951
 21
       45.500229
 31
        0.000000
  0
LINE
  8
LVL0000
 62
  3
 10
        2.299951
 20
       39.500229
 30
        0.000000
 11
        2.299951
 21
       41.500229
 31
        0.000000
  0
LINE
  8
LVL0000
 62
  3
 10
        3.299951
 20
       39.500229
 30
        0.000000
 11
        3.299951
 21
       41.500229
 31
        0.000000
  0
LINE
  8
LVL0000
 62
  3
 10
        2.299951
 20
       43.500229
 30
        0.000000
 11
        2.299951
 21
       45.500229
 31
        0.000000
  0
LINE
  8
LVL0000
 62
  3
 10
        3.299951
 20
       43.500229
 30
        0.000000
 11
        3.299951
 21
       45.500229
 31
        0.000000
  0
LINE
  8
LVL0000
 62
  3
 10
        2.299951
 20
       50.500229
 30
        0.000000
 11
        2.299951
 21
       52.500229
 31
        0.000000
  0
LINE
  8
LVL0000
 62
  3
 10
        3.299951
 20
       50.500229
 30
        0.000000
 11
        3.299951
 21
       52.500229
 31
        0.000000
  0
LINE
  8
LVL0000
 62
  3
 10
        2.299951
 20
       52.500229
 30
        0.000000
 11
        3.299951
 21
       52.500229
 31
        0.000000
  0
LINE
  8
LVL0000
 62
  3
 10
        2.299951
 20
       50.500229
 30
        0.000000
 11
        3.299951
 21
       50.500229
 31
        0.000000
  0
LINE
  8
LVL0000
 62
  3
 10
       -0.400049
 20
       50.500229
 30
        0.000000
 11
        0.599951
 21
       50.500229
 31
        0.000000
  0
LINE
  8
LVL0000
 62
  3
 10
       -0.400049
 20
       52.500229
 30
        0.000000
 11
        0.599951
 21
       52.500229
 31
        0.000000
  0
LINE
  8
LVL0000
 62
  3
 10
        0.599951
 20
       50.500229
 30
        0.000000
 11
        0.599951
 21
       52.500229
 31
        0.000000
  0
LINE
  8
LVL0000
 62
  3
 10
       -0.400049
 20
       50.500229
 30
        0.000000
 11
       -0.400049
 21
       52.500229
 31
        0.000000
  0
LINE
  8
LVL0000
 62
  3
 10
        0.599951
 20
       43.500229
 30
        0.000000
 11
        0.599951
 21
       45.500229
 31
        0.000000
  0
LINE
  8
LVL0000
 62
  3
 10
       -0.400049
 20
       43.500229
 30
        0.000000
 11
       -0.400049
 21
       45.500229
 31
        0.000000
  0
LINE
  8
LVL0000
 62
  3
 10
        0.599951
 20
       39.500229
 30
        0.000000
 11
        0.599951
 21
       41.500229
 31
        0.000000
  0
LINE
  8
LVL0000
 62
  3
 10
       -0.400049
 20
       39.500229
 30
        0.000000
 11
       -0.400049
 21
       41.500229
 31
        0.000000
  0
LINE
  8
LVL0000
 62
  3
 10
       -0.400049
 20
       45.500229
 30
        0.000000
 11
        0.599951
 21
       45.500229
 31
        0.000000
  0
LINE
  8
LVL0000
 62
  3
 10
       -0.400049
 20
       43.500229
 30
        0.000000
 11
        0.599951
 21
       43.500229
 31
        0.000000
  0
LINE
  8
LVL0000
 62
  3
 10
       -0.400049
 20
       41.500229
 30
        0.000000
 11
        0.599951
 21
       41.500229
 31
        0.000000
  0
LINE
  8
LVL0000
 62
  3
 10
       -0.400049
 20
       39.500229
 30
        0.000000
 11
        0.599951
 21
       39.500229
 31
        0.000000
  0
LINE
  8
LVL0000
 62
  3
 10
       -3.100049
 20
       39.500229
 30
        0.000000
 11
       -2.100049
 21
       39.500229
 31
        0.000000
  0
LINE
  8
LVL0000
 62
  3
 10
       -3.100049
 20
       41.500229
 30
        0.000000
 11
       -2.100049
 21
       41.500229
 31
        0.000000
  0
LINE
  8
LVL0000
 62
  3
 10
       -3.100049
 20
       43.500229
 30
        0.000000
 11
       -2.100049
 21
       43.500229
 31
        0.000000
  0
LINE
  8
LVL0000
 62
  3
 10
       -3.100049
 20
       45.500229
 30
        0.000000
 11
       -2.100049
 21
       45.500229
 31
        0.000000
  0
LINE
  8
LVL0000
 62
  3
 10
       -3.100049
 20
       39.500229
 30
        0.000000
 11
       -3.100049
 21
       41.500229
 31
        0.000000
  0
LINE
  8
LVL0000
 62
  3
 10
       -2.100049
 20
       39.500229
 30
        0.000000
 11
       -2.100049
 21
       41.500229
 31
        0.000000
  0
LINE
  8
LVL0000
 62
  3
 10
       -3.100049
 20
       43.500229
 30
        0.000000
 11
       -3.100049
 21
       45.500229
 31
        0.000000
  0
LINE
  8
LVL0000
 62
  3
 10
       -2.100049
 20
       43.500229
 30
        0.000000
 11
       -2.100049
 21
       45.500229
 31
        0.000000
  0
LINE
  8
LVL0000
 62
  3
 10
       -3.100049
 20
       50.500229
 30
        0.000000
 11
       -3.100049
 21
       52.500229
 31
        0.000000
  0
LINE
  8
LVL0000
 62
  3
 10
       -2.100049
 20
       50.500229
 30
        0.000000
 11
       -2.100049
 21
       52.500229
 31
        0.000000
  0
LINE
  8
LVL0000
 62
  3
 10
       -3.100049
 20
       52.500229
 30
        0.000000
 11
       -2.100049
 21
       52.500229
 31
        0.000000
  0
LINE
  8
LVL0000
 62
  3
 10
       -3.100049
 20
       50.500229
 30
        0.000000
 11
       -2.100049
 21
       50.500229
 31
        0.000000
  0
LINE
  8
LVL0000
 62
  3
 10
       -5.800049
 20
       50.500229
 30
        0.000000
 11
       -4.800049
 21
       50.500229
 31
        0.000000
  0
LINE
  8
LVL0000
 62
  3
 10
       -5.800049
 20
       52.500229
 30
        0.000000
 11
       -4.800049
 21
       52.500229
 31
        0.000000
  0
LINE
  8
LVL0000
 62
  3
 10
       -4.800049
 20
       50.500229
 30
        0.000000
 11
       -4.800049
 21
       52.500229
 31
        0.000000
  0
LINE
  8
LVL0000
 62
  3
 10
       -5.800049
 20
       50.500229
 30
        0.000000
 11
       -5.800049
 21
       52.500229
 31
        0.000000
  0
LINE
  8
LVL0000
 62
  3
 10
       -4.800049
 20
       43.500229
 30
        0.000000
 11
       -4.800049
 21
       45.500229
 31
        0.000000
  0
LINE
  8
LVL0000
 62
  3
 10
       -5.800049
 20
       43.500229
 30
        0.000000
 11
       -5.800049
 21
       45.500229
 31
        0.000000
  0
LINE
  8
LVL0000
 62
  3
 10
       -4.800049
 20
       39.500229
 30
        0.000000
 11
       -4.800049
 21
       41.500229
 31
        0.000000
  0
LINE
  8
LVL0000
 62
  3
 10
       -5.800049
 20
       39.500229
 30
        0.000000
 11
       -5.800049
 21
       41.500229
 31
        0.000000
  0
LINE
  8
LVL0000
 62
  3
 10
       -5.800049
 20
       45.500229
 30
        0.000000
 11
       -4.800049
 21
       45.500229
 31
        0.000000
  0
LINE
  8
LVL0000
 62
  3
 10
       -5.800049
 20
       43.500229
 30
        0.000000
 11
       -4.800049
 21
       43.500229
 31
        0.000000
  0
LINE
  8
LVL0000
 62
  3
 10
       -5.800049
 20
       41.500229
 30
        0.000000
 11
       -4.800049
 21
       41.500229
 31
        0.000000
  0
LINE
  8
LVL0000
 62
  3
 10
       -5.800049
 20
       39.500229
 30
        0.000000
 11
       -4.800049
 21
       39.500229
 31
        0.000000
  0
LINE
  8
LVL0000
 62
  3
 10
       -8.500049
 20
       39.500229
 30
        0.000000
 11
       -7.500049
 21
       39.500229
 31
        0.000000
  0
LINE
  8
LVL0000
 62
  3
 10
       -8.500049
 20
       41.500229
 30
        0.000000
 11
       -7.500049
 21
       41.500229
 31
        0.000000
  0
LINE
  8
LVL0000
 62
  3
 10
       -8.500049
 20
       43.500229
 30
        0.000000
 11
       -7.500049
 21
       43.500229
 31
        0.000000
  0
LINE
  8
LVL0000
 62
  3
 10
       -8.500049
 20
       45.500229
 30
        0.000000
 11
       -7.500049
 21
       45.500229
 31
        0.000000
  0
LINE
  8
LVL0000
 62
  3
 10
       -8.500049
 20
       39.500229
 30
        0.000000
 11
       -8.500049
 21
       41.500229
 31
        0.000000
  0
LINE
  8
LVL0000
 62
  3
 10
       -7.500049
 20
       39.500229
 30
        0.000000
 11
       -7.500049
 21
       41.500229
 31
        0.000000
  0
LINE
  8
LVL0000
 62
  3
 10
       -8.500049
 20
       43.500229
 30
        0.000000
 11
       -8.500049
 21
       45.500229
 31
        0.000000
  0
LINE
  8
LVL0000
 62
  3
 10
       -7.500049
 20
       43.500229
 30
        0.000000
 11
       -7.500049
 21
       45.500229
 31
        0.000000
  0
LINE
  8
LVL0000
 62
  3
 10
       -8.500049
 20
       50.500229
 30
        0.000000
 11
       -8.500049
 21
       52.500229
 31
        0.000000
  0
LINE
  8
LVL0000
 62
  3
 10
       -7.500049
 20
       50.500229
 30
        0.000000
 11
       -7.500049
 21
       52.500229
 31
        0.000000
  0
LINE
  8
LVL0000
 62
  3
 10
       -8.500049
 20
       52.500229
 30
        0.000000
 11
       -7.500049
 21
       52.500229
 31
        0.000000
  0
LINE
  8
LVL0000
 62
  3
 10
       -8.500049
 20
       50.500229
 30
        0.000000
 11
       -7.500049
 21
       50.500229
 31
        0.000000
  0
LINE
  8
LVL0000
 62
  3
 10
      -11.200049
 20
       50.500229
 30
        0.000000
 11
      -10.200049
 21
       50.500229
 31
        0.000000
  0
LINE
  8
LVL0000
 62
  3
 10
      -11.200049
 20
       52.500229
 30
        0.000000
 11
      -10.200049
 21
       52.500229
 31
        0.000000
  0
LINE
  8
LVL0000
 62
  3
 10
      -10.200049
 20
       50.500229
 30
        0.000000
 11
      -10.200049
 21
       52.500229
 31
        0.000000
  0
LINE
  8
LVL0000
 62
  3
 10
      -11.200049
 20
       50.500229
 30
        0.000000
 11
      -11.200049
 21
       52.500229
 31
        0.000000
  0
LINE
  8
LVL0000
 62
  3
 10
      -10.200049
 20
       43.500229
 30
        0.000000
 11
      -10.200049
 21
       45.500229
 31
        0.000000
  0
LINE
  8
LVL0000
 62
  3
 10
      -11.200049
 20
       43.500229
 30
        0.000000
 11
      -11.200049
 21
       45.500229
 31
        0.000000
  0
LINE
  8
LVL0000
 62
  3
 10
      -10.200049
 20
       39.500229
 30
        0.000000
 11
      -10.200049
 21
       41.500229
 31
        0.000000
  0
LINE
  8
LVL0000
 62
  3
 10
      -11.200049
 20
       39.500229
 30
        0.000000
 11
      -11.200049
 21
       41.500229
 31
        0.000000
  0
LINE
  8
LVL0000
 62
  3
 10
      -11.200049
 20
       45.500229
 30
        0.000000
 11
      -10.200049
 21
       45.500229
 31
        0.000000
  0
LINE
  8
LVL0000
 62
  3
 10
      -11.200049
 20
       43.500229
 30
        0.000000
 11
      -10.200049
 21
       43.500229
 31
        0.000000
  0
LINE
  8
LVL0000
 62
  3
 10
      -11.200049
 20
       41.500229
 30
        0.000000
 11
      -10.200049
 21
       41.500229
 31
        0.000000
  0
LINE
  8
LVL0000
 62
  3
 10
      -11.200049
 20
       39.500229
 30
        0.000000
 11
      -10.200049
 21
       39.500229
 31
        0.000000
  0
ARC
  8
LVL0000
 62
  3
 10
        7.999939
 20
      -19.850018
 30
        0.000000
 40
        1.500000
 50
      270.000000
 51
      360.000000
  0
LINE
  8
LVL0000
 62
  3
 10
        9.499939
 20
      -19.850018
 30
        0.000000
 11
        9.499939
 21
       17.249988
 31
        0.000000
  0
ARC
  8
LVL0000
 62
  3
 10
        7.999939
 20
       17.249988
 30
        0.000000
 40
        1.500000
 50
        0.000000
 51
       90.000000
  0
LINE
  8
LVL0000
 62
  3
 10
        7.999939
 20
       18.749988
 30
        0.000000
 11
       -2.500067
 21
       18.749988
 31
        0.000000
  0
ARC
  8
LVL0000
 62
  3
 10
       -2.500067
 20
       17.249988
 30
        0.000000
 40
        1.500000
 50
       90.000000
 51
      179.999995
  0
LINE
  8
LVL0000
 62
  3
 10
       -4.000067
 20
      -19.850018
 30
        0.000000
 11
       -4.000067
 21
       17.249988
 31
        0.000000
  0
ARC
  8
LVL0000
 62
  3
 10
       -2.500067
 20
      -19.850018
 30
        0.000000
 40
        1.500000
 50
      179.999995
 51
      270.000000
  0
LINE
  8
LVL0000
 62
  3
 10
        7.999939
 20
      -21.350018
 30
        0.000000
 11
       -2.500067
 21
      -21.350018
 31
        0.000000
  0
ARC
  8
LVL0000
 62
  3
 10
        4.659955
 20
      -10.537955
 30
        0.000000
 40
        2.000000
 50
      280.000002
 51
      360.000000
  0
ARC
  8
LVL0000
 62
  3
 10
        0.839948
 20
      -11.211525
 30
        0.000000
 40
        2.000000
 50
      179.999995
 51
      280.000002
  0
LINE
  8
LVL0000
 62
  3
 10
        1.187244
 20
      -13.181141
 30
        0.000000
 11
        5.007251
 21
      -12.507571
 31
        0.000000
  0
LINE
  8
LVL0000
 62
  3
 10
        7.999939
 20
       18.249988
 30
        0.000000
 11
       -2.500067
 21
       18.249988
 31
        0.000000
  0
CIRCLE
  8
LVL0000
 62
  3
 10
        4.169955
 20
        6.919985
 30
        0.000000
 40
        0.750000
  0
CIRCLE
  8
LVL0000
 62
  3
 10
        4.169955
 20
        4.179985
 30
        0.000000
 40
        0.750000
  0
CIRCLE
  8
LVL0000
 62
  3
 10
        4.169955
 20
        1.439985
 30
        0.000000
 40
        0.750000
  0
CIRCLE
  8
LVL0000
 62
  3
 10
        4.169955
 20
       -1.300015
 30
        0.000000
 40
        0.750000
  0
CIRCLE
  8
LVL0000
 62
  3
 10
        4.169955
 20
       -4.040015
 30
        0.000000
 40
        0.750000
  0
CIRCLE
  8
LVL0000
 62
  3
 10
        4.169955
 20
       -6.780015
 30
        0.000000
 40
        0.750000
  0
CIRCLE
  8
LVL0000
 62
  3
 10
        4.169955
 20
       -9.520015
 30
        0.000000
 40
        0.750000
  0
CIRCLE
  8
LVL0000
 62
  3
 10
        1.329948
 20
      -10.890015
 30
        0.000000
 40
        0.750000
  0
CIRCLE
  8
LVL0000
 62
  3
 10
        1.329948
 20
       -8.150015
 30
        0.000000
 40
        0.750000
  0
CIRCLE
  8
LVL0000
 62
  3
 10
        1.329948
 20
       -5.410015
 30
        0.000000
 40
        0.750000
  0
CIRCLE
  8
LVL0000
 62
  3
 10
        1.329948
 20
       -2.670015
 30
        0.000000
 40
        0.750000
  0
CIRCLE
  8
LVL0000
 62
  3
 10
        1.329948
 20
        0.069985
 30
        0.000000
 40
        0.750000
  0
CIRCLE
  8
LVL0000
 62
  3
 10
        1.329948
 20
        2.809985
 30
        0.000000
 40
        0.750000
  0
CIRCLE
  8
LVL0000
 62
  3
 10
        1.329948
 20
        5.549985
 30
        0.000000
 40
        0.750000
  0
CIRCLE
  8
LVL0000
 62
  3
 10
        1.329948
 20
        8.289985
 30
        0.000000
 40
        0.750000
  0
ARC
  8
LVL0000
 62
  3
 10
       -2.500067
 20
      -19.850018
 30
        0.000000
 40
        1.000000
 50
      179.999995
 51
      270.000000
  0
ARC
  8
LVL0000
 62
  3
 10
        7.999939
 20
      -19.850018
 30
        0.000000
 40
        1.000000
 50
      270.000000
 51
      360.000000
  0
ARC
  8
LVL0000
 62
  3
 10
        7.999939
 20
       17.249988
 30
        0.000000
 40
        1.000000
 50
        0.000000
 51
       90.000000
  0
ARC
  8
LVL0000
 62
  3
 10
       -2.500067
 20
       17.249988
 30
        0.000000
 40
        1.000000
 50
       90.000000
 51
      179.999995
  0
LINE
  8
LVL0000
 62
  3
 10
        1.306560
 20
       17.859985
 30
        0.000000
 11
        4.193312
 21
       17.859985
 31
        0.000000
  0
LINE
  8
LVL0000
 62
  3
 10
        4.193312
 20
       17.859985
 30
        0.000000
 11
        5.636687
 21
       15.359985
 31
        0.000000
  0
LINE
  8
LVL0000
 62
  3
 10
       -0.136815
 20
       15.359985
 30
        0.000000
 11
        1.306560
 21
       17.859985
 31
        0.000000
  0
LINE
  8
LVL0000
 62
  3
 10
        1.306560
 20
       12.859985
 30
        0.000000
 11
       -0.136815
 21
       15.359985
 31
        0.000000
  0
LINE
  8
LVL0000
 62
  3
 10
        5.636687
 20
       15.359985
 30
        0.000000
 11
        4.193312
 21
       12.859985
 31
        0.000000
  0
LINE
  8
LVL0000
 62
  3
 10
        4.193312
 20
       12.859985
 30
        0.000000
 11
        1.306560
 21
       12.859985
 31
        0.000000
  0
CIRCLE
  8
LVL0000
 62
  3
 10
        2.749936
 20
       15.359985
 30
        0.000000
 40
        1.250000
  0
CIRCLE
  8
LVL0000
 62
  3
 10
        2.749936
 20
       15.359985
 30
        0.000000
 40
        2.500000
  0
CIRCLE
  8
LVL0000
 62
  3
 10
        2.749936
 20
      -17.960015
 30
        0.000000
 40
        2.500000
  0
CIRCLE
  8
LVL0000
 62
  3
 10
        2.749936
 20
      -17.960015
 30
        0.000000
 40
        1.250000
  0
LINE
  8
LVL0000
 62
  3
 10
        4.193312
 20
      -15.460015
 30
        0.000000
 11
        1.306560
 21
      -15.460015
 31
        0.000000
  0
LINE
  8
LVL0000
 62
  3
 10
        5.636687
 20
      -17.960015
 30
        0.000000
 11
        4.193312
 21
      -15.460015
 31
        0.000000
  0
LINE
  8
LVL0000
 62
  3
 10
        1.306560
 20
      -15.460015
 30
        0.000000
 11
       -0.136815
 21
      -17.960015
 31
        0.000000
  0
LINE
  8
LVL0000
 62
  3
 10
       -0.136815
 20
      -17.960015
 30
        0.000000
 11
        1.306560
 21
      -20.460015
 31
        0.000000
  0
LINE
  8
LVL0000
 62
  3
 10
        4.193312
 20
      -20.460015
 30
        0.000000
 11
        5.636687
 21
      -17.960015
 31
        0.000000
  0
LINE
  8
LVL0000
 62
  3
 10
        1.306560
 20
      -20.460015
 30
        0.000000
 11
        4.193312
 21
      -20.460015
 31
        0.000000
  0
LINE
  8
LVL0000
 62
  3
 10
        8.999939
 20
      -19.850018
 30
        0.000000
 11
        8.999939
 21
       17.249988
 31
        0.000000
  0
LINE
  8
LVL0000
 62
  3
 10
        7.999939
 20
      -20.850018
 30
        0.000000
 11
       -2.500067
 21
      -20.850018
 31
        0.000000
  0
LINE
  8
LVL0000
 62
  3
 10
       -3.500067
 20
      -19.850018
 30
        0.000000
 11
       -3.500067
 21
       17.249988
 31
        0.000000
  0
LINE
  8
LVL0000
 62
  3
 10
       -1.160052
 20
      -11.211525
 30
        0.000000
 11
       -1.160052
 21
        8.611495
 31
        0.000000
  0
LINE
  8
LVL0000
 62
  3
 10
        6.659955
 20
      -10.537955
 30
        0.000000
 11
        6.659955
 21
        7.937925
 31
        0.000000
  0
ARC
  8
LVL0000
 62
  3
 10
        4.659955
 20
        7.937925
 30
        0.000000
 40
        2.000000
 50
        0.000000
 51
       79.999998
  0
ARC
  8
LVL0000
 62
  3
 10
        0.839948
 20
        8.611495
 30
        0.000000
 40
        2.000000
 50
       79.999998
 51
      179.999995
  0
LINE
  8
LVL0000
 62
  3
 10
        1.187244
 20
       10.581110
 30
        0.000000
 11
        5.007251
 21
        9.907540
 31
        0.000000
  0
ARC
  8
LVL0000
 62
  3
 10
       16.500000
 20
       21.499985
 30
        0.000000
 40
        0.500000
 50
        0.000000
 51
       90.000000
  0
LINE
  8
LVL0000
 62
  3
 10
      -16.500000
 20
       21.999985
 30
        0.000000
 11
       16.500000
 21
       21.999985
 31
        0.000000
  0
ARC
  8
LVL0000
 62
  3
 10
      -16.500000
 20
       21.499985
 30
        0.000000
 40
        0.500000
 50
       90.000000
 51
      179.999995
  0
LINE
  8
LVL0000
 62
  3
 10
      -17.000000
 20
      -64.000015
 30
        0.000000
 11
      -17.000000
 21
       21.499985
 31
        0.000000
  0
ARC
  8
LVL0000
 62
  3
 10
      -16.500000
 20
      -64.000015
 30
        0.000000
 40
        0.500000
 50
      179.999995
 51
      270.000000
  0
LINE
  8
LVL0000
 62
  3
 10
       16.500000
 20
      -64.500015
 30
        0.000000
 11
      -16.500000
 21
      -64.500015
 31
        0.000000
  0
LINE
  8
LVL0000
 62
  3
 10
       17.000000
 20
      -64.000015
 30
        0.000000
 11
       17.000000
 21
       21.499985
 31
        0.000000
  0
ARC
  8
LVL0000
 62
  3
 10
       16.500000
 20
      -64.000015
 30
        0.000000
 40
        0.500000
 50
      270.000000
 51
      360.000000
  0
LINE
  8
LVL0000
 62
  3
 10
       63.814575
 20
      -64.499680
 30
        0.000000
 11
       64.314575
 21
      -64.499680
 31
        0.000000
  0
LINE
  8
LVL0000
 62
  3
 10
       63.314573
 20
      -20.849664
 30
        0.000000
 11
       63.314573
 21
       18.250342
 31
        0.000000
  0
LINE
  8
LVL0000
 62
  3
 10
       63.814575
 20
       22.052719
 30
        0.000000
 11
       63.814575
 21
      -64.499680
 31
        0.000000
  0
LINE
  8
LVL0000
 62
  3
 10
       63.814575
 20
       22.052719
 30
        0.000000
 11
       64.314575
 21
       22.052719
 31
        0.000000
  0
LINE
  8
LVL0000
 62
  3
 10
       63.314573
 20
       10.995338
 30
        0.000000
 11
       57.214536
 21
       10.995338
 31
        0.000000
  0
LINE
  8
LVL0000
 62
  3
 10
       63.314573
 20
       17.860320
 30
        0.000000
 11
       56.914536
 21
       17.860320
 31
        0.000000
  0
LINE
  8
LVL0000
 62
  3
 10
       63.314573
 20
       12.860320
 30
        0.000000
 11
       56.914536
 21
       12.860320
 31
        0.000000
  0
LINE
  8
LVL0000
 62
  3
 10
       63.314573
 20
       15.360320
 30
        0.000000
 11
       56.914536
 21
       15.360320
 31
        0.000000
  0
LINE
  8
LVL0000
 62
  3
 10
       56.914536
 20
       12.860320
 30
        0.000000
 11
       56.914536
 21
       17.860320
 31
        0.000000
  0
LINE
  8
LVL0000
 62
  3
 10
       63.314573
 20
      -13.594659
 30
        0.000000
 11
       57.214536
 21
      -13.594659
 31
        0.000000
  0
LINE
  8
LVL0000
 62
  3
 10
       57.214536
 20
      -13.594659
 30
        0.000000
 11
       57.214536
 21
       10.995338
 31
        0.000000
  0
LINE
  8
LVL0000
 62
  3
 10
       56.914536
 20
      -15.459680
 30
        0.000000
 11
       56.914536
 21
      -20.459680
 31
        0.000000
  0
LINE
  8
LVL0000
 62
  3
 10
       63.314573
 20
      -17.959680
 30
        0.000000
 11
       56.914536
 21
      -17.959680
 31
        0.000000
  0
LINE
  8
LVL0000
 62
  3
 10
       63.314573
 20
      -15.459680
 30
        0.000000
 11
       56.914536
 21
      -15.459680
 31
        0.000000
  0
LINE
  8
LVL0000
 62
  3
 10
       63.314573
 20
      -20.459680
 30
        0.000000
 11
       56.914536
 21
      -20.459680
 31
        0.000000
  0
LINE
  8
LVL0000
 62
  3
 10
       63.814575
 20
       18.250342
 30
        0.000000
 11
       63.314573
 21
       18.250342
 31
        0.000000
  0
LINE
  8
LVL0000
 62
  3
 10
       63.814575
 20
      -20.849664
 30
        0.000000
 11
       63.314573
 21
      -20.849664
 31
        0.000000
  0
LINE
  8
LVL0000
 62
  3
 10
        9.799939
 20
      -42.500015
 30
        0.000000
 11
        9.799939
 21
      -38.500015
 31
        0.000000
  0
LINE
  8
LVL0000
 62
  3
 10
        8.029939
 20
      -47.235015
 30
        0.000000
 11
       -1.900061
 21
      -47.235015
 31
        0.000000
  0
LINE
  8
LVL0000
 62
  3
 10
       -2.400061
 20
      -46.735015
 30
        0.000000
 11
       -2.400061
 21
      -34.265015
 31
        0.000000
  0
ARC
  8
LVL0000
 62
  3
 10
       -1.900061
 20
      -46.735015
 30
        0.000000
 40
        0.500000
 50
      179.999995
 51
      270.000000
  0
ARC
  8
LVL0000
 62
  3
 10
       -1.900061
 20
      -34.265015
 30
        0.000000
 40
        0.500000
 50
       90.000000
 51
      179.999995
  0
LINE
  8
LVL0000
 62
  3
 10
        8.029939
 20
      -33.765015
 30
        0.000000
 11
       -1.900061
 21
      -33.765015
 31
        0.000000
  0
ARC
  8
LVL0000
 62
  3
 10
        8.029939
 20
      -34.265015
 30
        0.000000
 40
        0.500000
 50
        0.000000
 51
       90.000000
  0
LINE
  8
LVL0000
 62
  3
 10
        8.529939
 20
      -38.500015
 30
        0.000000
 11
        8.529939
 21
      -34.265015
 31
        0.000000
  0
LINE
  8
LVL0000
 62
  3
 10
        9.799939
 20
      -38.500015
 30
        0.000000
 11
        8.529939
 21
      -38.500015
 31
        0.000000
  0
LINE
  8
LVL0000
 62
  3
 10
        8.529939
 20
      -42.500015
 30
        0.000000
 11
        9.799939
 21
      -42.500015
 31
        0.000000
  0
LINE
  8
LVL0000
 62
  3
 10
        8.529939
 20
      -46.735015
 30
        0.000000
 11
        8.529939
 21
      -42.500015
 31
        0.000000
  0
ARC
  8
LVL0000
 62
  3
 10
        8.029939
 20
      -46.735015
 30
        0.000000
 40
        0.500000
 50
      270.000000
 51
      360.000000
  0
CIRCLE
  8
LVL0000
 62
  3
 10
        4.999917
 20
      -53.300046
 30
        0.000000
 40
        1.500000
  0
LINE
  8
LVL0000
 62
  3
 10
        7.599939
 20
      -38.500015
 30
        0.000000
 11
        8.999939
 21
      -38.500015
 31
        0.000000
  0
LINE
  8
LVL0000
 62
  3
 10
        7.599939
 20
      -37.400015
 30
        0.000000
 11
        7.599939
 21
      -38.500015
 31
        0.000000
  0
LINE
  8
LVL0000
 62
  3
 10
        6.199939
 20
      -37.400015
 30
        0.000000
 11
        7.599939
 21
      -37.400015
 31
        0.000000
  0
LINE
  8
LVL0000
 62
  3
 10
        6.199939
 20
      -34.500015
 30
        0.000000
 11
        6.199939
 21
      -37.400015
 31
        0.000000
  0
LINE
  8
LVL0000
 62
  3
 10
       -0.900061
 20
      -34.500015
 30
        0.000000
 11
        6.199939
 21
      -34.500015
 31
        0.000000
  0
LINE
  8
LVL0000
 62
  3
 10
       -0.900061
 20
      -34.500015
 30
        0.000000
 11
       -0.900061
 21
      -46.500015
 31
        0.000000
  0
LINE
  8
LVL0000
 62
  3
 10
        7.599939
 20
      -42.500015
 30
        0.000000
 11
        8.999939
 21
      -42.500015
 31
        0.000000
  0
LINE
  8
LVL0000
 62
  3
 10
        7.599939
 20
      -42.500015
 30
        0.000000
 11
        7.599939
 21
      -43.600015
 31
        0.000000
  0
LINE
  8
LVL0000
 62
  3
 10
        6.199939
 20
      -43.600015
 30
        0.000000
 11
        7.599939
 21
      -43.600015
 31
        0.000000
  0
LINE
  8
LVL0000
 62
  3
 10
        6.199939
 20
      -43.600015
 30
        0.000000
 11
        6.199939
 21
      -46.500015
 31
        0.000000
  0
LINE
  8
LVL0000
 62
  3
 10
       -0.900061
 20
      -46.500015
 30
        0.000000
 11
        6.199939
 21
      -46.500015
 31
        0.000000
  0
LINE
  8
LVL0000
 62
  3
 10
        5.499933
 20
      -27.875015
 30
        0.000000
 11
        4.499933
 21
      -27.875015
 31
        0.000000
  0
LINE
  8
LVL0000
 62
  3
 10
        5.499933
 20
      -27.875015
 30
        0.000000
 11
        5.499933
 21
      -27.125015
 31
        0.000000
  0
LINE
  8
LVL0000
 62
  3
 10
        5.499933
 20
      -27.125015
 30
        0.000000
 11
        4.499933
 21
      -27.125015
 31
        0.000000
  0
LINE
  8
LVL0000
 62
  3
 10
        4.499933
 20
      -27.125015
 30
        0.000000
 11
        4.499933
 21
      -26.750015
 31
        0.000000
  0
LINE
  8
LVL0000
 62
  3
 10
        3.999933
 20
      -27.500015
 30
        0.000000
 11
        4.499933
 21
      -26.750015
 31
        0.000000
  0
LINE
  8
LVL0000
 62
  3
 10
        3.999933
 20
      -27.500015
 30
        0.000000
 11
        4.499933
 21
      -28.250015
 31
        0.000000
  0
LINE
  8
LVL0000
 62
  3
 10
        4.499933
 20
      -28.250015
 30
        0.000000
 11
        4.499933
 21
      -27.875015
 31
        0.000000
  0
CIRCLE
  8
LVL0000
 62
  3
 10
        4.849939
 20
      -27.500015
 30
        0.000000
 40
        1.250000
  0
CIRCLE
  8
LVL0000
 62
  3
 10
        4.849939
 20
      -27.500015
 30
        0.000000
 40
        3.750000
  0
LINE
  8
LVL0000
 62
  3
 10
       92.314331
 20
      132.000809
 30
        0.000000
 11
       90.314331
 21
      132.000809
 31
        0.000000
  0
LINE
  8
LVL0000
 62
  3
 10
       90.314331
 20
       99.000809
 30
        0.000000
 11
       90.314331
 21
      134.000809
 31
        0.000000
  0
LINE
  8
LVL0000
 62
  3
 10
       92.314331
 20
       99.000809
 30
        0.000000
 11
       92.314331
 21
      134.000809
 31
        0.000000
  0
LINE
  8
LVL0000
 62
  3
 10
       88.314331
 20
      132.000809
 30
        0.000000
 11
       86.314331
 21
      132.000809
 31
        0.000000
  0
LINE
  8
LVL0000
 62
  3
 10
       86.314331
 20
       99.000809
 30
        0.000000
 11
       86.314331
 21
      134.000809
 31
        0.000000
  0
LINE
  8
LVL0000
 62
  3
 10
       88.314331
 20
       99.000809
 30
        0.000000
 11
       88.314331
 21
      134.000809
 31
        0.000000
  0
LINE
  8
LVL0000
 62
  3
 10
       84.314331
 20
      132.000809
 30
        0.000000
 11
       82.314331
 21
      132.000809
 31
        0.000000
  0
LINE
  8
LVL0000
 62
  3
 10
       82.314331
 20
       99.000809
 30
        0.000000
 11
       82.314331
 21
      134.000809
 31
        0.000000
  0
LINE
  8
LVL0000
 62
  3
 10
       84.314331
 20
       99.000809
 30
        0.000000
 11
       84.314331
 21
      134.000809
 31
        0.000000
  0
LINE
  8
LVL0000
 62
  3
 10
       80.314331
 20
      132.000809
 30
        0.000000
 11
       78.314331
 21
      132.000809
 31
        0.000000
  0
LINE
  8
LVL0000
 62
  3
 10
       78.314331
 20
       99.000809
 30
        0.000000
 11
       78.314331
 21
      134.000809
 31
        0.000000
  0
LINE
  8
LVL0000
 62
  3
 10
       80.314331
 20
       99.000809
 30
        0.000000
 11
       80.314331
 21
      134.000809
 31
        0.000000
  0
LINE
  8
LVL0000
 62
  3
 10
       92.314331
 20
      100.600815
 30
        0.000000
 11
       90.314331
 21
      100.600815
 31
        0.000000
  0
LINE
  8
LVL0000
 62
  3
 10
       88.314331
 20
      100.600815
 30
        0.000000
 11
       86.314331
 21
      100.600815
 31
        0.000000
  0
LINE
  8
LVL0000
 62
  3
 10
       84.314331
 20
      100.600815
 30
        0.000000
 11
       82.314331
 21
      100.600815
 31
        0.000000
  0
LINE
  8
LVL0000
 62
  3
 10
       80.314331
 20
      100.600815
 30
        0.000000
 11
       78.314331
 21
      100.600815
 31
        0.000000
  0
LINE
  8
LVL0000
 62
  3
 10
       62.964478
 20
      122.650843
 30
        0.000000
 11
       62.964478
 21
      124.650843
 31
        0.000000
  0
LINE
  8
LVL0000
 62
  3
 10
       62.964478
 20
      122.650843
 30
        0.000000
 11
       64.314331
 21
      122.650843
 31
        0.000000
  0
LINE
  8
LVL0000
 62
  3
 10
       62.964478
 20
      124.650843
 30
        0.000000
 11
       64.314331
 21
      124.650843
 31
        0.000000
  0
LINE
  8
LVL0000
 62
  3
 10
      166.714355
 20
      134.000801
 30
        0.000000
 11
       64.814331
 21
      134.000809
 31
        0.000000
  0
ARC
  8
LVL0000
 62
  3
 10
       64.814331
 20
      133.500801
 30
        0.000000
 40
        0.500008
 50
       90.000000
 51
      179.999995
  0
LINE
  8
LVL0000
 62
  3
 10
       64.314331
 20
       99.500801
 30
        0.000000
 11
       64.314331
 21
      133.500801
 31
        0.000000
  0
LINE
  8
LVL0000
 62
  3
 10
      166.714355
 20
       99.000801
 30
        0.000000
 11
       64.814331
 21
       99.000809
 31
        0.000000
  0
ARC
  8
LVL0000
 62
  3
 10
       64.814331
 20
       99.500801
 30
        0.000000
 40
        0.500000
 50
      179.999995
 51
      270.000000
  0
LINE
  8
LVL0000
 62
  3
 10
      168.214722
 20
      128.400803
 30
        0.000000
 11
      168.214722
 21
      107.500313
 31
        0.000000
  0
LINE
  8
LVL0000
 62
  3
 10
      168.214722
 20
      128.400803
 30
        0.000000
 11
      166.714355
 21
      128.400803
 31
        0.000000
  0
LINE
  8
LVL0000
 62
  3
 10
      166.714722
 20
      103.500313
 30
        0.000000
 11
      171.714722
 21
      103.500313
 31
        0.000000
  0
LINE
  8
LVL0000
 62
  3
 10
      166.714722
 20
      107.500313
 30
        0.000000
 11
      171.714722
 21
      107.500313
 31
        0.000000
  0
ARC
  8
LVL0000
 62
  3
 10
      171.714722
 20
      105.500313
 30
        0.000000
 40
        2.000000
 50
      270.000000
 51
      450.000000
  0
LINE
  8
LVL0000
 62
  3
 10
      105.314331
 20
      114.450813
 30
        0.000000
 11
      107.314331
 21
      114.000801
 31
        0.000000
  0
LINE
  8
LVL0000
 62
  3
 10
      105.314331
 20
      118.550789
 30
        0.000000
 11
      107.314331
 21
      119.000801
 31
        0.000000
  0
LINE
  8
LVL0000
 62
  3
 10
      115.314331
 20
      113.000801
 30
        0.000000
 11
      113.314331
 21
      113.100777
 31
        0.000000
  0
LINE
  8
LVL0000
 62
  3
 10
      113.314331
 20
      119.900826
 30
        0.000000
 11
      115.314331
 21
      120.000801
 31
        0.000000
  0
LINE
  8
LVL0000
 62
  3
 10
      109.314331
 20
      119.400826
 30
        0.000000
 11
      111.314331
 21
      119.700813
 31
        0.000000
  0
LINE
  8
LVL0000
 62
  3
 10
      111.314331
 20
      113.300789
 30
        0.000000
 11
      109.314331
 21
      113.600777
 31
        0.000000
  0
LINE
  8
LVL0000
 62
  3
 10
      102.814331
 20
      115.086617
 30
        0.000000
 11
      103.314331
 21
      114.900826
 31
        0.000000
  0
LINE
  8
LVL0000
 62
  3
 10
      103.314331
 20
      118.100777
 30
        0.000000
 11
      102.814331
 21
      117.914986
 31
        0.000000
  0
ARC
  8
LVL0000
 62
  3
 10
      103.314331
 20
      116.500801
 30
        0.000000
 40
        1.499973
 50
      109.471585
 51
      250.528418
  0
LINE
  8
LVL0000
 62
  3
 10
      119.314331
 20
      112.900826
 30
        0.000000
 11
      117.314331
 21
      112.900826
 31
        0.000000
  0
LINE
  8
LVL0000
 62
  3
 10
      119.314331
 20
      120.100777
 30
        0.000000
 11
      117.314331
 21
      120.100777
 31
        0.000000
  0
LINE
  8
LVL0000
 62
  3
 10
      123.314331
 20
      112.900826
 30
        0.000000
 11
      121.314331
 21
      112.900826
 31
        0.000000
  0
LINE
  8
LVL0000
 62
  3
 10
      123.314331
 20
      120.100777
 30
        0.000000
 11
      121.314331
 21
      120.100777
 31
        0.000000
  0
LINE
  8
LVL0000
 62
  3
 10
      127.314331
 20
      112.900826
 30
        0.000000
 11
      125.314331
 21
      112.900826
 31
        0.000000
  0
LINE
  8
LVL0000
 62
  3
 10
      127.314331
 20
      120.100777
 30
        0.000000
 11
      125.314331
 21
      120.100777
 31
        0.000000
  0
LINE
  8
LVL0000
 62
  3
 10
      131.314331
 20
      112.900826
 30
        0.000000
 11
      129.314331
 21
      112.900826
 31
        0.000000
  0
LINE
  8
LVL0000
 62
  3
 10
      131.314331
 20
      120.100777
 30
        0.000000
 11
      129.314331
 21
      120.100777
 31
        0.000000
  0
LINE
  8
LVL0000
 62
  3
 10
      135.314331
 20
      112.900826
 30
        0.000000
 11
      133.314331
 21
      112.900826
 31
        0.000000
  0
LINE
  8
LVL0000
 62
  3
 10
      135.314331
 20
      120.100777
 30
        0.000000
 11
      133.314331
 21
      120.100777
 31
        0.000000
  0
LINE
  8
LVL0000
 62
  3
 10
      139.314331
 20
      112.900826
 30
        0.000000
 11
      137.314331
 21
      112.900826
 31
        0.000000
  0
LINE
  8
LVL0000
 62
  3
 10
      139.314331
 20
      120.100777
 30
        0.000000
 11
      137.314331
 21
      120.100777
 31
        0.000000
  0
LINE
  8
LVL0000
 62
  3
 10
      143.314331
 20
      112.900826
 30
        0.000000
 11
      141.314331
 21
      112.900826
 31
        0.000000
  0
LINE
  8
LVL0000
 62
  3
 10
      143.314331
 20
      120.100777
 30
        0.000000
 11
      141.314331
 21
      120.100777
 31
        0.000000
  0
LINE
  8
LVL0000
 62
  3
 10
      147.314331
 20
      112.900826
 30
        0.000000
 11
      145.314331
 21
      112.900826
 31
        0.000000
  0
LINE
  8
LVL0000
 62
  3
 10
      147.314331
 20
      120.100777
 30
        0.000000
 11
      145.314331
 21
      120.100777
 31
        0.000000
  0
LINE
  8
LVL0000
 62
  3
 10
      151.314331
 20
      112.900826
 30
        0.000000
 11
      149.314331
 21
      112.900826
 31
        0.000000
  0
LINE
  8
LVL0000
 62
  3
 10
      151.314331
 20
      120.100777
 30
        0.000000
 11
      149.314331
 21
      120.100777
 31
        0.000000
  0
LINE
  8
LVL0000
 62
  3
 10
      155.314331
 20
      112.900826
 30
        0.000000
 11
      153.314331
 21
      112.900826
 31
        0.000000
  0
LINE
  8
LVL0000
 62
  3
 10
      155.314331
 20
      120.100777
 30
        0.000000
 11
      153.314331
 21
      120.100777
 31
        0.000000
  0
LINE
  8
LVL0000
 62
  3
 10
      155.314331
 20
       99.000801
 30
        0.000000
 11
      155.314331
 21
      113.231941
 31
        0.000000
  0
LINE
  8
LVL0000
 62
  3
 10
      155.314331
 20
      119.769661
 30
        0.000000
 11
      155.314331
 21
      134.000801
 31
        0.000000
  0
LINE
  8
LVL0000
 62
  3
 10
      157.314331
 20
      102.000801
 30
        0.000000
 11
      155.314331
 21
      102.000801
 31
        0.000000
  0
LINE
  8
LVL0000
 62
  3
 10
      157.314331
 20
      131.000801
 30
        0.000000
 11
      155.314331
 21
      131.000801
 31
        0.000000
  0
LINE
  8
LVL0000
 62
  3
 10
      153.314331
 20
      102.000801
 30
        0.000000
 11
      151.314331
 21
      102.000801
 31
        0.000000
  0
LINE
  8
LVL0000
 62
  3
 10
      153.314331
 20
      131.000801
 30
        0.000000
 11
      151.314331
 21
      131.000801
 31
        0.000000
  0
LINE
  8
LVL0000
 62
  3
 10
      153.314331
 20
       99.000801
 30
        0.000000
 11
      153.314331
 21
      134.000801
 31
        0.000000
  0
LINE
  8
LVL0000
 62
  3
 10
      151.314331
 20
       99.000801
 30
        0.000000
 11
      151.314331
 21
      134.000801
 31
        0.000000
  0
LINE
  8
LVL0000
 62
  3
 10
      149.314331
 20
      102.000801
 30
        0.000000
 11
      147.314331
 21
      102.000801
 31
        0.000000
  0
LINE
  8
LVL0000
 62
  3
 10
      149.314331
 20
      131.000801
 30
        0.000000
 11
      147.314331
 21
      131.000801
 31
        0.000000
  0
LINE
  8
LVL0000
 62
  3
 10
      149.314331
 20
       99.000801
 30
        0.000000
 11
      149.314331
 21
      134.000801
 31
        0.000000
  0
LINE
  8
LVL0000
 62
  3
 10
      147.314331
 20
       99.000801
 30
        0.000000
 11
      147.314331
 21
      134.000801
 31
        0.000000
  0
LINE
  8
LVL0000
 62
  3
 10
      145.314331
 20
      102.000801
 30
        0.000000
 11
      143.314331
 21
      102.000801
 31
        0.000000
  0
LINE
  8
LVL0000
 62
  3
 10
      145.314331
 20
      131.000801
 30
        0.000000
 11
      143.314331
 21
      131.000801
 31
        0.000000
  0
LINE
  8
LVL0000
 62
  3
 10
      145.314331
 20
       99.000801
 30
        0.000000
 11
      145.314331
 21
      134.000801
 31
        0.000000
  0
LINE
  8
LVL0000
 62
  3
 10
      143.314331
 20
       99.000801
 30
        0.000000
 11
      143.314331
 21
      134.000801
 31
        0.000000
  0
LINE
  8
LVL0000
 62
  3
 10
      141.314331
 20
      102.000801
 30
        0.000000
 11
      139.314331
 21
      102.000801
 31
        0.000000
  0
LINE
  8
LVL0000
 62
  3
 10
      141.314331
 20
      131.000801
 30
        0.000000
 11
      139.314331
 21
      131.000801
 31
        0.000000
  0
LINE
  8
LVL0000
 62
  3
 10
      141.314331
 20
       99.000801
 30
        0.000000
 11
      141.314331
 21
      134.000801
 31
        0.000000
  0
LINE
  8
LVL0000
 62
  3
 10
      139.314331
 20
       99.000801
 30
        0.000000
 11
      139.314331
 21
      134.000801
 31
        0.000000
  0
LINE
  8
LVL0000
 62
  3
 10
      137.314331
 20
      102.000801
 30
        0.000000
 11
      135.314331
 21
      102.000801
 31
        0.000000
  0
LINE
  8
LVL0000
 62
  3
 10
      137.314331
 20
      131.000801
 30
        0.000000
 11
      135.314331
 21
      131.000801
 31
        0.000000
  0
LINE
  8
LVL0000
 62
  3
 10
      137.314331
 20
       99.000801
 30
        0.000000
 11
      137.314331
 21
      134.000801
 31
        0.000000
  0
LINE
  8
LVL0000
 62
  3
 10
      135.314331
 20
       99.000801
 30
        0.000000
 11
      135.314331
 21
      134.000801
 31
        0.000000
  0
LINE
  8
LVL0000
 62
  3
 10
      133.314331
 20
      102.000801
 30
        0.000000
 11
      131.314331
 21
      102.000801
 31
        0.000000
  0
LINE
  8
LVL0000
 62
  3
 10
      133.314331
 20
      131.000801
 30
        0.000000
 11
      131.314331
 21
      131.000801
 31
        0.000000
  0
LINE
  8
LVL0000
 62
  3
 10
      133.314331
 20
       99.000801
 30
        0.000000
 11
      133.314331
 21
      134.000801
 31
        0.000000
  0
LINE
  8
LVL0000
 62
  3
 10
      131.314331
 20
       99.000801
 30
        0.000000
 11
      131.314331
 21
      134.000801
 31
        0.000000
  0
LINE
  8
LVL0000
 62
  3
 10
      129.314331
 20
      102.000801
 30
        0.000000
 11
      127.314331
 21
      102.000801
 31
        0.000000
  0
LINE
  8
LVL0000
 62
  3
 10
      129.314331
 20
      131.000801
 30
        0.000000
 11
      127.314331
 21
      131.000801
 31
        0.000000
  0
LINE
  8
LVL0000
 62
  3
 10
      129.314331
 20
       99.000801
 30
        0.000000
 11
      129.314331
 21
      134.000801
 31
        0.000000
  0
LINE
  8
LVL0000
 62
  3
 10
      127.314331
 20
       99.000801
 30
        0.000000
 11
      127.314331
 21
      134.000801
 31
        0.000000
  0
LINE
  8
LVL0000
 62
  3
 10
      125.314331
 20
      102.000801
 30
        0.000000
 11
      123.314331
 21
      102.000801
 31
        0.000000
  0
LINE
  8
LVL0000
 62
  3
 10
      125.314331
 20
      131.000801
 30
        0.000000
 11
      123.314331
 21
      131.000801
 31
        0.000000
  0
LINE
  8
LVL0000
 62
  3
 10
      125.314331
 20
       99.000801
 30
        0.000000
 11
      125.314331
 21
      134.000801
 31
        0.000000
  0
LINE
  8
LVL0000
 62
  3
 10
      123.314331
 20
       99.000801
 30
        0.000000
 11
      123.314331
 21
      134.000801
 31
        0.000000
  0
LINE
  8
LVL0000
 62
  3
 10
      121.314331
 20
      102.000801
 30
        0.000000
 11
      119.314331
 21
      102.000801
 31
        0.000000
  0
LINE
  8
LVL0000
 62
  3
 10
      121.314331
 20
      131.000801
 30
        0.000000
 11
      119.314331
 21
      131.000801
 31
        0.000000
  0
LINE
  8
LVL0000
 62
  3
 10
      121.314331
 20
       99.000801
 30
        0.000000
 11
      121.314331
 21
      134.000801
 31
        0.000000
  0
LINE
  8
LVL0000
 62
  3
 10
      119.314331
 20
       99.000801
 30
        0.000000
 11
      119.314331
 21
      134.000801
 31
        0.000000
  0
LINE
  8
LVL0000
 62
  3
 10
      117.314331
 20
      102.000801
 30
        0.000000
 11
      115.314331
 21
      102.000801
 31
        0.000000
  0
LINE
  8
LVL0000
 62
  3
 10
      117.314331
 20
      131.000801
 30
        0.000000
 11
      115.314331
 21
      131.000801
 31
        0.000000
  0
LINE
  8
LVL0000
 62
  3
 10
      117.314331
 20
       99.000801
 30
        0.000000
 11
      117.314331
 21
      134.000801
 31
        0.000000
  0
LINE
  8
LVL0000
 62
  3
 10
      115.314331
 20
       99.000801
 30
        0.000000
 11
      115.314331
 21
      134.000801
 31
        0.000000
  0
LINE
  8
LVL0000
 62
  3
 10
      113.314331
 20
      102.000801
 30
        0.000000
 11
      111.314331
 21
      102.000801
 31
        0.000000
  0
LINE
  8
LVL0000
 62
  3
 10
      113.314331
 20
      131.000801
 30
        0.000000
 11
      111.314331
 21
      131.000801
 31
        0.000000
  0
LINE
  8
LVL0000
 62
  3
 10
      113.314331
 20
       99.000801
 30
        0.000000
 11
      113.314331
 21
      134.000801
 31
        0.000000
  0
LINE
  8
LVL0000
 62
  3
 10
      111.314331
 20
       99.000801
 30
        0.000000
 11
      111.314331
 21
      134.000801
 31
        0.000000
  0
LINE
  8
LVL0000
 62
  3
 10
      109.314331
 20
      102.000801
 30
        0.000000
 11
      107.314331
 21
      102.000801
 31
        0.000000
  0
LINE
  8
LVL0000
 62
  3
 10
      109.314331
 20
      131.000801
 30
        0.000000
 11
      107.314331
 21
      131.000801
 31
        0.000000
  0
LINE
  8
LVL0000
 62
  3
 10
      109.314331
 20
       99.000801
 30
        0.000000
 11
      109.314331
 21
      134.000801
 31
        0.000000
  0
LINE
  8
LVL0000
 62
  3
 10
      107.314331
 20
       99.000801
 30
        0.000000
 11
      107.314331
 21
      134.000801
 31
        0.000000
  0
LINE
  8
LVL0000
 62
  3
 10
      154.614380
 20
      118.500801
 30
        0.000000
 11
      154.614380
 21
      114.500801
 31
        0.000000
  0
LINE
  8
LVL0000
 62
  3
 10
      157.314331
 20
      113.000801
 30
        0.000000
 11
      156.114380
 21
      113.000801
 31
        0.000000
  0
ARC
  8
LVL0000
 62
  3
 10
      156.114380
 20
      114.500801
 30
        0.000000
 40
        1.500000
 50
      180.000010
 51
      270.000000
  0
ARC
  8
LVL0000
 62
  3
 10
      156.114380
 20
      118.500801
 30
        0.000000
 40
        1.500000
 50
       90.000000
 51
      180.000010
  0
LINE
  8
LVL0000
 62
  3
 10
      157.314331
 20
      120.000801
 30
        0.000000
 11
      156.114380
 21
      120.000801
 31
        0.000000
  0
LINE
  8
LVL0000
 62
  3
 10
      157.314331
 20
      134.000801
 30
        0.000000
 11
      157.314331
 21
       99.000801
 31
        0.000000
  0
LINE
  8
LVL0000
 62
  3
 10
      105.314331
 20
      102.000801
 30
        0.000000
 11
      103.314331
 21
      102.000801
 31
        0.000000
  0
LINE
  8
LVL0000
 62
  3
 10
      105.314331
 20
      131.000801
 30
        0.000000
 11
      103.314331
 21
      131.000801
 31
        0.000000
  0
LINE
  8
LVL0000
 62
  3
 10
      105.314331
 20
       99.000801
 30
        0.000000
 11
      105.314331
 21
      134.000801
 31
        0.000000
  0
LINE
  8
LVL0000
 62
  3
 10
      103.314331
 20
       99.000801
 30
        0.000000
 11
      103.314331
 21
      134.000801
 31
        0.000000
  0
LINE
  8
LVL0000
 62
  3
 10
       96.314331
 20
       99.000801
 30
        0.000000
 11
       96.314331
 21
      134.000801
 31
        0.000000
  0
LINE
  8
LVL0000
 62
  3
 10
      166.714355
 20
      134.000801
 30
        0.000000
 11
      166.714355
 21
       99.000801
 31
        0.000000
  0
LINE
  8
LVL0000
 62
  3
 10
        9.900024
 20
       22.499985
 30
        0.000000
 11
        9.900024
 21
       23.499985
 31
        0.000000
  0
LINE
  8
LVL0000
 62
  3
 10
       14.099976
 20
       22.499985
 30
        0.000000
 11
       14.099976
 21
       23.499985
 31
        0.000000
  0
LINE
  8
LVL0000
 62
  3
 10
       -9.900024
 20
       22.499985
 30
        0.000000
 11
       -9.900024
 21
       23.499985
 31
        0.000000
  0
LINE
  8
LVL0000
 62
  3
 10
      -14.099976
 20
       22.499985
 30
        0.000000
 11
      -14.099976
 21
       23.499985
 31
        0.000000
  0
LINE
  8
LVL0000
 62
  3
 10
      -10.650024
 20
       32.499741
 30
        0.000000
 11
       -5.650024
 21
       32.499741
 31
        0.000000
  0
LINE
  8
LVL0000
 62
  3
 10
       -5.650024
 20
       29.499741
 30
        0.000000
 11
       -5.650024
 21
       32.499741
 31
        0.000000
  0
LINE
  8
LVL0000
 62
  3
 10
      -10.650024
 20
       29.499741
 30
        0.000000
 11
       -5.650024
 21
       29.499741
 31
        0.000000
  0
LINE
  8
LVL0000
 62
  3
 10
      -10.650024
 20
       29.499741
 30
        0.000000
 11
      -10.650024
 21
       32.499741
 31
        0.000000
  0
CIRCLE
  8
LVL0000
 62
  3
 10
        4.849976
 20
       31.700180
 30
        0.000000
 40
        3.599854
  0
LINE
  8
LVL0000
 62
  3
 10
        4.149902
 20
       30.200180
 30
        0.000000
 11
        4.149902
 21
       30.950180
 31
        0.000000
  0
LINE
  8
LVL0000
 62
  3
 10
        4.149902
 20
       32.450180
 30
        0.000000
 11
        4.149902
 21
       33.200180
 31
        0.000000
  0
LINE
  8
LVL0000
 62
  3
 10
        6.149902
 20
       32.450180
 30
        0.000000
 11
        4.149902
 21
       32.450180
 31
        0.000000
  0
LINE
  8
LVL0000
 62
  3
 10
        6.149902
 20
       30.950180
 30
        0.000000
 11
        4.149902
 21
       30.950180
 31
        0.000000
  0
LINE
  8
LVL0000
 62
  3
 10
        3.149902
 20
       31.700180
 30
        0.000000
 11
        4.149902
 21
       33.200180
 31
        0.000000
  0
LINE
  8
LVL0000
 62
  3
 10
        3.149902
 20
       31.700180
 30
        0.000000
 11
        4.149902
 21
       30.200180
 31
        0.000000
  0
LINE
  8
LVL0000
 62
  3
 10
        6.149902
 20
       30.950180
 30
        0.000000
 11
        6.149902
 21
       32.450180
 31
        0.000000
  0
CIRCLE
  8
LVL0000
 62
  3
 10
        4.849976
 20
       31.700180
 30
        0.000000
 40
        2.500000
  0
LINE
  8
LVL0000
 62
  3
 10
      -17.500000
 20
       56.999985
 30
        0.000000
 11
       17.500000
 21
       56.999985
 31
        0.000000
  0
LINE
  8
LVL0000
 62
  3
 10
      -17.500000
 20
       23.499985
 30
        0.000000
 11
       17.500000
 21
       23.499985
 31
        0.000000
  0
LINE
  8
LVL0000
 62
  3
 10
      -17.500000
 20
       24.999985
 30
        0.000000
 11
       17.500000
 21
       24.999985
 31
        0.000000
  0
LINE
  8
LVL0000
 62
  3
 10
      166.714722
 20
       55.500320
 30
        0.000000
 11
      166.714722
 21
       64.500351
 31
        0.000000
  0
ARC
  8
LVL0000
 62
  3
 10
      166.214722
 20
       64.500351
 30
        0.000000
 40
        0.500000
 50
        0.000000
 51
       90.000000
  0
LINE
  8
LVL0000
 62
  3
 10
      166.214722
 20
       65.000351
 30
        0.000000
 11
       64.814819
 21
       65.000351
 31
        0.000000
  0
ARC
  8
LVL0000
 62
  3
 10
       64.814819
 20
       64.500351
 30
        0.000000
 40
        0.500000
 50
       90.000000
 51
      179.999995
  0
LINE
  8
LVL0000
 62
  3
 10
       64.314575
 20
       24.999985
 30
        0.000000
 11
       64.314877
 21
       64.500355
 31
        0.000000
  0
LINE
  8
LVL0000
 62
  3
 10
      100.614746
 20
       21.500320
 30
        0.000000
 11
      100.614746
 21
       40.500320
 31
        0.000000
  0
LINE
  8
LVL0000
 62
  3
 10
      100.614746
 20
      -51.499680
 30
        0.000000
 11
      100.614746
 21
      -32.499680
 31
        0.000000
  0
LINE
  8
LVL0000
 62
  3
 10
      161.614746
 20
      -64.999680
 30
        0.000000
 11
       64.833138
 21
      -64.999680
 31
        0.000000
  0
LINE
  8
LVL0000
 62
  3
 10
      166.714722
 20
       55.500320
 30
        0.000000
 11
      164.114746
 21
       55.500320
 31
        0.000000
  0
LINE
  8
LVL0000
 62
  3
 10
      164.114746
 20
      -53.499680
 30
        0.000000
 11
      163.614746
 21
      -59.999680
 31
        0.000000
  0
LINE
  8
LVL0000
 62
  3
 10
      161.614746
 20
      -64.999680
 30
        0.000000
 11
      163.614746
 21
      -59.999680
 31
        0.000000
  0
LINE
  8
LVL0000
 62
  3
 10
      164.114746
 20
      -53.499680
 30
        0.000000
 11
      164.114746
 21
       55.500320
 31
        0.000000
  0
LINE
  8
LVL0000
 62
  3
 10
      164.114746
 20
      -53.499680
 30
        0.000000
 11
      168.214722
 21
      -57.499649
 31
        0.000000
  0
LINE
  8
LVL0000
 62
  3
 10
      168.214722
 20
      -61.999649
 30
        0.000000
 11
      168.214722
 21
      -57.499649
 31
        0.000000
  0
LINE
  8
LVL0000
 62
  3
 10
      165.714722
 20
      -60.999649
 30
        0.000000
 11
      167.214722
 21
      -61.999649
 31
        0.000000
  0
LINE
  8
LVL0000
 62
  3
 10
      165.714722
 20
      -60.999649
 30
        0.000000
 11
      165.714722
 21
      -59.999649
 31
        0.000000
  0
LINE
  8
LVL0000
 62
  3
 10
      167.214722
 20
      -61.999649
 30
        0.000000
 11
      168.214722
 21
      -61.999649
 31
        0.000000
  0
LINE
  8
LVL0000
 62
  3
 10
      163.614746
 20
      -59.999649
 30
        0.000000
 11
      165.714722
 21
      -59.999649
 31
        0.000000
  0
ARC
  8
LVL0000
 62
  3
 10
      171.714722
 20
       58.400314
 30
        0.000000
 40
        2.000000
 50
        0.000000
 51
       90.000000
  0
ARC
  8
LVL0000
 62
  3
 10
      171.714722
 20
       58.400314
 30
        0.000000
 40
        2.000000
 50
      270.000000
 51
      360.000000
  0
LINE
  8
LVL0000
 62
  3
 10
      171.714722
 20
       60.400314
 30
        0.000000
 11
      166.714722
 21
       60.400314
 31
        0.000000
  0
LINE
  8
LVL0000
 62
  3
 10
      171.714722
 20
       56.400314
 30
        0.000000
 11
      166.714722
 21
       56.400314
 31
        0.000000
  0
LINE
  8
LVL0000
 62
  3
 10
       97.314819
 20
      -48.999680
 30
        0.000000
 11
       97.314819
 21
      -34.999680
 31
        0.000000
  0
LINE
  8
LVL0000
 62
  3
 10
       97.314819
 20
       24.000320
 30
        0.000000
 11
       97.314819
 21
       38.000320
 31
        0.000000
  0
LINE
  8
LVL0000
 62
  3
 10
       97.314819
 20
      -34.999680
 30
        0.000000
 11
       96.314819
 21
      -34.999680
 31
        0.000000
  0
LINE
  8
LVL0000
 62
  3
 10
       97.314819
 20
      -48.999680
 30
        0.000000
 11
       96.314819
 21
      -48.999680
 31
        0.000000
  0
LINE
  8
LVL0000
 62
  3
 10
       97.314819
 20
       24.000320
 30
        0.000000
 11
       96.314819
 21
       24.000320
 31
        0.000000
  0
LINE
  8
LVL0000
 62
  3
 10
       97.314819
 20
       38.000320
 30
        0.000000
 11
       96.314819
 21
       38.000320
 31
        0.000000
  0
LINE
  8
LVL0000
 62
  3
 10
      103.114746
 20
      -51.499680
 30
        0.000000
 11
      100.614746
 21
      -51.499680
 31
        0.000000
  0
LINE
  8
LVL0000
 62
  3
 10
      103.114746
 20
       40.500320
 30
        0.000000
 11
      100.614746
 21
       40.500320
 31
        0.000000
  0
LINE
  8
LVL0000
 62
  3
 10
      103.114746
 20
      -51.499680
 30
        0.000000
 11
      103.114746
 21
      -32.499680
 31
        0.000000
  0
LINE
  8
LVL0000
 62
  3
 10
      103.114746
 20
       21.500320
 30
        0.000000
 11
      103.114746
 21
       40.500320
 31
        0.000000
  0
LINE
  8
LVL0000
 62
  3
 10
      103.114746
 20
      -32.499680
 30
        0.000000
 11
      100.614746
 21
      -32.499680
 31
        0.000000
  0
LINE
  8
LVL0000
 62
  3
 10
      103.114746
 20
       21.500320
 30
        0.000000
 11
      100.614746
 21
       21.500320
 31
        0.000000
  0
LINE
  8
LVL0000
 62
  3
 10
      155.814697
 20
       12.700302
 30
        0.000000
 11
      105.414673
 21
       12.700302
 31
        0.000000
  0
LINE
  8
LVL0000
 62
  3
 10
      155.814697
 20
      -12.699661
 30
        0.000000
 11
      155.814697
 21
       12.700302
 31
        0.000000
  0
LINE
  8
LVL0000
 62
  3
 10
      155.814697
 20
      -12.699661
 30
        0.000000
 11
      105.414673
 21
      -12.699661
 31
        0.000000
  0
LINE
  8
LVL0000
 62
  3
 10
      105.414673
 20
      -12.699661
 30
        0.000000
 11
      105.414673
 21
       12.700302
 31
        0.000000
  0
LINE
  8
LVL0000
 62
  3
 10
       64.314575
 20
       22.052383
 30
        0.000000
 11
       64.314575
 21
      -64.500015
 31
        0.000000
  0
ARC
  8
LVL0000
 62
  3
 10
       64.814819
 20
       22.052383
 30
        0.000000
 40
        0.500000
 50
       90.000000
 51
      180.000010
  0
ARC
  8
LVL0000
 62
  3
 10
       64.814819
 20
      -64.500015
 30
        0.000000
 40
        0.500000
 50
      180.000010
 51
      270.000000
  0
LINE
  8
LVL0000
 62
  3
 10
       96.314819
 20
      -64.999680
 30
        0.000000
 11
       96.314819
 21
       65.000351
 31
        0.000000
  0
LINE
  8
LVL0000
 62
  3
 10
       65.814575
 20
       23.499985
 30
        0.000000
 11
       64.314575
 21
       24.999985
 31
        0.000000
  0
LINE
  8
LVL0000
 62
  3
 10
       67.314575
 20
       23.499985
 30
        0.000000
 11
       67.314819
 21
       56.999985
 31
        0.000000
  0
LINE
  8
LVL0000
 62
  3
 10
       67.314819
 20
       55.999985
 30
        0.000000
 11
       67.314819
 21
       56.999985
 31
        0.000000
  0
LINE
  8
LVL0000
 62
  3
 10
       62.964478
 20
       29.999802
 30
        0.000000
 11
       62.964478
 21
       31.999802
 31
        0.000000
  0
LINE
  8
LVL0000
 62
  3
 10
       64.314819
 20
       56.999985
 30
        0.000000
 11
       67.314819
 21
       56.999985
 31
        0.000000
  0
LINE
  8
LVL0000
 62
  3
 10
       64.314575
 20
       31.999802
 30
        0.000000
 11
       62.964478
 21
       31.999802
 31
        0.000000
  0
LINE
  8
LVL0000
 62
  3
 10
       64.314575
 20
       29.999802
 30
        0.000000
 11
       62.964478
 21
       29.999802
 31
        0.000000
  0
LINE
  8
LVL0000
 62
  3
 10
       67.314575
 20
       23.499985
 30
        0.000000
 11
       67.314575
 21
       22.552383
 31
        0.000000
  0
LINE
  8
LVL0000
 62
  3
 10
       66.314819
 20
       22.552383
 30
        0.000000
 11
       66.314819
 21
       23.499985
 31
        0.000000
  0
LINE
  8
LVL0000
 62
  3
 10
       64.814819
 20
       22.552383
 30
        0.000000
 11
       67.314575
 21
       22.552383
 31
        0.000000
  0
LINE
  8
LVL0000
 62
  3
 10
       65.814575
 20
       23.499985
 30
        0.000000
 11
       67.314575
 21
       23.499985
 31
        0.000000
  0
ARC
  8
LVL0000
 62
  3
 10
       17.000000
 20
      -64.500015
 30
        0.000000
 40
        0.500000
 50
      270.000000
 51
      360.000000
  0
LINE
  8
LVL0000
 62
  3
 10
       17.000000
 20
      -65.000015
 30
        0.000000
 11
      -17.000000
 21
      -65.000015
 31
        0.000000
  0
LINE
  8
LVL0000
 62
  3
 10
       17.500000
 20
      -64.500015
 30
        0.000000
 11
       17.500000
 21
       64.499985
 31
        0.000000
  0
ARC
  8
LVL0000
 62
  3
 10
       17.000000
 20
       64.499985
 30
        0.000000
 40
        0.500000
 50
        0.000000
 51
       90.000000
  0
LINE
  8
LVL0000
 62
  3
 10
      -17.000000
 20
       64.999985
 30
        0.000000
 11
       17.000000
 21
       64.999985
 31
        0.000000
  0
LINE
  8
LVL0000
 62
  3
 10
      -17.500000
 20
       22.499985
 30
        0.000000
 11
       17.500000
 21
       22.499985
 31
        0.000000
  0
LINE
  8
LVL0000
 62
  3
 10
       16.099976
 20
       57.999985
 30
        0.000000
 11
       16.099976
 21
       63.499985
 31
        0.000000
  0
LINE
  8
LVL0000
 62
  3
 10
      -16.099976
 20
       57.999985
 30
        0.000000
 11
      -16.099976
 21
       63.499985
 31
        0.000000
  0
LINE
  8
LVL0000
 62
  3
 10
      -16.099976
 20
       57.999985
 30
        0.000000
 11
       16.099976
 21
       57.999985
 31
        0.000000
  0
LINE
  8
LVL0000
 62
  3
 10
      -16.099976
 20
       63.499985
 30
        0.000000
 11
       16.099976
 21
       63.499985
 31
        0.000000
  0
ARC
  8
LVL0000
 62
  3
 10
      -17.000000
 20
      -64.500015
 30
        0.000000
 40
        0.500000
 50
      180.000010
 51
      270.000000
  0
LINE
  8
LVL0000
 62
  3
 10
      -17.500000
 20
      -64.500015
 30
        0.000000
 11
      -17.500000
 21
       64.499985
 31
        0.000000
  0
ARC
  8
LVL0000
 62
  3
 10
      -17.000000
 20
       64.499985
 30
        0.000000
 40
        0.500000
 50
       90.000000
 51
      180.000010
  0
LINE
  8
LVL0000
 62
  3
 10
       -8.150024
 20
       29.999741
 30
        0.000000
 11
       -6.150024
 21
       29.999741
 31
        0.000000
  0
LINE
  8
LVL0000
 62
  3
 10
       -6.150024
 20
       29.999741
 30
        0.000000
 11
       -6.150024
 21
       31.999741
 31
        0.000000
  0
LINE
  8
LVL0000
 62
  3
 10
       -8.150024
 20
       29.999741
 30
        0.000000
 11
       -8.150024
 21
       31.999741
 31
        0.000000
  0
LINE
  8
LVL0000
 62
  3
 10
       -8.150024
 20
       31.999741
 30
        0.000000
 11
       -6.150024
 21
       31.999741
 31
        0.000000
  0
LINE
  8
LVL0000
  6
CENTER
 62
  3
 10
      -21.620864
 20
        0.000000
 30
        0.000000
 11
       25.640779
 21
        0.000000
 31
        0.000000
  0
LINE
  8
LVL0000
  6
CENTER
 62
  3
 10
        0.000000
 20
       74.460789
 30
        0.000000
 11
        0.000000
 21
      -70.484236
 31
        0.000000
  0
ENDSEC
  0
EOF
