  0
SECTION
  2
HEADER
  9
$ACADVER
  1
AC1006
  9
$INSBASE
 10
0.0
 20
0.0
 30
0.0
  9
$EXTMIN
 10
      -64.999992
 20
      -64.999992
  9
$EXTMAX
 10
      173.714722
 20
      134.000839
  9
$LIMMIN
 10
      -64.999992
 20
      -64.999992
  9
$LIMMAX
 10
      173.714722
 20
      134.000839
  9
$VIEWCTR
 10
       54.357365
 20
       54.357365
  9
$ORTHOMODE
 70
     0
  9
$ANGBASE
 50
0.0
  9
$ANGDIR
 70
     0
  9
$SPLINETYPE
 70
     6
  9
$SPLINESEGS
 70
     8
9
$DIMASZ
 40
        3.500000
9
$DIMEXE
 40
        0.933333
9
$DIMEXO
 40
        1.333333
9
$DIMTXT
 40
        4.000000
9
$DIMGAP
 40
        0.933333
9
$DIMTAD
 70
1
9
$DIMTIH
 70
0
9
$DIMTOH
 70
0
  0
ENDSEC
  0
SECTION
  2
TABLES
  0
TABLE
  2
LTYPE
 70
     5
  0
LTYPE
  2
CONTINUOUS
 70
    64
  3
SOLID LINE
 72
    65
 73
     0
 40
0.0
  0
LTYPE
  2
DASHED
 70
    64
  3
-- -- -- -- -- --
 72
    65
 73
     2
 40
  0.75  
 49
  0.50  
 49
 -0.25  
  0
LTYPE
  2
DOT
 70
    64
  3
....................
 72
    65
 73
     2
 40
  0.25  
 49
  0.02  
 49
 -0.23  
  0
LTYPE
  2
CENTER
 70
    64
  3
-- . -- . -- . -- .
 72
    65
 73
    4
 40
  2.00  
 49
  1.25  
 49
 -0.25  
 49
  0.25  
 49
 -0.25  
  0
LTYPE
  2
PHANTOM
 70
    64
  3
-- .. -- .. -- ..
 72
    65
 73
    6
 40
  2.50  
 49
  1.25  
 49
 -0.25  
 49
  0.25  
 49
 -0.25  
 49
  0.25  
 49
 -0.25  
  0
ENDTAB
  0
TABLE
  2
LAYER
 70
     1
  0
LAYER
  2
LVL0000
 70
    64
 62
     3
  6
CONTINUOUS
  0
ENDTAB
  0
TABLE
  2
STYLE
 70
     2
  0
STYLE
  2
STANDARD
 70
    64
 40
0.0
 41
1.0
 50
0.0
 71
     0
 42
5.0
  3
ROMANS
  4
BIGFONT
  0
STYLE
  2
BIGFONT
 70
    64
 40
0.0
 41
1.0
 50
0.0
 71
     0
 42
5.0
  3
ROMANS
  4
BIGFONT
  0
ENDTAB
  0
TABLE
  2
VIEW
 70
     0
  0
ENDTAB
  0
TABLE
  2
UCS
 70
     0
  0
ENDTAB
  0
TABLE
  2
DWGMGR
 70
     0
  0
ENDTAB
  0
ENDSEC
  0
SECTION
  2
BLOCKS
  0
BLOCK
  8
0
  2
BLK0001
 70
    64
 10
        0.000000
 20
        0.000000
  0
TEXT
  8
LVL0000
 62
  2
 10
       33.530014
 20
       -6.849716
 30
        0.000000
 40
        4.000000
  1
１３０
 50
       90.000000
 41
        0.835000
 51
        0.000000
  7
BIGFONT
  0
LINE
  8
LVL0000
 62
  2
 10
       18.333334
 20
      -64.999992
 30
        0.000000
 11
       35.396679
 21
      -64.999992
 31
        0.000000
  0
LINE
  8
LVL0000
 62
  2
 10
       18.333334
 20
       65.000008
 30
        0.000000
 11
       35.396679
 21
       65.000008
 31
        0.000000
  0
LINE
  8
LVL0000
 62
  2
 10
       33.913567
 20
      -61.499992
 30
        0.000000
 11
       34.463345
 21
      -64.999992
 31
        0.000000
  0
LINE
  8
LVL0000
 62
  2
 10
       34.463345
 20
      -64.999992
 30
        0.000000
 11
       35.013123
 21
      -61.499992
 31
        0.000000
  0
LINE
  8
LVL0000
 62
  2
 10
       35.013123
 20
       61.500008
 30
        0.000000
 11
       34.463345
 21
       65.000008
 31
        0.000000
  0
LINE
  8
LVL0000
 62
  2
 10
       34.463345
 20
       65.000008
 30
        0.000000
 11
       33.913567
 21
       61.500008
 31
        0.000000
  0
LINE
  8
LVL0000
 62
  2
 10
       34.463345
 20
      -64.999992
 30
        0.000000
 11
       34.463345
 21
       65.000008
 31
        0.000000
  0
ENDBLK
  0
BLOCK
  8
0
  2
BLK0002
 70
    64
 10
        0.000000
 20
        0.000000
  0
TEXT
  8
LVL0000
 62
  2
 10
       -4.342731
 20
      -85.938675
 30
        0.000000
 40
        4.000000
  1
３５
 50
        0.000000
 41
        0.835000
 51
        0.000000
  7
BIGFONT
  0
LINE
  8
LVL0000
 62
  2
 10
      -17.500000
 20
      -65.833328
 30
        0.000000
 11
      -17.500000
 21
      -87.805344
 31
        0.000000
  0
LINE
  8
LVL0000
 62
  2
 10
       17.500000
 20
      -65.833328
 30
        0.000000
 11
       17.500000
 21
      -87.805344
 31
        0.000000
  0
LINE
  8
LVL0000
 62
  2
 10
      -14.000000
 20
      -86.322227
 30
        0.000000
 11
      -17.500000
 21
      -86.872009
 31
        0.000000
  0
LINE
  8
LVL0000
 62
  2
 10
      -17.500000
 20
      -86.872009
 30
        0.000000
 11
      -14.000000
 21
      -87.421791
 31
        0.000000
  0
LINE
  8
LVL0000
 62
  2
 10
       14.000000
 20
      -87.421791
 30
        0.000000
 11
       17.500000
 21
      -86.872009
 31
        0.000000
  0
LINE
  8
LVL0000
 62
  2
 10
       17.500000
 20
      -86.872009
 30
        0.000000
 11
       14.000000
 21
      -86.322227
 31
        0.000000
  0
LINE
  8
LVL0000
 62
  2
 10
      -17.500000
 20
      -86.872009
 30
        0.000000
 11
       17.500000
 21
      -86.872009
 31
        0.000000
  0
ENDBLK
  0
BLOCK
  8
0
  2
BLK0003
 70
    64
 10
        0.000000
 20
        0.000000
  0
TEXT
  8
LVL0000
 62
  2
 10
      107.883224
 20
      -81.549065
 30
        0.000000
 40
        4.000000
  1
１０２．４
 50
        0.000000
 41
        0.835000
 51
        0.000000
  7
BIGFONT
  0
LINE
  8
LVL0000
 62
  2
 10
      166.714722
 20
       54.167011
 30
        0.000000
 11
      166.714722
 21
      -83.415733
 31
        0.000000
  0
LINE
  8
LVL0000
 62
  2
 10
       64.314575
 20
      -65.833328
 30
        0.000000
 11
       64.314575
 21
      -83.415733
 31
        0.000000
  0
LINE
  8
LVL0000
 62
  2
 10
      163.214722
 20
      -83.398697
 30
        0.000000
 11
      166.714722
 21
      -82.482399
 31
        0.000000
  0
LINE
  8
LVL0000
 62
  2
 10
      166.714722
 20
      -82.482399
 30
        0.000000
 11
      163.214722
 21
      -81.566101
 31
        0.000000
  0
LINE
  8
LVL0000
 62
  2
 10
       67.814575
 20
      -81.566101
 30
        0.000000
 11
       64.314575
 21
      -82.482399
 31
        0.000000
  0
LINE
  8
LVL0000
 62
  2
 10
       64.314575
 20
      -82.482399
 30
        0.000000
 11
       67.814575
 21
      -83.398697
 31
        0.000000
  0
LINE
  8
LVL0000
 62
  2
 10
      166.714722
 20
      -82.482399
 30
        0.000000
 11
       64.314575
 21
      -82.482399
 31
        0.000000
  0
ENDBLK
  0
ENDSEC
  0
SECTION
  2
ENTITIES
  0
LINE
  8
LVL0000
 10
       92.314331
 20
      132.000831
 30
        0.000000
 11
       90.314331
 21
      132.000831
 31
        0.000000
  0
LINE
  8
LVL0000
 10
       90.314331
 20
       99.000831
 30
        0.000000
 11
       90.314331
 21
      134.000831
 31
        0.000000
  0
LINE
  8
LVL0000
 10
       92.314331
 20
       99.000831
 30
        0.000000
 11
       92.314331
 21
      134.000831
 31
        0.000000
  0
LINE
  8
LVL0000
 10
       88.314331
 20
      132.000831
 30
        0.000000
 11
       86.314331
 21
      132.000831
 31
        0.000000
  0
LINE
  8
LVL0000
 10
       86.314331
 20
       99.000831
 30
        0.000000
 11
       86.314331
 21
      134.000831
 31
        0.000000
  0
LINE
  8
LVL0000
 10
       88.314331
 20
       99.000831
 30
        0.000000
 11
       88.314331
 21
      134.000831
 31
        0.000000
  0
LINE
  8
LVL0000
 10
       84.314331
 20
      132.000831
 30
        0.000000
 11
       82.314331
 21
      132.000831
 31
        0.000000
  0
LINE
  8
LVL0000
 10
       82.314331
 20
       99.000831
 30
        0.000000
 11
       82.314331
 21
      134.000831
 31
        0.000000
  0
LINE
  8
LVL0000
 10
       84.314331
 20
       99.000831
 30
        0.000000
 11
       84.314331
 21
      134.000831
 31
        0.000000
  0
LINE
  8
LVL0000
 10
       80.314331
 20
      132.000831
 30
        0.000000
 11
       78.314331
 21
      132.000831
 31
        0.000000
  0
LINE
  8
LVL0000
 10
       78.314331
 20
       99.000831
 30
        0.000000
 11
       78.314331
 21
      134.000831
 31
        0.000000
  0
LINE
  8
LVL0000
 10
       80.314331
 20
       99.000831
 30
        0.000000
 11
       80.314331
 21
      134.000831
 31
        0.000000
  0
LINE
  8
LVL0000
 10
       92.314331
 20
      100.600838
 30
        0.000000
 11
       90.314331
 21
      100.600838
 31
        0.000000
  0
LINE
  8
LVL0000
 10
       88.314331
 20
      100.600838
 30
        0.000000
 11
       86.314331
 21
      100.600838
 31
        0.000000
  0
LINE
  8
LVL0000
 10
       84.314331
 20
      100.600838
 30
        0.000000
 11
       82.314331
 21
      100.600838
 31
        0.000000
  0
LINE
  8
LVL0000
 10
       80.314331
 20
      100.600838
 30
        0.000000
 11
       78.314331
 21
      100.600838
 31
        0.000000
  0
LINE
  8
LVL0000
 10
       62.964478
 20
      122.650866
 30
        0.000000
 11
       62.964478
 21
      124.650866
 31
        0.000000
  0
LINE
  8
LVL0000
 10
       62.964478
 20
      122.650866
 30
        0.000000
 11
       64.314331
 21
      122.650866
 31
        0.000000
  0
LINE
  8
LVL0000
 10
       62.964478
 20
      124.650866
 30
        0.000000
 11
       64.314331
 21
      124.650866
 31
        0.000000
  0
DIMENSION
  8
LVL0000
 62
  5
  2
BLK0001
 10
       34.463345
 20
      -64.999992
 11
       33.530014
 21
       -6.849716
 13
       17.000000
 23
      -64.999992
 14
       17.000000
 24
       65.000008
 50
       90.0
 70
  0
  0
DIMENSION
  8
LVL0000
 62
  5
  2
BLK0002
 10
      -17.500000
 20
      -86.872009
 11
       -4.342731
 21
      -85.938675
 13
      -17.500000
 23
      -64.499992
 14
       17.500000
 24
      -64.499992
 50
        0.0
 70
  0
  0
DIMENSION
  8
LVL0000
 62
  5
  2
BLK0003
 10
      166.714722
 20
      -82.482399
 11
      107.883224
 21
      -81.549065
 13
      166.714722
 23
       55.500343
 14
       64.314575
 24
      -64.499992
 50
        0.0
 70
  0
  0
LINE
  8
LVL0000
  6
CENTER
 10
      -26.775342
 20
        0.000000
 30
        0.000000
 11
       25.692608
 21
        0.000000
 31
        0.000000
  0
LINE
  8
LVL0000
  6
CENTER
 10
        0.000000
 20
      -76.755315
 30
        0.000000
 11
        0.000000
 21
       72.289983
 31
        0.000000
  0
LINE
  8
LVL0000
 10
        9.900024
 20
       22.500008
 30
        0.000000
 11
        9.900024
 21
       23.500008
 31
        0.000000
  0
LINE
  8
LVL0000
 10
       14.099976
 20
       22.500008
 30
        0.000000
 11
       14.099976
 21
       23.500008
 31
        0.000000
  0
LINE
  8
LVL0000
 10
       -9.900024
 20
       22.500008
 30
        0.000000
 11
       -9.900024
 21
       23.500008
 31
        0.000000
  0
LINE
  8
LVL0000
 10
      -14.099976
 20
       22.500008
 30
        0.000000
 11
      -14.099976
 21
       23.500008
 31
        0.000000
  0
LINE
  8
LVL0000
 10
      -10.650024
 20
       32.499763
 30
        0.000000
 11
       -5.650024
 21
       32.499763
 31
        0.000000
  0
LINE
  8
LVL0000
 10
       -5.650024
 20
       29.499763
 30
        0.000000
 11
       -5.650024
 21
       32.499763
 31
        0.000000
  0
LINE
  8
LVL0000
 10
      -10.650024
 20
       29.499763
 30
        0.000000
 11
       -5.650024
 21
       29.499763
 31
        0.000000
  0
LINE
  8
LVL0000
 10
      -10.650024
 20
       29.499763
 30
        0.000000
 11
      -10.650024
 21
       32.499763
 31
        0.000000
  0
ARC
  8
LVL0000
 10
       -6.599854
 20
      -44.227837
 30
        0.000000
 40
        2.000015
 50
      255.750043
 51
      360.000000
  0
LINE
  8
LVL0000
 10
       -4.599854
 20
      -44.227837
 30
        0.000000
 11
       -4.599854
 21
        5.727852
 31
        0.000000
  0
LINE
  8
LVL0000
 10
       -9.342163
 20
      -45.594872
 30
        0.000000
 11
       -7.092163
 21
      -46.166313
 31
        0.000000
  0
ARC
  8
LVL0000
 10
       -8.849854
 20
      -43.656425
 30
        0.000000
 40
        2.000000
 50
      180.000010
 51
      255.749825
  0
LINE
  8
LVL0000
 10
      -10.849854
 20
      -43.656425
 30
        0.000000
 11
      -10.849854
 21
        5.156441
 31
        0.000000
  0
ARC
  8
LVL0000
 10
       -6.599854
 20
        5.727852
 30
        0.000000
 40
        2.000000
 50
        0.000000
 51
      104.249974
  0
LINE
  8
LVL0000
 10
       -9.342163
 20
        7.094887
 30
        0.000000
 11
       -7.092163
 21
        7.666328
 31
        0.000000
  0
ARC
  8
LVL0000
 10
       -8.849854
 20
        5.156441
 30
        0.000000
 40
        2.000015
 50
      104.249974
 51
      180.000010
  0
LINE
  8
LVL0000
 10
      -11.849854
 20
        9.989998
 30
        0.000000
 11
       -3.599854
 21
        9.989998
 31
        0.000000
  0
LINE
  8
LVL0000
 10
      -11.849854
 20
      -48.489983
 30
        0.000000
 11
       -3.599854
 21
      -48.489983
 31
        0.000000
  0
LINE
  8
LVL0000
 10
      -11.849854
 20
      -48.489983
 30
        0.000000
 11
      -11.849854
 21
        9.989998
 31
        0.000000
  0
LINE
  8
LVL0000
 10
       -3.599854
 20
      -53.989983
 30
        0.000000
 11
       -3.599854
 21
       15.489998
 31
        0.000000
  0
CIRCLE
  8
LVL0000
 10
        4.849976
 20
       31.700203
 30
        0.000000
 40
        3.599854
  0
LINE
  8
LVL0000
 10
        4.149902
 20
       30.200203
 30
        0.000000
 11
        4.149902
 21
       30.950203
 31
        0.000000
  0
LINE
  8
LVL0000
 10
        4.149902
 20
       32.450203
 30
        0.000000
 11
        4.149902
 21
       33.200203
 31
        0.000000
  0
LINE
  8
LVL0000
 10
        6.149902
 20
       32.450203
 30
        0.000000
 11
        4.149902
 21
       32.450203
 31
        0.000000
  0
LINE
  8
LVL0000
 10
        6.149902
 20
       30.950203
 30
        0.000000
 11
        4.149902
 21
       30.950203
 31
        0.000000
  0
LINE
  8
LVL0000
 10
        3.149902
 20
       31.700203
 30
        0.000000
 11
        4.149902
 21
       33.200203
 31
        0.000000
  0
LINE
  8
LVL0000
 10
        3.149902
 20
       31.700203
 30
        0.000000
 11
        4.149902
 21
       30.200203
 31
        0.000000
  0
LINE
  8
LVL0000
 10
        6.149902
 20
       30.950203
 30
        0.000000
 11
        6.149902
 21
       32.450203
 31
        0.000000
  0
CIRCLE
  8
LVL0000
 10
        4.849976
 20
       31.700203
 30
        0.000000
 40
        2.500000
  0
LINE
  8
LVL0000
 10
       17.500000
 20
       57.000008
 30
        0.000000
 11
       17.500000
 21
       23.500008
 31
        0.000000
  0
LINE
  8
LVL0000
 10
      -17.500000
 20
       57.000008
 30
        0.000000
 11
       17.500000
 21
       57.000008
 31
        0.000000
  0
LINE
  8
LVL0000
 10
      -17.500000
 20
       23.500008
 30
        0.000000
 11
       17.500000
 21
       23.500008
 31
        0.000000
  0
LINE
  8
LVL0000
 10
      -17.500000
 20
       25.000008
 30
        0.000000
 11
       17.500000
 21
       25.000008
 31
        0.000000
  0
ARC
  8
LVL0000
 10
        5.999878
 20
      -44.227837
 30
        0.000000
 40
        1.999985
 50
      255.753431
 51
      360.000000
  0
LINE
  8
LVL0000
 10
        7.999878
 20
      -44.227837
 30
        0.000000
 11
        7.999878
 21
        5.727852
 31
        0.000000
  0
LINE
  8
LVL0000
 10
        3.257690
 20
      -45.594872
 30
        0.000000
 11
        5.507690
 21
      -46.166313
 31
        0.000000
  0
ARC
  8
LVL0000
 10
        3.749878
 20
      -43.656425
 30
        0.000000
 40
        2.000000
 50
      180.000010
 51
      255.753431
  0
LINE
  8
LVL0000
 10
        1.749878
 20
      -43.656425
 30
        0.000000
 11
        1.749878
 21
        5.156441
 31
        0.000000
  0
ARC
  8
LVL0000
 10
        5.999878
 20
        5.727852
 30
        0.000000
 40
        2.000000
 50
        0.000000
 51
      104.246586
  0
LINE
  8
LVL0000
 10
        3.257690
 20
        7.094887
 30
        0.000000
 11
        5.507690
 21
        7.666328
 31
        0.000000
  0
ARC
  8
LVL0000
 10
        3.749878
 20
        5.156441
 30
        0.000000
 40
        1.999955
 50
      104.246797
 51
      180.000010
  0
LINE
  8
LVL0000
 10
        0.749878
 20
        9.989998
 30
        0.000000
 11
        8.999878
 21
        9.989998
 31
        0.000000
  0
LINE
  8
LVL0000
 10
        0.749878
 20
      -48.489983
 30
        0.000000
 11
        8.999878
 21
      -48.489983
 31
        0.000000
  0
LINE
  8
LVL0000
 10
        0.749878
 20
      -48.489983
 30
        0.000000
 11
        0.749878
 21
        9.989998
 31
        0.000000
  0
LINE
  8
LVL0000
 10
        8.999878
 20
      -53.989983
 30
        0.000000
 11
        8.999878
 21
       15.489998
 31
        0.000000
  0
TEXT
  8
LVL0000
 62
  2
 10
      -13.322747
 20
      126.578321
 30
        0.000000
 40
        5.000000
  1
ＪＷ２６４Ｎ
 50
        0.000000
 41
        0.835000
 51
        0.000000
  7
BIGFONT
  0
TEXT
  8
LVL0000
 62
  2
 10
      -13.322747
 20
      119.578321
 30
        0.000000
 40
        5.000000
  1
ＪＷ２６２Ｓ
 50
        0.000000
 41
        0.835000
 51
        0.000000
  7
BIGFONT
  0
LINE
  8
LVL0000
 10
      166.714722
 20
       55.500343
 30
        0.000000
 11
      166.714722
 21
       64.500374
 31
        0.000000
  0
ARC
  8
LVL0000
  6
CENTER
 10
      166.214722
 20
       64.500374
 30
        0.000000
 40
        0.500000
 50
        0.000000
 51
       90.000000
  0
LINE
  8
LVL0000
 10
      166.214722
 20
       65.000374
 30
        0.000000
 11
       64.814819
 21
       65.000374
 31
        0.000000
  0
ARC
  8
LVL0000
  6
CENTER
 10
       64.814819
 20
       64.500374
 30
        0.000000
 40
        0.500000
 50
       90.000000
 51
      179.999995
  0
LINE
  8
LVL0000
 10
       64.314575
 20
       25.000008
 30
        0.000000
 11
       64.314877
 21
       64.500378
 31
        0.000000
  0
LINE
  8
LVL0000
 10
      100.614746
 20
       21.500343
 30
        0.000000
 11
      100.614746
 21
       40.500343
 31
        0.000000
  0
LINE
  8
LVL0000
 10
      100.614746
 20
      -51.499657
 30
        0.000000
 11
      100.614746
 21
      -32.499657
 31
        0.000000
  0
LINE
  8
LVL0000
 10
      161.614746
 20
      -64.999657
 30
        0.000000
 11
       64.833138
 21
      -64.999657
 31
        0.000000
  0
LINE
  8
LVL0000
 10
      166.714355
 20
      134.000824
 30
        0.000000
 11
       64.814331
 21
      134.000832
 31
        0.000000
  0
ARC
  8
LVL0000
  6
CENTER
 10
       64.814331
 20
      133.500824
 30
        0.000000
 40
        0.500008
 50
       90.000000
 51
      179.999995
  0
LINE
  8
LVL0000
 10
       64.314331
 20
       99.500824
 30
        0.000000
 11
       64.314331
 21
      133.500824
 31
        0.000000
  0
LINE
  8
LVL0000
 10
      166.714355
 20
       99.000824
 30
        0.000000
 11
       64.814331
 21
       99.000832
 31
        0.000000
  0
ARC
  8
LVL0000
  6
CENTER
 10
       64.814331
 20
       99.500824
 30
        0.000000
 40
        0.500000
 50
      179.999995
 51
      270.000000
  0
LINE
  8
LVL0000
 10
        3.804885
 20
        4.280014
 30
        0.000000
 11
        3.804885
 21
        5.480026
 31
        0.000000
  0
LINE
  8
LVL0000
 10
        3.404861
 20
        4.280014
 30
        0.000000
 11
        3.404861
 21
        5.480026
 31
        0.000000
  0
LINE
  8
LVL0000
 10
        6.344924
 20
        4.280014
 30
        0.000000
 11
        6.344924
 21
        5.480026
 31
        0.000000
  0
LINE
  8
LVL0000
 10
        5.944900
 20
        4.280014
 30
        0.000000
 11
        5.944900
 21
        5.480026
 31
        0.000000
  0
LINE
  8
LVL0000
 10
        6.344924
 20
        5.480026
 30
        0.000000
 11
        5.944900
 21
        5.480026
 31
        0.000000
  0
LINE
  8
LVL0000
 10
        3.804885
 20
        5.480026
 30
        0.000000
 11
        3.404861
 21
        5.480026
 31
        0.000000
  0
LINE
  8
LVL0000
 10
        6.344924
 20
        4.280014
 30
        0.000000
 11
        5.944900
 21
        4.280014
 31
        0.000000
  0
LINE
  8
LVL0000
 10
        3.804885
 20
        4.280014
 30
        0.000000
 11
        3.404861
 21
        4.280014
 31
        0.000000
  0
LINE
  8
LVL0000
 10
        6.344924
 20
        1.740021
 30
        0.000000
 11
        6.344924
 21
        2.940033
 31
        0.000000
  0
LINE
  8
LVL0000
 10
        5.944900
 20
        1.740021
 30
        0.000000
 11
        5.944900
 21
        2.940033
 31
        0.000000
  0
LINE
  8
LVL0000
 10
        6.344924
 20
        2.940033
 30
        0.000000
 11
        5.944900
 21
        2.940033
 31
        0.000000
  0
LINE
  8
LVL0000
 10
        6.344924
 20
        1.740021
 30
        0.000000
 11
        5.944900
 21
        1.740021
 31
        0.000000
  0
LINE
  8
LVL0000
 10
        3.804885
 20
        1.740021
 30
        0.000000
 11
        3.804885
 21
        2.940033
 31
        0.000000
  0
LINE
  8
LVL0000
 10
        3.404861
 20
        1.740021
 30
        0.000000
 11
        3.404861
 21
        2.940033
 31
        0.000000
  0
LINE
  8
LVL0000
 10
        3.804885
 20
        2.940033
 30
        0.000000
 11
        3.404861
 21
        2.940033
 31
        0.000000
  0
LINE
  8
LVL0000
 10
        3.804885
 20
        1.740021
 30
        0.000000
 11
        3.404861
 21
        1.740021
 31
        0.000000
  0
LINE
  8
LVL0000
 10
        6.344924
 20
       -0.799988
 30
        0.000000
 11
        6.344924
 21
        0.400024
 31
        0.000000
  0
LINE
  8
LVL0000
 10
        5.944900
 20
       -0.799988
 30
        0.000000
 11
        5.944900
 21
        0.400024
 31
        0.000000
  0
LINE
  8
LVL0000
 10
        6.344924
 20
        0.400024
 30
        0.000000
 11
        5.944900
 21
        0.400024
 31
        0.000000
  0
LINE
  8
LVL0000
 10
        6.344924
 20
       -0.799988
 30
        0.000000
 11
        5.944900
 21
       -0.799988
 31
        0.000000
  0
LINE
  8
LVL0000
 10
        3.804885
 20
       -0.799988
 30
        0.000000
 11
        3.804885
 21
        0.400024
 31
        0.000000
  0
LINE
  8
LVL0000
 10
        3.404861
 20
       -0.799988
 30
        0.000000
 11
        3.404861
 21
        0.400024
 31
        0.000000
  0
LINE
  8
LVL0000
 10
        3.804885
 20
        0.400024
 30
        0.000000
 11
        3.404861
 21
        0.400024
 31
        0.000000
  0
LINE
  8
LVL0000
 10
        3.804885
 20
       -0.799988
 30
        0.000000
 11
        3.404861
 21
       -0.799988
 31
        0.000000
  0
LINE
  8
LVL0000
 10
        6.344924
 20
       -3.339981
 30
        0.000000
 11
        6.344924
 21
       -2.139969
 31
        0.000000
  0
LINE
  8
LVL0000
 10
        5.944900
 20
       -3.339981
 30
        0.000000
 11
        5.944900
 21
       -2.139969
 31
        0.000000
  0
LINE
  8
LVL0000
 10
        6.344924
 20
       -2.139969
 30
        0.000000
 11
        5.944900
 21
       -2.139969
 31
        0.000000
  0
LINE
  8
LVL0000
 10
        6.344924
 20
       -3.339981
 30
        0.000000
 11
        5.944900
 21
       -3.339981
 31
        0.000000
  0
LINE
  8
LVL0000
 10
        3.804885
 20
       -3.339981
 30
        0.000000
 11
        3.804885
 21
       -2.139969
 31
        0.000000
  0
LINE
  8
LVL0000
 10
        3.404861
 20
       -3.339981
 30
        0.000000
 11
        3.404861
 21
       -2.139969
 31
        0.000000
  0
LINE
  8
LVL0000
 10
        3.804885
 20
       -2.139969
 30
        0.000000
 11
        3.404861
 21
       -2.139969
 31
        0.000000
  0
LINE
  8
LVL0000
 10
        3.804885
 20
       -3.339981
 30
        0.000000
 11
        3.404861
 21
       -3.339981
 31
        0.000000
  0
LINE
  8
LVL0000
 10
        6.344924
 20
       -5.879990
 30
        0.000000
 11
        6.344924
 21
       -4.679977
 31
        0.000000
  0
LINE
  8
LVL0000
 10
        5.944900
 20
       -5.879990
 30
        0.000000
 11
        5.944900
 21
       -4.679977
 31
        0.000000
  0
LINE
  8
LVL0000
 10
        6.344924
 20
       -4.679977
 30
        0.000000
 11
        5.944900
 21
       -4.679977
 31
        0.000000
  0
LINE
  8
LVL0000
 10
        6.344924
 20
       -5.879990
 30
        0.000000
 11
        5.944900
 21
       -5.879990
 31
        0.000000
  0
LINE
  8
LVL0000
 10
        3.804885
 20
       -5.879990
 30
        0.000000
 11
        3.804885
 21
       -4.679977
 31
        0.000000
  0
LINE
  8
LVL0000
 10
        3.404861
 20
       -5.879990
 30
        0.000000
 11
        3.404861
 21
       -4.679977
 31
        0.000000
  0
LINE
  8
LVL0000
 10
        3.804885
 20
       -4.679977
 30
        0.000000
 11
        3.404861
 21
       -4.679977
 31
        0.000000
  0
LINE
  8
LVL0000
 10
        3.804885
 20
       -5.879990
 30
        0.000000
 11
        3.404861
 21
       -5.879990
 31
        0.000000
  0
LINE
  8
LVL0000
 10
        6.344924
 20
       -8.419983
 30
        0.000000
 11
        6.344924
 21
       -7.219971
 31
        0.000000
  0
LINE
  8
LVL0000
 10
        5.944900
 20
       -8.419983
 30
        0.000000
 11
        5.944900
 21
       -7.219971
 31
        0.000000
  0
LINE
  8
LVL0000
 10
        6.344924
 20
       -7.219971
 30
        0.000000
 11
        5.944900
 21
       -7.219971
 31
        0.000000
  0
LINE
  8
LVL0000
 10
        6.344924
 20
       -8.419983
 30
        0.000000
 11
        5.944900
 21
       -8.419983
 31
        0.000000
  0
LINE
  8
LVL0000
 10
        3.804885
 20
       -8.419983
 30
        0.000000
 11
        3.804885
 21
       -7.219971
 31
        0.000000
  0
LINE
  8
LVL0000
 10
        3.404861
 20
       -8.419983
 30
        0.000000
 11
        3.404861
 21
       -7.219971
 31
        0.000000
  0
LINE
  8
LVL0000
 10
        3.804885
 20
       -7.219971
 30
        0.000000
 11
        3.404861
 21
       -7.219971
 31
        0.000000
  0
LINE
  8
LVL0000
 10
        3.804885
 20
       -8.419983
 30
        0.000000
 11
        3.404861
 21
       -8.419983
 31
        0.000000
  0
LINE
  8
LVL0000
 10
        6.344924
 20
      -10.959991
 30
        0.000000
 11
        6.344924
 21
       -9.759979
 31
        0.000000
  0
LINE
  8
LVL0000
 10
        5.944900
 20
      -10.959991
 30
        0.000000
 11
        5.944900
 21
       -9.759979
 31
        0.000000
  0
LINE
  8
LVL0000
 10
        6.344924
 20
       -9.759979
 30
        0.000000
 11
        5.944900
 21
       -9.759979
 31
        0.000000
  0
LINE
  8
LVL0000
 10
        6.344924
 20
      -10.959991
 30
        0.000000
 11
        5.944900
 21
      -10.959991
 31
        0.000000
  0
LINE
  8
LVL0000
 10
        3.804885
 20
      -10.959991
 30
        0.000000
 11
        3.804885
 21
       -9.759979
 31
        0.000000
  0
LINE
  8
LVL0000
 10
        3.404861
 20
      -10.959991
 30
        0.000000
 11
        3.404861
 21
       -9.759979
 31
        0.000000
  0
LINE
  8
LVL0000
 10
        3.804885
 20
       -9.759979
 30
        0.000000
 11
        3.404861
 21
       -9.759979
 31
        0.000000
  0
LINE
  8
LVL0000
 10
        3.804885
 20
      -10.959991
 30
        0.000000
 11
        3.404861
 21
      -10.959991
 31
        0.000000
  0
LINE
  8
LVL0000
 10
        6.344924
 20
      -13.499985
 30
        0.000000
 11
        6.344924
 21
      -12.299973
 31
        0.000000
  0
LINE
  8
LVL0000
 10
        5.944900
 20
      -13.499985
 30
        0.000000
 11
        5.944900
 21
      -12.299973
 31
        0.000000
  0
LINE
  8
LVL0000
 10
        6.344924
 20
      -12.299973
 30
        0.000000
 11
        5.944900
 21
      -12.299973
 31
        0.000000
  0
LINE
  8
LVL0000
 10
        6.344924
 20
      -13.499985
 30
        0.000000
 11
        5.944900
 21
      -13.499985
 31
        0.000000
  0
LINE
  8
LVL0000
 10
        3.804885
 20
      -13.499985
 30
        0.000000
 11
        3.804885
 21
      -12.299973
 31
        0.000000
  0
LINE
  8
LVL0000
 10
        3.404861
 20
      -13.499985
 30
        0.000000
 11
        3.404861
 21
      -12.299973
 31
        0.000000
  0
LINE
  8
LVL0000
 10
        3.804885
 20
      -12.299973
 30
        0.000000
 11
        3.404861
 21
      -12.299973
 31
        0.000000
  0
LINE
  8
LVL0000
 10
        3.804885
 20
      -13.499985
 30
        0.000000
 11
        3.404861
 21
      -13.499985
 31
        0.000000
  0
LINE
  8
LVL0000
 10
        6.344924
 20
      -16.039993
 30
        0.000000
 11
        6.344924
 21
      -14.839981
 31
        0.000000
  0
LINE
  8
LVL0000
 10
        5.944900
 20
      -16.039993
 30
        0.000000
 11
        5.944900
 21
      -14.839981
 31
        0.000000
  0
LINE
  8
LVL0000
 10
        6.344924
 20
      -14.839981
 30
        0.000000
 11
        5.944900
 21
      -14.839981
 31
        0.000000
  0
LINE
  8
LVL0000
 10
        6.344924
 20
      -16.039993
 30
        0.000000
 11
        5.944900
 21
      -16.039993
 31
        0.000000
  0
LINE
  8
LVL0000
 10
        3.804885
 20
      -16.039993
 30
        0.000000
 11
        3.804885
 21
      -14.839981
 31
        0.000000
  0
LINE
  8
LVL0000
 10
        3.404861
 20
      -16.039993
 30
        0.000000
 11
        3.404861
 21
      -14.839981
 31
        0.000000
  0
LINE
  8
LVL0000
 10
        3.804885
 20
      -14.839981
 30
        0.000000
 11
        3.404861
 21
      -14.839981
 31
        0.000000
  0
LINE
  8
LVL0000
 10
        3.804885
 20
      -16.039993
 30
        0.000000
 11
        3.404861
 21
      -16.039993
 31
        0.000000
  0
LINE
  8
LVL0000
 10
        6.344924
 20
      -18.579987
 30
        0.000000
 11
        6.344924
 21
      -17.379974
 31
        0.000000
  0
LINE
  8
LVL0000
 10
        5.944900
 20
      -18.579987
 30
        0.000000
 11
        5.944900
 21
      -17.379974
 31
        0.000000
  0
LINE
  8
LVL0000
 10
        6.344924
 20
      -17.379974
 30
        0.000000
 11
        5.944900
 21
      -17.379974
 31
        0.000000
  0
LINE
  8
LVL0000
 10
        6.344924
 20
      -18.579987
 30
        0.000000
 11
        5.944900
 21
      -18.579987
 31
        0.000000
  0
LINE
  8
LVL0000
 10
        3.804885
 20
      -18.579987
 30
        0.000000
 11
        3.804885
 21
      -17.379974
 31
        0.000000
  0
LINE
  8
LVL0000
 10
        3.404861
 20
      -18.579987
 30
        0.000000
 11
        3.404861
 21
      -17.379974
 31
        0.000000
  0
LINE
  8
LVL0000
 10
        3.804885
 20
      -17.379974
 30
        0.000000
 11
        3.404861
 21
      -17.379974
 31
        0.000000
  0
LINE
  8
LVL0000
 10
        3.804885
 20
      -18.579987
 30
        0.000000
 11
        3.404861
 21
      -18.579987
 31
        0.000000
  0
LINE
  8
LVL0000
 10
        6.344924
 20
      -21.119980
 30
        0.000000
 11
        6.344924
 21
      -19.919968
 31
        0.000000
  0
LINE
  8
LVL0000
 10
        5.944900
 20
      -21.119980
 30
        0.000000
 11
        5.944900
 21
      -19.919968
 31
        0.000000
  0
LINE
  8
LVL0000
 10
        6.344924
 20
      -19.919968
 30
        0.000000
 11
        5.944900
 21
      -19.919968
 31
        0.000000
  0
LINE
  8
LVL0000
 10
        6.344924
 20
      -21.119980
 30
        0.000000
 11
        5.944900
 21
      -21.119980
 31
        0.000000
  0
LINE
  8
LVL0000
 10
        3.804885
 20
      -21.119980
 30
        0.000000
 11
        3.804885
 21
      -19.919968
 31
        0.000000
  0
LINE
  8
LVL0000
 10
        3.404861
 20
      -21.119980
 30
        0.000000
 11
        3.404861
 21
      -19.919968
 31
        0.000000
  0
LINE
  8
LVL0000
 10
        3.804885
 20
      -19.919968
 30
        0.000000
 11
        3.404861
 21
      -19.919968
 31
        0.000000
  0
LINE
  8
LVL0000
 10
        3.804885
 20
      -21.119980
 30
        0.000000
 11
        3.404861
 21
      -21.119980
 31
        0.000000
  0
LINE
  8
LVL0000
 10
        6.344924
 20
      -23.659988
 30
        0.000000
 11
        6.344924
 21
      -22.459976
 31
        0.000000
  0
LINE
  8
LVL0000
 10
        5.944900
 20
      -23.659988
 30
        0.000000
 11
        5.944900
 21
      -22.459976
 31
        0.000000
  0
LINE
  8
LVL0000
 10
        6.344924
 20
      -22.459976
 30
        0.000000
 11
        5.944900
 21
      -22.459976
 31
        0.000000
  0
LINE
  8
LVL0000
 10
        6.344924
 20
      -23.659988
 30
        0.000000
 11
        5.944900
 21
      -23.659988
 31
        0.000000
  0
LINE
  8
LVL0000
 10
        3.804885
 20
      -23.659988
 30
        0.000000
 11
        3.804885
 21
      -22.459976
 31
        0.000000
  0
LINE
  8
LVL0000
 10
        3.404861
 20
      -23.659988
 30
        0.000000
 11
        3.404861
 21
      -22.459976
 31
        0.000000
  0
LINE
  8
LVL0000
 10
        3.804885
 20
      -22.459976
 30
        0.000000
 11
        3.404861
 21
      -22.459976
 31
        0.000000
  0
LINE
  8
LVL0000
 10
        3.804885
 20
      -23.659988
 30
        0.000000
 11
        3.404861
 21
      -23.659988
 31
        0.000000
  0
LINE
  8
LVL0000
 10
        6.344924
 20
      -26.199997
 30
        0.000000
 11
        6.344924
 21
      -24.999985
 31
        0.000000
  0
LINE
  8
LVL0000
 10
        5.944900
 20
      -26.199997
 30
        0.000000
 11
        5.944900
 21
      -24.999985
 31
        0.000000
  0
LINE
  8
LVL0000
 10
        6.344924
 20
      -24.999985
 30
        0.000000
 11
        5.944900
 21
      -24.999985
 31
        0.000000
  0
LINE
  8
LVL0000
 10
        6.344924
 20
      -26.199997
 30
        0.000000
 11
        5.944900
 21
      -26.199997
 31
        0.000000
  0
LINE
  8
LVL0000
 10
        3.804885
 20
      -26.199997
 30
        0.000000
 11
        3.804885
 21
      -24.999985
 31
        0.000000
  0
LINE
  8
LVL0000
 10
        3.404861
 20
      -26.199997
 30
        0.000000
 11
        3.404861
 21
      -24.999985
 31
        0.000000
  0
LINE
  8
LVL0000
 10
        3.804885
 20
      -24.999985
 30
        0.000000
 11
        3.404861
 21
      -24.999985
 31
        0.000000
  0
LINE
  8
LVL0000
 10
        3.804885
 20
      -26.199997
 30
        0.000000
 11
        3.404861
 21
      -26.199997
 31
        0.000000
  0
LINE
  8
LVL0000
 10
        6.344924
 20
      -28.739990
 30
        0.000000
 11
        6.344924
 21
      -27.539978
 31
        0.000000
  0
LINE
  8
LVL0000
 10
        5.944900
 20
      -28.739990
 30
        0.000000
 11
        5.944900
 21
      -27.539978
 31
        0.000000
  0
LINE
  8
LVL0000
 10
        6.344924
 20
      -27.539978
 30
        0.000000
 11
        5.944900
 21
      -27.539978
 31
        0.000000
  0
LINE
  8
LVL0000
 10
        6.344924
 20
      -28.739990
 30
        0.000000
 11
        5.944900
 21
      -28.739990
 31
        0.000000
  0
LINE
  8
LVL0000
 10
        3.804885
 20
      -28.739990
 30
        0.000000
 11
        3.804885
 21
      -27.539978
 31
        0.000000
  0
LINE
  8
LVL0000
 10
        3.404861
 20
      -28.739990
 30
        0.000000
 11
        3.404861
 21
      -27.539978
 31
        0.000000
  0
LINE
  8
LVL0000
 10
        3.804885
 20
      -27.539978
 30
        0.000000
 11
        3.404861
 21
      -27.539978
 31
        0.000000
  0
LINE
  8
LVL0000
 10
        3.804885
 20
      -28.739990
 30
        0.000000
 11
        3.404861
 21
      -28.739990
 31
        0.000000
  0
LINE
  8
LVL0000
 10
        6.344924
 20
      -31.279991
 30
        0.000000
 11
        6.344924
 21
      -30.079979
 31
        0.000000
  0
LINE
  8
LVL0000
 10
        5.944900
 20
      -31.279991
 30
        0.000000
 11
        5.944900
 21
      -30.079979
 31
        0.000000
  0
LINE
  8
LVL0000
 10
        6.344924
 20
      -30.079979
 30
        0.000000
 11
        5.944900
 21
      -30.079979
 31
        0.000000
  0
LINE
  8
LVL0000
 10
        6.344924
 20
      -31.279991
 30
        0.000000
 11
        5.944900
 21
      -31.279991
 31
        0.000000
  0
LINE
  8
LVL0000
 10
        3.804885
 20
      -31.279991
 30
        0.000000
 11
        3.804885
 21
      -30.079979
 31
        0.000000
  0
LINE
  8
LVL0000
 10
        3.404861
 20
      -31.279991
 30
        0.000000
 11
        3.404861
 21
      -30.079979
 31
        0.000000
  0
LINE
  8
LVL0000
 10
        3.804885
 20
      -30.079979
 30
        0.000000
 11
        3.404861
 21
      -30.079979
 31
        0.000000
  0
LINE
  8
LVL0000
 10
        3.804885
 20
      -31.279991
 30
        0.000000
 11
        3.404861
 21
      -31.279991
 31
        0.000000
  0
LINE
  8
LVL0000
 10
        6.344924
 20
      -33.819992
 30
        0.000000
 11
        6.344924
 21
      -32.619980
 31
        0.000000
  0
LINE
  8
LVL0000
 10
        5.944900
 20
      -33.819992
 30
        0.000000
 11
        5.944900
 21
      -32.619980
 31
        0.000000
  0
LINE
  8
LVL0000
 10
        6.344924
 20
      -32.619980
 30
        0.000000
 11
        5.944900
 21
      -32.619980
 31
        0.000000
  0
LINE
  8
LVL0000
 10
        6.344924
 20
      -33.819992
 30
        0.000000
 11
        5.944900
 21
      -33.819992
 31
        0.000000
  0
LINE
  8
LVL0000
 10
        3.804885
 20
      -33.819992
 30
        0.000000
 11
        3.804885
 21
      -32.619980
 31
        0.000000
  0
LINE
  8
LVL0000
 10
        3.404861
 20
      -33.819992
 30
        0.000000
 11
        3.404861
 21
      -32.619980
 31
        0.000000
  0
LINE
  8
LVL0000
 10
        3.804885
 20
      -32.619980
 30
        0.000000
 11
        3.404861
 21
      -32.619980
 31
        0.000000
  0
LINE
  8
LVL0000
 10
        3.804885
 20
      -33.819992
 30
        0.000000
 11
        3.404861
 21
      -33.819992
 31
        0.000000
  0
LINE
  8
LVL0000
 10
        6.344924
 20
      -36.359993
 30
        0.000000
 11
        6.344924
 21
      -35.159981
 31
        0.000000
  0
LINE
  8
LVL0000
 10
        5.944900
 20
      -36.359993
 30
        0.000000
 11
        5.944900
 21
      -35.159981
 31
        0.000000
  0
LINE
  8
LVL0000
 10
        6.344924
 20
      -35.159981
 30
        0.000000
 11
        5.944900
 21
      -35.159981
 31
        0.000000
  0
LINE
  8
LVL0000
 10
        6.344924
 20
      -36.359993
 30
        0.000000
 11
        5.944900
 21
      -36.359993
 31
        0.000000
  0
LINE
  8
LVL0000
 10
        3.804885
 20
      -36.359993
 30
        0.000000
 11
        3.804885
 21
      -35.159981
 31
        0.000000
  0
LINE
  8
LVL0000
 10
        3.404861
 20
      -36.359993
 30
        0.000000
 11
        3.404861
 21
      -35.159981
 31
        0.000000
  0
LINE
  8
LVL0000
 10
        3.804885
 20
      -35.159981
 30
        0.000000
 11
        3.404861
 21
      -35.159981
 31
        0.000000
  0
LINE
  8
LVL0000
 10
        3.804885
 20
      -36.359993
 30
        0.000000
 11
        3.404861
 21
      -36.359993
 31
        0.000000
  0
LINE
  8
LVL0000
 10
        6.344924
 20
      -38.899994
 30
        0.000000
 11
        6.344924
 21
      -37.699982
 31
        0.000000
  0
LINE
  8
LVL0000
 10
        5.944900
 20
      -38.899994
 30
        0.000000
 11
        5.944900
 21
      -37.699982
 31
        0.000000
  0
LINE
  8
LVL0000
 10
        6.344924
 20
      -37.699982
 30
        0.000000
 11
        5.944900
 21
      -37.699982
 31
        0.000000
  0
LINE
  8
LVL0000
 10
        6.344924
 20
      -38.899994
 30
        0.000000
 11
        5.944900
 21
      -38.899994
 31
        0.000000
  0
LINE
  8
LVL0000
 10
        3.804885
 20
      -38.899994
 30
        0.000000
 11
        3.804885
 21
      -37.699982
 31
        0.000000
  0
LINE
  8
LVL0000
 10
        3.404861
 20
      -38.899994
 30
        0.000000
 11
        3.404861
 21
      -37.699982
 31
        0.000000
  0
LINE
  8
LVL0000
 10
        3.804885
 20
      -37.699982
 30
        0.000000
 11
        3.404861
 21
      -37.699982
 31
        0.000000
  0
LINE
  8
LVL0000
 10
        3.804885
 20
      -38.899994
 30
        0.000000
 11
        3.404861
 21
      -38.899994
 31
        0.000000
  0
LINE
  8
LVL0000
 10
        6.344924
 20
      -41.439995
 30
        0.000000
 11
        6.344924
 21
      -40.239983
 31
        0.000000
  0
LINE
  8
LVL0000
 10
        5.944900
 20
      -41.439995
 30
        0.000000
 11
        5.944900
 21
      -40.239983
 31
        0.000000
  0
LINE
  8
LVL0000
 10
        6.344924
 20
      -40.239983
 30
        0.000000
 11
        5.944900
 21
      -40.239983
 31
        0.000000
  0
LINE
  8
LVL0000
 10
        6.344924
 20
      -41.439995
 30
        0.000000
 11
        5.944900
 21
      -41.439995
 31
        0.000000
  0
LINE
  8
LVL0000
 10
        3.804885
 20
      -41.439995
 30
        0.000000
 11
        3.804885
 21
      -40.239983
 31
        0.000000
  0
LINE
  8
LVL0000
 10
        3.404861
 20
      -41.439995
 30
        0.000000
 11
        3.404861
 21
      -40.239983
 31
        0.000000
  0
LINE
  8
LVL0000
 10
        3.804885
 20
      -40.239983
 30
        0.000000
 11
        3.404861
 21
      -40.239983
 31
        0.000000
  0
LINE
  8
LVL0000
 10
        3.804885
 20
      -41.439995
 30
        0.000000
 11
        3.404861
 21
      -41.439995
 31
        0.000000
  0
LINE
  8
LVL0000
 10
        6.344924
 20
      -43.979996
 30
        0.000000
 11
        6.344924
 21
      -42.779984
 31
        0.000000
  0
LINE
  8
LVL0000
 10
        5.944900
 20
      -43.979996
 30
        0.000000
 11
        5.944900
 21
      -42.779984
 31
        0.000000
  0
LINE
  8
LVL0000
 10
        6.344924
 20
      -42.779984
 30
        0.000000
 11
        5.944900
 21
      -42.779984
 31
        0.000000
  0
LINE
  8
LVL0000
 10
        6.344924
 20
      -43.979996
 30
        0.000000
 11
        5.944900
 21
      -43.979996
 31
        0.000000
  0
LINE
  8
LVL0000
 10
        3.804885
 20
      -43.979996
 30
        0.000000
 11
        3.804885
 21
      -42.779984
 31
        0.000000
  0
LINE
  8
LVL0000
 10
        3.404861
 20
      -43.979996
 30
        0.000000
 11
        3.404861
 21
      -42.779984
 31
        0.000000
  0
LINE
  8
LVL0000
 10
        3.804885
 20
      -42.779984
 30
        0.000000
 11
        3.404861
 21
      -42.779984
 31
        0.000000
  0
LINE
  8
LVL0000
 10
        3.804885
 20
      -43.979996
 30
        0.000000
 11
        3.404861
 21
      -43.979996
 31
        0.000000
  0
LINE
  8
LVL0000
 10
       -8.795115
 20
      -43.979996
 30
        0.000000
 11
       -9.195139
 21
      -43.979996
 31
        0.000000
  0
LINE
  8
LVL0000
 10
       -8.795115
 20
      -42.779984
 30
        0.000000
 11
       -9.195139
 21
      -42.779984
 31
        0.000000
  0
LINE
  8
LVL0000
 10
       -9.195139
 20
      -43.979996
 30
        0.000000
 11
       -9.195139
 21
      -42.779984
 31
        0.000000
  0
LINE
  8
LVL0000
 10
       -8.795115
 20
      -43.979996
 30
        0.000000
 11
       -8.795115
 21
      -42.779984
 31
        0.000000
  0
LINE
  8
LVL0000
 10
       -6.255076
 20
      -43.979996
 30
        0.000000
 11
       -6.655100
 21
      -43.979996
 31
        0.000000
  0
LINE
  8
LVL0000
 10
       -6.255076
 20
      -42.779984
 30
        0.000000
 11
       -6.655100
 21
      -42.779984
 31
        0.000000
  0
LINE
  8
LVL0000
 10
       -6.655100
 20
      -43.979996
 30
        0.000000
 11
       -6.655100
 21
      -42.779984
 31
        0.000000
  0
LINE
  8
LVL0000
 10
       -6.255076
 20
      -43.979996
 30
        0.000000
 11
       -6.255076
 21
      -42.779984
 31
        0.000000
  0
LINE
  8
LVL0000
 10
       -8.795115
 20
      -41.439995
 30
        0.000000
 11
       -9.195139
 21
      -41.439995
 31
        0.000000
  0
LINE
  8
LVL0000
 10
       -8.795115
 20
      -40.239983
 30
        0.000000
 11
       -9.195139
 21
      -40.239983
 31
        0.000000
  0
LINE
  8
LVL0000
 10
       -9.195139
 20
      -41.439995
 30
        0.000000
 11
       -9.195139
 21
      -40.239983
 31
        0.000000
  0
LINE
  8
LVL0000
 10
       -8.795115
 20
      -41.439995
 30
        0.000000
 11
       -8.795115
 21
      -40.239983
 31
        0.000000
  0
LINE
  8
LVL0000
 10
       -6.255076
 20
      -41.439995
 30
        0.000000
 11
       -6.655100
 21
      -41.439995
 31
        0.000000
  0
LINE
  8
LVL0000
 10
       -6.255076
 20
      -40.239983
 30
        0.000000
 11
       -6.655100
 21
      -40.239983
 31
        0.000000
  0
LINE
  8
LVL0000
 10
       -6.655100
 20
      -41.439995
 30
        0.000000
 11
       -6.655100
 21
      -40.239983
 31
        0.000000
  0
LINE
  8
LVL0000
 10
       -6.255076
 20
      -41.439995
 30
        0.000000
 11
       -6.255076
 21
      -40.239983
 31
        0.000000
  0
LINE
  8
LVL0000
 10
       -8.795115
 20
      -38.899994
 30
        0.000000
 11
       -9.195139
 21
      -38.899994
 31
        0.000000
  0
LINE
  8
LVL0000
 10
       -8.795115
 20
      -37.699982
 30
        0.000000
 11
       -9.195139
 21
      -37.699982
 31
        0.000000
  0
LINE
  8
LVL0000
 10
       -9.195139
 20
      -38.899994
 30
        0.000000
 11
       -9.195139
 21
      -37.699982
 31
        0.000000
  0
LINE
  8
LVL0000
 10
       -8.795115
 20
      -38.899994
 30
        0.000000
 11
       -8.795115
 21
      -37.699982
 31
        0.000000
  0
LINE
  8
LVL0000
 10
       -6.255076
 20
      -38.899994
 30
        0.000000
 11
       -6.655100
 21
      -38.899994
 31
        0.000000
  0
LINE
  8
LVL0000
 10
       -6.255076
 20
      -37.699982
 30
        0.000000
 11
       -6.655100
 21
      -37.699982
 31
        0.000000
  0
LINE
  8
LVL0000
 10
       -6.655100
 20
      -38.899994
 30
        0.000000
 11
       -6.655100
 21
      -37.699982
 31
        0.000000
  0
LINE
  8
LVL0000
 10
       -6.255076
 20
      -38.899994
 30
        0.000000
 11
       -6.255076
 21
      -37.699982
 31
        0.000000
  0
LINE
  8
LVL0000
 10
       -8.795115
 20
      -36.359993
 30
        0.000000
 11
       -9.195139
 21
      -36.359993
 31
        0.000000
  0
LINE
  8
LVL0000
 10
       -8.795115
 20
      -35.159981
 30
        0.000000
 11
       -9.195139
 21
      -35.159981
 31
        0.000000
  0
LINE
  8
LVL0000
 10
       -9.195139
 20
      -36.359993
 30
        0.000000
 11
       -9.195139
 21
      -35.159981
 31
        0.000000
  0
LINE
  8
LVL0000
 10
       -8.795115
 20
      -36.359993
 30
        0.000000
 11
       -8.795115
 21
      -35.159981
 31
        0.000000
  0
LINE
  8
LVL0000
 10
       -6.255076
 20
      -36.359993
 30
        0.000000
 11
       -6.655100
 21
      -36.359993
 31
        0.000000
  0
LINE
  8
LVL0000
 10
       -6.255076
 20
      -35.159981
 30
        0.000000
 11
       -6.655100
 21
      -35.159981
 31
        0.000000
  0
LINE
  8
LVL0000
 10
       -6.655100
 20
      -36.359993
 30
        0.000000
 11
       -6.655100
 21
      -35.159981
 31
        0.000000
  0
LINE
  8
LVL0000
 10
       -6.255076
 20
      -36.359993
 30
        0.000000
 11
       -6.255076
 21
      -35.159981
 31
        0.000000
  0
LINE
  8
LVL0000
 10
       -8.795115
 20
      -33.819992
 30
        0.000000
 11
       -9.195139
 21
      -33.819992
 31
        0.000000
  0
LINE
  8
LVL0000
 10
       -8.795115
 20
      -32.619980
 30
        0.000000
 11
       -9.195139
 21
      -32.619980
 31
        0.000000
  0
LINE
  8
LVL0000
 10
       -9.195139
 20
      -33.819992
 30
        0.000000
 11
       -9.195139
 21
      -32.619980
 31
        0.000000
  0
LINE
  8
LVL0000
 10
       -8.795115
 20
      -33.819992
 30
        0.000000
 11
       -8.795115
 21
      -32.619980
 31
        0.000000
  0
LINE
  8
LVL0000
 10
       -6.255076
 20
      -33.819992
 30
        0.000000
 11
       -6.655100
 21
      -33.819992
 31
        0.000000
  0
LINE
  8
LVL0000
 10
       -6.255076
 20
      -32.619980
 30
        0.000000
 11
       -6.655100
 21
      -32.619980
 31
        0.000000
  0
LINE
  8
LVL0000
 10
       -6.655100
 20
      -33.819992
 30
        0.000000
 11
       -6.655100
 21
      -32.619980
 31
        0.000000
  0
LINE
  8
LVL0000
 10
       -6.255076
 20
      -33.819992
 30
        0.000000
 11
       -6.255076
 21
      -32.619980
 31
        0.000000
  0
LINE
  8
LVL0000
 10
       -8.795115
 20
      -31.279991
 30
        0.000000
 11
       -9.195139
 21
      -31.279991
 31
        0.000000
  0
LINE
  8
LVL0000
 10
       -8.795115
 20
      -30.079979
 30
        0.000000
 11
       -9.195139
 21
      -30.079979
 31
        0.000000
  0
LINE
  8
LVL0000
 10
       -9.195139
 20
      -31.279991
 30
        0.000000
 11
       -9.195139
 21
      -30.079979
 31
        0.000000
  0
LINE
  8
LVL0000
 10
       -8.795115
 20
      -31.279991
 30
        0.000000
 11
       -8.795115
 21
      -30.079979
 31
        0.000000
  0
LINE
  8
LVL0000
 10
       -6.255076
 20
      -31.279991
 30
        0.000000
 11
       -6.655100
 21
      -31.279991
 31
        0.000000
  0
LINE
  8
LVL0000
 10
       -6.255076
 20
      -30.079979
 30
        0.000000
 11
       -6.655100
 21
      -30.079979
 31
        0.000000
  0
LINE
  8
LVL0000
 10
       -6.655100
 20
      -31.279991
 30
        0.000000
 11
       -6.655100
 21
      -30.079979
 31
        0.000000
  0
LINE
  8
LVL0000
 10
       -6.255076
 20
      -31.279991
 30
        0.000000
 11
       -6.255076
 21
      -30.079979
 31
        0.000000
  0
LINE
  8
LVL0000
 10
       -8.795115
 20
      -28.739990
 30
        0.000000
 11
       -9.195139
 21
      -28.739990
 31
        0.000000
  0
LINE
  8
LVL0000
 10
       -8.795115
 20
      -27.539978
 30
        0.000000
 11
       -9.195139
 21
      -27.539978
 31
        0.000000
  0
LINE
  8
LVL0000
 10
       -9.195139
 20
      -28.739990
 30
        0.000000
 11
       -9.195139
 21
      -27.539978
 31
        0.000000
  0
LINE
  8
LVL0000
 10
       -8.795115
 20
      -28.739990
 30
        0.000000
 11
       -8.795115
 21
      -27.539978
 31
        0.000000
  0
LINE
  8
LVL0000
 10
       -6.255076
 20
      -28.739990
 30
        0.000000
 11
       -6.655100
 21
      -28.739990
 31
        0.000000
  0
LINE
  8
LVL0000
 10
       -6.255076
 20
      -27.539978
 30
        0.000000
 11
       -6.655100
 21
      -27.539978
 31
        0.000000
  0
LINE
  8
LVL0000
 10
       -6.655100
 20
      -28.739990
 30
        0.000000
 11
       -6.655100
 21
      -27.539978
 31
        0.000000
  0
LINE
  8
LVL0000
 10
       -6.255076
 20
      -28.739990
 30
        0.000000
 11
       -6.255076
 21
      -27.539978
 31
        0.000000
  0
LINE
  8
LVL0000
 10
       -8.795115
 20
      -26.199997
 30
        0.000000
 11
       -9.195139
 21
      -26.199997
 31
        0.000000
  0
LINE
  8
LVL0000
 10
       -8.795115
 20
      -24.999985
 30
        0.000000
 11
       -9.195139
 21
      -24.999985
 31
        0.000000
  0
LINE
  8
LVL0000
 10
       -9.195139
 20
      -26.199997
 30
        0.000000
 11
       -9.195139
 21
      -24.999985
 31
        0.000000
  0
LINE
  8
LVL0000
 10
       -8.795115
 20
      -26.199997
 30
        0.000000
 11
       -8.795115
 21
      -24.999985
 31
        0.000000
  0
LINE
  8
LVL0000
 10
       -6.255076
 20
      -26.199997
 30
        0.000000
 11
       -6.655100
 21
      -26.199997
 31
        0.000000
  0
LINE
  8
LVL0000
 10
       -6.255076
 20
      -24.999985
 30
        0.000000
 11
       -6.655100
 21
      -24.999985
 31
        0.000000
  0
LINE
  8
LVL0000
 10
       -6.655100
 20
      -26.199997
 30
        0.000000
 11
       -6.655100
 21
      -24.999985
 31
        0.000000
  0
LINE
  8
LVL0000
 10
       -6.255076
 20
      -26.199997
 30
        0.000000
 11
       -6.255076
 21
      -24.999985
 31
        0.000000
  0
LINE
  8
LVL0000
 10
       -8.795115
 20
      -23.659988
 30
        0.000000
 11
       -9.195139
 21
      -23.659988
 31
        0.000000
  0
LINE
  8
LVL0000
 10
       -8.795115
 20
      -22.459976
 30
        0.000000
 11
       -9.195139
 21
      -22.459976
 31
        0.000000
  0
LINE
  8
LVL0000
 10
       -9.195139
 20
      -23.659988
 30
        0.000000
 11
       -9.195139
 21
      -22.459976
 31
        0.000000
  0
LINE
  8
LVL0000
 10
       -8.795115
 20
      -23.659988
 30
        0.000000
 11
       -8.795115
 21
      -22.459976
 31
        0.000000
  0
LINE
  8
LVL0000
 10
       -6.255076
 20
      -23.659988
 30
        0.000000
 11
       -6.655100
 21
      -23.659988
 31
        0.000000
  0
LINE
  8
LVL0000
 10
       -6.255076
 20
      -22.459976
 30
        0.000000
 11
       -6.655100
 21
      -22.459976
 31
        0.000000
  0
LINE
  8
LVL0000
 10
       -6.655100
 20
      -23.659988
 30
        0.000000
 11
       -6.655100
 21
      -22.459976
 31
        0.000000
  0
LINE
  8
LVL0000
 10
       -6.255076
 20
      -23.659988
 30
        0.000000
 11
       -6.255076
 21
      -22.459976
 31
        0.000000
  0
LINE
  8
LVL0000
 10
       -8.795115
 20
      -21.119980
 30
        0.000000
 11
       -9.195139
 21
      -21.119980
 31
        0.000000
  0
LINE
  8
LVL0000
 10
       -8.795115
 20
      -19.919968
 30
        0.000000
 11
       -9.195139
 21
      -19.919968
 31
        0.000000
  0
LINE
  8
LVL0000
 10
       -9.195139
 20
      -21.119980
 30
        0.000000
 11
       -9.195139
 21
      -19.919968
 31
        0.000000
  0
LINE
  8
LVL0000
 10
       -8.795115
 20
      -21.119980
 30
        0.000000
 11
       -8.795115
 21
      -19.919968
 31
        0.000000
  0
LINE
  8
LVL0000
 10
       -6.255076
 20
      -21.119980
 30
        0.000000
 11
       -6.655100
 21
      -21.119980
 31
        0.000000
  0
LINE
  8
LVL0000
 10
       -6.255076
 20
      -19.919968
 30
        0.000000
 11
       -6.655100
 21
      -19.919968
 31
        0.000000
  0
LINE
  8
LVL0000
 10
       -6.655100
 20
      -21.119980
 30
        0.000000
 11
       -6.655100
 21
      -19.919968
 31
        0.000000
  0
LINE
  8
LVL0000
 10
       -6.255076
 20
      -21.119980
 30
        0.000000
 11
       -6.255076
 21
      -19.919968
 31
        0.000000
  0
LINE
  8
LVL0000
 10
       -8.795115
 20
      -18.579987
 30
        0.000000
 11
       -9.195139
 21
      -18.579987
 31
        0.000000
  0
LINE
  8
LVL0000
 10
       -8.795115
 20
      -17.379974
 30
        0.000000
 11
       -9.195139
 21
      -17.379974
 31
        0.000000
  0
LINE
  8
LVL0000
 10
       -9.195139
 20
      -18.579987
 30
        0.000000
 11
       -9.195139
 21
      -17.379974
 31
        0.000000
  0
LINE
  8
LVL0000
 10
       -8.795115
 20
      -18.579987
 30
        0.000000
 11
       -8.795115
 21
      -17.379974
 31
        0.000000
  0
LINE
  8
LVL0000
 10
       -6.255076
 20
      -18.579987
 30
        0.000000
 11
       -6.655100
 21
      -18.579987
 31
        0.000000
  0
LINE
  8
LVL0000
 10
       -6.255076
 20
      -17.379974
 30
        0.000000
 11
       -6.655100
 21
      -17.379974
 31
        0.000000
  0
LINE
  8
LVL0000
 10
       -6.655100
 20
      -18.579987
 30
        0.000000
 11
       -6.655100
 21
      -17.379974
 31
        0.000000
  0
LINE
  8
LVL0000
 10
       -6.255076
 20
      -18.579987
 30
        0.000000
 11
       -6.255076
 21
      -17.379974
 31
        0.000000
  0
LINE
  8
LVL0000
 10
       -8.795115
 20
      -16.039993
 30
        0.000000
 11
       -9.195139
 21
      -16.039993
 31
        0.000000
  0
LINE
  8
LVL0000
 10
       -8.795115
 20
      -14.839981
 30
        0.000000
 11
       -9.195139
 21
      -14.839981
 31
        0.000000
  0
LINE
  8
LVL0000
 10
       -9.195139
 20
      -16.039993
 30
        0.000000
 11
       -9.195139
 21
      -14.839981
 31
        0.000000
  0
LINE
  8
LVL0000
 10
       -8.795115
 20
      -16.039993
 30
        0.000000
 11
       -8.795115
 21
      -14.839981
 31
        0.000000
  0
LINE
  8
LVL0000
 10
       -6.255076
 20
      -16.039993
 30
        0.000000
 11
       -6.655100
 21
      -16.039993
 31
        0.000000
  0
LINE
  8
LVL0000
 10
       -6.255076
 20
      -14.839981
 30
        0.000000
 11
       -6.655100
 21
      -14.839981
 31
        0.000000
  0
LINE
  8
LVL0000
 10
       -6.655100
 20
      -16.039993
 30
        0.000000
 11
       -6.655100
 21
      -14.839981
 31
        0.000000
  0
LINE
  8
LVL0000
 10
       -6.255076
 20
      -16.039993
 30
        0.000000
 11
       -6.255076
 21
      -14.839981
 31
        0.000000
  0
LINE
  8
LVL0000
 10
       -8.795115
 20
      -13.499985
 30
        0.000000
 11
       -9.195139
 21
      -13.499985
 31
        0.000000
  0
LINE
  8
LVL0000
 10
       -8.795115
 20
      -12.299973
 30
        0.000000
 11
       -9.195139
 21
      -12.299973
 31
        0.000000
  0
LINE
  8
LVL0000
 10
       -9.195139
 20
      -13.499985
 30
        0.000000
 11
       -9.195139
 21
      -12.299973
 31
        0.000000
  0
LINE
  8
LVL0000
 10
       -8.795115
 20
      -13.499985
 30
        0.000000
 11
       -8.795115
 21
      -12.299973
 31
        0.000000
  0
LINE
  8
LVL0000
 10
       -6.255076
 20
      -13.499985
 30
        0.000000
 11
       -6.655100
 21
      -13.499985
 31
        0.000000
  0
LINE
  8
LVL0000
 10
       -6.255076
 20
      -12.299973
 30
        0.000000
 11
       -6.655100
 21
      -12.299973
 31
        0.000000
  0
LINE
  8
LVL0000
 10
       -6.655100
 20
      -13.499985
 30
        0.000000
 11
       -6.655100
 21
      -12.299973
 31
        0.000000
  0
LINE
  8
LVL0000
 10
       -6.255076
 20
      -13.499985
 30
        0.000000
 11
       -6.255076
 21
      -12.299973
 31
        0.000000
  0
LINE
  8
LVL0000
 10
       -8.795115
 20
      -10.959991
 30
        0.000000
 11
       -9.195139
 21
      -10.959991
 31
        0.000000
  0
LINE
  8
LVL0000
 10
       -8.795115
 20
       -9.759979
 30
        0.000000
 11
       -9.195139
 21
       -9.759979
 31
        0.000000
  0
LINE
  8
LVL0000
 10
       -9.195139
 20
      -10.959991
 30
        0.000000
 11
       -9.195139
 21
       -9.759979
 31
        0.000000
  0
LINE
  8
LVL0000
 10
       -8.795115
 20
      -10.959991
 30
        0.000000
 11
       -8.795115
 21
       -9.759979
 31
        0.000000
  0
LINE
  8
LVL0000
 10
       -6.255076
 20
      -10.959991
 30
        0.000000
 11
       -6.655100
 21
      -10.959991
 31
        0.000000
  0
LINE
  8
LVL0000
 10
       -6.255076
 20
       -9.759979
 30
        0.000000
 11
       -6.655100
 21
       -9.759979
 31
        0.000000
  0
LINE
  8
LVL0000
 10
       -6.655100
 20
      -10.959991
 30
        0.000000
 11
       -6.655100
 21
       -9.759979
 31
        0.000000
  0
LINE
  8
LVL0000
 10
       -6.255076
 20
      -10.959991
 30
        0.000000
 11
       -6.255076
 21
       -9.759979
 31
        0.000000
  0
LINE
  8
LVL0000
 10
       -8.795115
 20
       -8.419983
 30
        0.000000
 11
       -9.195139
 21
       -8.419983
 31
        0.000000
  0
LINE
  8
LVL0000
 10
       -8.795115
 20
       -7.219971
 30
        0.000000
 11
       -9.195139
 21
       -7.219971
 31
        0.000000
  0
LINE
  8
LVL0000
 10
       -9.195139
 20
       -8.419983
 30
        0.000000
 11
       -9.195139
 21
       -7.219971
 31
        0.000000
  0
LINE
  8
LVL0000
 10
       -8.795115
 20
       -8.419983
 30
        0.000000
 11
       -8.795115
 21
       -7.219971
 31
        0.000000
  0
LINE
  8
LVL0000
 10
       -6.255076
 20
       -8.419983
 30
        0.000000
 11
       -6.655100
 21
       -8.419983
 31
        0.000000
  0
LINE
  8
LVL0000
 10
       -6.255076
 20
       -7.219971
 30
        0.000000
 11
       -6.655100
 21
       -7.219971
 31
        0.000000
  0
LINE
  8
LVL0000
 10
       -6.655100
 20
       -8.419983
 30
        0.000000
 11
       -6.655100
 21
       -7.219971
 31
        0.000000
  0
LINE
  8
LVL0000
 10
       -6.255076
 20
       -8.419983
 30
        0.000000
 11
       -6.255076
 21
       -7.219971
 31
        0.000000
  0
LINE
  8
LVL0000
 10
       -8.795115
 20
       -5.879990
 30
        0.000000
 11
       -9.195139
 21
       -5.879990
 31
        0.000000
  0
LINE
  8
LVL0000
 10
       -8.795115
 20
       -4.679977
 30
        0.000000
 11
       -9.195139
 21
       -4.679977
 31
        0.000000
  0
LINE
  8
LVL0000
 10
       -9.195139
 20
       -5.879990
 30
        0.000000
 11
       -9.195139
 21
       -4.679977
 31
        0.000000
  0
LINE
  8
LVL0000
 10
       -8.795115
 20
       -5.879990
 30
        0.000000
 11
       -8.795115
 21
       -4.679977
 31
        0.000000
  0
LINE
  8
LVL0000
 10
       -6.255076
 20
       -5.879990
 30
        0.000000
 11
       -6.655100
 21
       -5.879990
 31
        0.000000
  0
LINE
  8
LVL0000
 10
       -6.255076
 20
       -4.679977
 30
        0.000000
 11
       -6.655100
 21
       -4.679977
 31
        0.000000
  0
LINE
  8
LVL0000
 10
       -6.655100
 20
       -5.879990
 30
        0.000000
 11
       -6.655100
 21
       -4.679977
 31
        0.000000
  0
LINE
  8
LVL0000
 10
       -6.255076
 20
       -5.879990
 30
        0.000000
 11
       -6.255076
 21
       -4.679977
 31
        0.000000
  0
LINE
  8
LVL0000
 10
       -8.795115
 20
       -3.339981
 30
        0.000000
 11
       -9.195139
 21
       -3.339981
 31
        0.000000
  0
LINE
  8
LVL0000
 10
       -8.795115
 20
       -2.139969
 30
        0.000000
 11
       -9.195139
 21
       -2.139969
 31
        0.000000
  0
LINE
  8
LVL0000
 10
       -9.195139
 20
       -3.339981
 30
        0.000000
 11
       -9.195139
 21
       -2.139969
 31
        0.000000
  0
LINE
  8
LVL0000
 10
       -8.795115
 20
       -3.339981
 30
        0.000000
 11
       -8.795115
 21
       -2.139969
 31
        0.000000
  0
LINE
  8
LVL0000
 10
       -6.255076
 20
       -3.339981
 30
        0.000000
 11
       -6.655100
 21
       -3.339981
 31
        0.000000
  0
LINE
  8
LVL0000
 10
       -6.255076
 20
       -2.139969
 30
        0.000000
 11
       -6.655100
 21
       -2.139969
 31
        0.000000
  0
LINE
  8
LVL0000
 10
       -6.655100
 20
       -3.339981
 30
        0.000000
 11
       -6.655100
 21
       -2.139969
 31
        0.000000
  0
LINE
  8
LVL0000
 10
       -6.255076
 20
       -3.339981
 30
        0.000000
 11
       -6.255076
 21
       -2.139969
 31
        0.000000
  0
LINE
  8
LVL0000
 10
       -8.795115
 20
       -0.799988
 30
        0.000000
 11
       -9.195139
 21
       -0.799988
 31
        0.000000
  0
LINE
  8
LVL0000
 10
       -8.795115
 20
        0.400024
 30
        0.000000
 11
       -9.195139
 21
        0.400024
 31
        0.000000
  0
LINE
  8
LVL0000
 10
       -9.195139
 20
       -0.799988
 30
        0.000000
 11
       -9.195139
 21
        0.400024
 31
        0.000000
  0
LINE
  8
LVL0000
 10
       -8.795115
 20
       -0.799988
 30
        0.000000
 11
       -8.795115
 21
        0.400024
 31
        0.000000
  0
LINE
  8
LVL0000
 10
       -6.255076
 20
       -0.799988
 30
        0.000000
 11
       -6.655100
 21
       -0.799988
 31
        0.000000
  0
LINE
  8
LVL0000
 10
       -6.255076
 20
        0.400024
 30
        0.000000
 11
       -6.655100
 21
        0.400024
 31
        0.000000
  0
LINE
  8
LVL0000
 10
       -6.655100
 20
       -0.799988
 30
        0.000000
 11
       -6.655100
 21
        0.400024
 31
        0.000000
  0
LINE
  8
LVL0000
 10
       -6.255076
 20
       -0.799988
 30
        0.000000
 11
       -6.255076
 21
        0.400024
 31
        0.000000
  0
LINE
  8
LVL0000
 10
       -8.795115
 20
        1.740021
 30
        0.000000
 11
       -9.195139
 21
        1.740021
 31
        0.000000
  0
LINE
  8
LVL0000
 10
       -8.795115
 20
        2.940033
 30
        0.000000
 11
       -9.195139
 21
        2.940033
 31
        0.000000
  0
LINE
  8
LVL0000
 10
       -9.195139
 20
        1.740021
 30
        0.000000
 11
       -9.195139
 21
        2.940033
 31
        0.000000
  0
LINE
  8
LVL0000
 10
       -8.795115
 20
        1.740021
 30
        0.000000
 11
       -8.795115
 21
        2.940033
 31
        0.000000
  0
LINE
  8
LVL0000
 10
       -6.255076
 20
        1.740021
 30
        0.000000
 11
       -6.655100
 21
        1.740021
 31
        0.000000
  0
LINE
  8
LVL0000
 10
       -6.255076
 20
        2.940033
 30
        0.000000
 11
       -6.655100
 21
        2.940033
 31
        0.000000
  0
LINE
  8
LVL0000
 10
       -6.655100
 20
        1.740021
 30
        0.000000
 11
       -6.655100
 21
        2.940033
 31
        0.000000
  0
LINE
  8
LVL0000
 10
       -6.255076
 20
        1.740021
 30
        0.000000
 11
       -6.255076
 21
        2.940033
 31
        0.000000
  0
LINE
  8
LVL0000
 10
       -8.795115
 20
        4.280014
 30
        0.000000
 11
       -9.195139
 21
        4.280014
 31
        0.000000
  0
LINE
  8
LVL0000
 10
       -6.255076
 20
        4.280014
 30
        0.000000
 11
       -6.655100
 21
        4.280014
 31
        0.000000
  0
LINE
  8
LVL0000
 10
       -8.795115
 20
        5.480026
 30
        0.000000
 11
       -9.195139
 21
        5.480026
 31
        0.000000
  0
LINE
  8
LVL0000
 10
       -6.255076
 20
        5.480026
 30
        0.000000
 11
       -6.655100
 21
        5.480026
 31
        0.000000
  0
LINE
  8
LVL0000
 10
       -6.655100
 20
        4.280014
 30
        0.000000
 11
       -6.655100
 21
        5.480026
 31
        0.000000
  0
LINE
  8
LVL0000
 10
       -6.255076
 20
        4.280014
 30
        0.000000
 11
       -6.255076
 21
        5.480026
 31
        0.000000
  0
LINE
  8
LVL0000
 10
       -9.195139
 20
        4.280014
 30
        0.000000
 11
       -9.195139
 21
        5.480026
 31
        0.000000
  0
LINE
  8
LVL0000
 10
       -8.795115
 20
        4.280014
 30
        0.000000
 11
       -8.795115
 21
        5.480026
 31
        0.000000
  0
LINE
  8
LVL0000
 10
      166.714722
 20
       55.500343
 30
        0.000000
 11
      164.114746
 21
       55.500343
 31
        0.000000
  0
LINE
  8
LVL0000
 10
      164.114746
 20
      -53.499657
 30
        0.000000
 11
      163.614746
 21
      -59.999657
 31
        0.000000
  0
LINE
  8
LVL0000
 10
      161.614746
 20
      -64.999657
 30
        0.000000
 11
      163.614746
 21
      -59.999657
 31
        0.000000
  0
LINE
  8
LVL0000
 10
      164.114746
 20
      -53.499657
 30
        0.000000
 11
      164.114746
 21
       55.500343
 31
        0.000000
  0
LINE
  8
LVL0000
 10
      164.114746
 20
      -53.499657
 30
        0.000000
 11
      168.214722
 21
      -57.499626
 31
        0.000000
  0
LINE
  8
LVL0000
 10
      168.214722
 20
      -61.999626
 30
        0.000000
 11
      168.214722
 21
      -57.499626
 31
        0.000000
  0
LINE
  8
LVL0000
 10
      165.714722
 20
      -60.999626
 30
        0.000000
 11
      167.214722
 21
      -61.999626
 31
        0.000000
  0
LINE
  8
LVL0000
 10
      165.714722
 20
      -60.999626
 30
        0.000000
 11
      165.714722
 21
      -59.999626
 31
        0.000000
  0
LINE
  8
LVL0000
 10
      167.214722
 20
      -61.999626
 30
        0.000000
 11
      168.214722
 21
      -61.999626
 31
        0.000000
  0
LINE
  8
LVL0000
 10
      163.614746
 20
      -59.999626
 30
        0.000000
 11
      165.714722
 21
      -59.999626
 31
        0.000000
  0
ARC
  8
LVL0000
 10
      171.714722
 20
       58.400337
 30
        0.000000
 40
        2.000000
 50
        0.000000
 51
       90.000000
  0
ARC
  8
LVL0000
 10
      171.714722
 20
       58.400337
 30
        0.000000
 40
        2.000000
 50
      270.000000
 51
      360.000000
  0
LINE
  8
LVL0000
 10
      171.714722
 20
       60.400337
 30
        0.000000
 11
      166.714722
 21
       60.400337
 31
        0.000000
  0
LINE
  8
LVL0000
 10
      171.714722
 20
       56.400337
 30
        0.000000
 11
      166.714722
 21
       56.400337
 31
        0.000000
  0
LINE
  8
LVL0000
 10
       97.314819
 20
      -48.999657
 30
        0.000000
 11
       97.314819
 21
      -34.999657
 31
        0.000000
  0
LINE
  8
LVL0000
 10
       97.314819
 20
       24.000343
 30
        0.000000
 11
       97.314819
 21
       38.000343
 31
        0.000000
  0
LINE
  8
LVL0000
 10
       97.314819
 20
      -34.999657
 30
        0.000000
 11
       96.314819
 21
      -34.999657
 31
        0.000000
  0
LINE
  8
LVL0000
 10
       97.314819
 20
      -48.999657
 30
        0.000000
 11
       96.314819
 21
      -48.999657
 31
        0.000000
  0
LINE
  8
LVL0000
 10
       97.314819
 20
       24.000343
 30
        0.000000
 11
       96.314819
 21
       24.000343
 31
        0.000000
  0
LINE
  8
LVL0000
 10
       97.314819
 20
       38.000343
 30
        0.000000
 11
       96.314819
 21
       38.000343
 31
        0.000000
  0
LINE
  8
LVL0000
 10
      103.114746
 20
      -51.499657
 30
        0.000000
 11
      100.614746
 21
      -51.499657
 31
        0.000000
  0
LINE
  8
LVL0000
 10
      103.114746
 20
       40.500343
 30
        0.000000
 11
      100.614746
 21
       40.500343
 31
        0.000000
  0
LINE
  8
LVL0000
 10
      103.114746
 20
      -51.499657
 30
        0.000000
 11
      103.114746
 21
      -32.499657
 31
        0.000000
  0
LINE
  8
LVL0000
 10
      103.114746
 20
       21.500343
 30
        0.000000
 11
      103.114746
 21
       40.500343
 31
        0.000000
  0
LINE
  8
LVL0000
 10
      103.114746
 20
      -32.499657
 30
        0.000000
 11
      100.614746
 21
      -32.499657
 31
        0.000000
  0
LINE
  8
LVL0000
 10
      103.114746
 20
       21.500343
 30
        0.000000
 11
      100.614746
 21
       21.500343
 31
        0.000000
  0
LINE
  8
LVL0000
 10
      155.814697
 20
       12.700325
 30
        0.000000
 11
      105.414673
 21
       12.700325
 31
        0.000000
  0
LINE
  8
LVL0000
 10
      155.814697
 20
      -12.699638
 30
        0.000000
 11
      155.814697
 21
       12.700325
 31
        0.000000
  0
LINE
  8
LVL0000
 10
      155.814697
 20
      -12.699638
 30
        0.000000
 11
      105.414673
 21
      -12.699638
 31
        0.000000
  0
LINE
  8
LVL0000
 10
      105.414673
 20
      -12.699638
 30
        0.000000
 11
      105.414673
 21
       12.700325
 31
        0.000000
  0
LINE
  8
LVL0000
 10
       64.314575
 20
       22.052406
 30
        0.000000
 11
       64.314575
 21
      -64.499992
 31
        0.000000
  0
ARC
  8
LVL0000
 10
       64.814819
 20
       22.052406
 30
        0.000000
 40
        0.500000
 50
       90.000000
 51
      180.000010
  0
ARC
  8
LVL0000
 10
       64.814819
 20
      -64.499992
 30
        0.000000
 40
        0.500000
 50
      180.000010
 51
      270.000000
  0
LINE
  8
LVL0000
 10
       96.314819
 20
      -64.999992
 30
        0.000000
 11
       96.314819
 21
      -50.999992
 31
        0.000000
  0
LINE
  8
LVL0000
 10
       96.314819
 20
       39.000008
 30
        0.000000
 11
       96.314819
 21
       65.000008
 31
        0.000000
  0
LINE
  8
LVL0000
 10
       96.314819
 20
      -64.999657
 30
        0.000000
 11
       96.314819
 21
       65.000374
 31
        0.000000
  0
LINE
  8
LVL0000
 10
       65.814575
 20
       23.500008
 30
        0.000000
 11
       64.314575
 21
       25.000008
 31
        0.000000
  0
LINE
  8
LVL0000
 10
       67.314575
 20
       23.500008
 30
        0.000000
 11
       67.314819
 21
       57.000008
 31
        0.000000
  0
LINE
  8
LVL0000
 10
       64.314819
 20
       57.000008
 30
        0.000000
 11
       67.314819
 21
       57.000008
 31
        0.000000
  0
LINE
  8
LVL0000
 10
       67.314819
 20
       56.000008
 30
        0.000000
 11
       67.314819
 21
       57.000008
 31
        0.000000
  0
LINE
  8
LVL0000
 10
       62.964478
 20
       29.999825
 30
        0.000000
 11
       62.964478
 21
       31.999825
 31
        0.000000
  0
LINE
  8
LVL0000
 10
       64.314819
 20
       57.000008
 30
        0.000000
 11
       67.314819
 21
       57.000008
 31
        0.000000
  0
LINE
  8
LVL0000
 10
       64.314575
 20
       31.999825
 30
        0.000000
 11
       62.964478
 21
       31.999825
 31
        0.000000
  0
LINE
  8
LVL0000
 10
       64.314575
 20
       29.999825
 30
        0.000000
 11
       62.964478
 21
       29.999825
 31
        0.000000
  0
LINE
  8
LVL0000
 10
       67.314575
 20
       23.500008
 30
        0.000000
 11
       67.314575
 21
       22.552406
 31
        0.000000
  0
LINE
  8
LVL0000
 10
       66.314819
 20
       22.552406
 30
        0.000000
 11
       66.314819
 21
       23.500008
 31
        0.000000
  0
LINE
  8
LVL0000
 10
       64.814819
 20
       22.552406
 30
        0.000000
 11
       67.314575
 21
       22.552406
 31
        0.000000
  0
LINE
  8
LVL0000
 10
       65.814575
 20
       23.500008
 30
        0.000000
 11
       67.314575
 21
       23.500008
 31
        0.000000
  0
LINE
  8
LVL0000
 10
      168.214722
 20
      128.400826
 30
        0.000000
 11
      168.214722
 21
      107.500336
 31
        0.000000
  0
LINE
  8
LVL0000
 10
      168.214722
 20
      128.400826
 30
        0.000000
 11
      166.714355
 21
      128.400826
 31
        0.000000
  0
LINE
  8
LVL0000
 10
      166.714722
 20
      103.500336
 30
        0.000000
 11
      171.714722
 21
      103.500336
 31
        0.000000
  0
LINE
  8
LVL0000
 10
      166.714722
 20
      107.500336
 30
        0.000000
 11
      171.714722
 21
      107.500336
 31
        0.000000
  0
ARC
  8
LVL0000
 10
      171.714722
 20
      105.500336
 30
        0.000000
 40
        2.000000
 50
      270.000000
 51
      450.000000
  0
LINE
  8
LVL0000
 10
      105.314331
 20
      114.450836
 30
        0.000000
 11
      107.314331
 21
      114.000824
 31
        0.000000
  0
LINE
  8
LVL0000
 10
      105.314331
 20
      118.550812
 30
        0.000000
 11
      107.314331
 21
      119.000824
 31
        0.000000
  0
LINE
  8
LVL0000
 10
      115.314331
 20
      113.000824
 30
        0.000000
 11
      113.314331
 21
      113.100800
 31
        0.000000
  0
LINE
  8
LVL0000
 10
      113.314331
 20
      119.900848
 30
        0.000000
 11
      115.314331
 21
      120.000824
 31
        0.000000
  0
LINE
  8
LVL0000
 10
      109.314331
 20
      119.400848
 30
        0.000000
 11
      111.314331
 21
      119.700836
 31
        0.000000
  0
LINE
  8
LVL0000
 10
      111.314331
 20
      113.300812
 30
        0.000000
 11
      109.314331
 21
      113.600800
 31
        0.000000
  0
LINE
  8
LVL0000
 10
      102.814331
 20
      115.086639
 30
        0.000000
 11
      103.314331
 21
      114.900848
 31
        0.000000
  0
LINE
  8
LVL0000
 10
      103.314331
 20
      118.100800
 30
        0.000000
 11
      102.814331
 21
      117.915009
 31
        0.000000
  0
ARC
  8
LVL0000
 10
      103.314331
 20
      116.500824
 30
        0.000000
 40
        1.499973
 50
      109.471585
 51
      250.528418
  0
LINE
  8
LVL0000
 10
      119.314331
 20
      112.900848
 30
        0.000000
 11
      117.314331
 21
      112.900848
 31
        0.000000
  0
LINE
  8
LVL0000
 10
      119.314331
 20
      120.100800
 30
        0.000000
 11
      117.314331
 21
      120.100800
 31
        0.000000
  0
LINE
  8
LVL0000
 10
      123.314331
 20
      112.900848
 30
        0.000000
 11
      121.314331
 21
      112.900848
 31
        0.000000
  0
LINE
  8
LVL0000
 10
      123.314331
 20
      120.100800
 30
        0.000000
 11
      121.314331
 21
      120.100800
 31
        0.000000
  0
LINE
  8
LVL0000
 10
      127.314331
 20
      112.900848
 30
        0.000000
 11
      125.314331
 21
      112.900848
 31
        0.000000
  0
LINE
  8
LVL0000
 10
      127.314331
 20
      120.100800
 30
        0.000000
 11
      125.314331
 21
      120.100800
 31
        0.000000
  0
LINE
  8
LVL0000
 10
      131.314331
 20
      112.900848
 30
        0.000000
 11
      129.314331
 21
      112.900848
 31
        0.000000
  0
LINE
  8
LVL0000
 10
      131.314331
 20
      120.100800
 30
        0.000000
 11
      129.314331
 21
      120.100800
 31
        0.000000
  0
LINE
  8
LVL0000
 10
      135.314331
 20
      112.900848
 30
        0.000000
 11
      133.314331
 21
      112.900848
 31
        0.000000
  0
LINE
  8
LVL0000
 10
      135.314331
 20
      120.100800
 30
        0.000000
 11
      133.314331
 21
      120.100800
 31
        0.000000
  0
LINE
  8
LVL0000
 10
      139.314331
 20
      112.900848
 30
        0.000000
 11
      137.314331
 21
      112.900848
 31
        0.000000
  0
LINE
  8
LVL0000
 10
      139.314331
 20
      120.100800
 30
        0.000000
 11
      137.314331
 21
      120.100800
 31
        0.000000
  0
LINE
  8
LVL0000
 10
      143.314331
 20
      112.900848
 30
        0.000000
 11
      141.314331
 21
      112.900848
 31
        0.000000
  0
LINE
  8
LVL0000
 10
      143.314331
 20
      120.100800
 30
        0.000000
 11
      141.314331
 21
      120.100800
 31
        0.000000
  0
LINE
  8
LVL0000
 10
      147.314331
 20
      112.900848
 30
        0.000000
 11
      145.314331
 21
      112.900848
 31
        0.000000
  0
LINE
  8
LVL0000
 10
      147.314331
 20
      120.100800
 30
        0.000000
 11
      145.314331
 21
      120.100800
 31
        0.000000
  0
LINE
  8
LVL0000
 10
      151.314331
 20
      112.900848
 30
        0.000000
 11
      149.314331
 21
      112.900848
 31
        0.000000
  0
LINE
  8
LVL0000
 10
      151.314331
 20
      120.100800
 30
        0.000000
 11
      149.314331
 21
      120.100800
 31
        0.000000
  0
LINE
  8
LVL0000
 10
      155.314331
 20
      112.900848
 30
        0.000000
 11
      153.314331
 21
      112.900848
 31
        0.000000
  0
LINE
  8
LVL0000
 10
      155.314331
 20
      120.100800
 30
        0.000000
 11
      153.314331
 21
      120.100800
 31
        0.000000
  0
LINE
  8
LVL0000
 10
      155.314331
 20
       99.000824
 30
        0.000000
 11
      155.314331
 21
      113.231964
 31
        0.000000
  0
LINE
  8
LVL0000
 10
      155.314331
 20
      119.769684
 30
        0.000000
 11
      155.314331
 21
      134.000824
 31
        0.000000
  0
LINE
  8
LVL0000
 10
      157.314331
 20
      102.000824
 30
        0.000000
 11
      155.314331
 21
      102.000824
 31
        0.000000
  0
LINE
  8
LVL0000
 10
      157.314331
 20
      131.000824
 30
        0.000000
 11
      155.314331
 21
      131.000824
 31
        0.000000
  0
LINE
  8
LVL0000
 10
      153.314331
 20
      102.000824
 30
        0.000000
 11
      151.314331
 21
      102.000824
 31
        0.000000
  0
LINE
  8
LVL0000
 10
      153.314331
 20
      131.000824
 30
        0.000000
 11
      151.314331
 21
      131.000824
 31
        0.000000
  0
LINE
  8
LVL0000
 10
      153.314331
 20
       99.000824
 30
        0.000000
 11
      153.314331
 21
      134.000824
 31
        0.000000
  0
LINE
  8
LVL0000
 10
      151.314331
 20
       99.000824
 30
        0.000000
 11
      151.314331
 21
      134.000824
 31
        0.000000
  0
LINE
  8
LVL0000
 10
      149.314331
 20
      102.000824
 30
        0.000000
 11
      147.314331
 21
      102.000824
 31
        0.000000
  0
LINE
  8
LVL0000
 10
      149.314331
 20
      131.000824
 30
        0.000000
 11
      147.314331
 21
      131.000824
 31
        0.000000
  0
LINE
  8
LVL0000
 10
      149.314331
 20
       99.000824
 30
        0.000000
 11
      149.314331
 21
      134.000824
 31
        0.000000
  0
LINE
  8
LVL0000
 10
      147.314331
 20
       99.000824
 30
        0.000000
 11
      147.314331
 21
      134.000824
 31
        0.000000
  0
LINE
  8
LVL0000
 10
      145.314331
 20
      102.000824
 30
        0.000000
 11
      143.314331
 21
      102.000824
 31
        0.000000
  0
LINE
  8
LVL0000
 10
      145.314331
 20
      131.000824
 30
        0.000000
 11
      143.314331
 21
      131.000824
 31
        0.000000
  0
LINE
  8
LVL0000
 10
      145.314331
 20
       99.000824
 30
        0.000000
 11
      145.314331
 21
      134.000824
 31
        0.000000
  0
LINE
  8
LVL0000
 10
      143.314331
 20
       99.000824
 30
        0.000000
 11
      143.314331
 21
      134.000824
 31
        0.000000
  0
LINE
  8
LVL0000
 10
      141.314331
 20
      102.000824
 30
        0.000000
 11
      139.314331
 21
      102.000824
 31
        0.000000
  0
LINE
  8
LVL0000
 10
      141.314331
 20
      131.000824
 30
        0.000000
 11
      139.314331
 21
      131.000824
 31
        0.000000
  0
LINE
  8
LVL0000
 10
      141.314331
 20
       99.000824
 30
        0.000000
 11
      141.314331
 21
      134.000824
 31
        0.000000
  0
LINE
  8
LVL0000
 10
      139.314331
 20
       99.000824
 30
        0.000000
 11
      139.314331
 21
      134.000824
 31
        0.000000
  0
LINE
  8
LVL0000
 10
      137.314331
 20
      102.000824
 30
        0.000000
 11
      135.314331
 21
      102.000824
 31
        0.000000
  0
LINE
  8
LVL0000
 10
      137.314331
 20
      131.000824
 30
        0.000000
 11
      135.314331
 21
      131.000824
 31
        0.000000
  0
LINE
  8
LVL0000
 10
      137.314331
 20
       99.000824
 30
        0.000000
 11
      137.314331
 21
      134.000824
 31
        0.000000
  0
LINE
  8
LVL0000
 10
      135.314331
 20
       99.000824
 30
        0.000000
 11
      135.314331
 21
      134.000824
 31
        0.000000
  0
LINE
  8
LVL0000
 10
      133.314331
 20
      102.000824
 30
        0.000000
 11
      131.314331
 21
      102.000824
 31
        0.000000
  0
LINE
  8
LVL0000
 10
      133.314331
 20
      131.000824
 30
        0.000000
 11
      131.314331
 21
      131.000824
 31
        0.000000
  0
LINE
  8
LVL0000
 10
      133.314331
 20
       99.000824
 30
        0.000000
 11
      133.314331
 21
      134.000824
 31
        0.000000
  0
LINE
  8
LVL0000
 10
      131.314331
 20
       99.000824
 30
        0.000000
 11
      131.314331
 21
      134.000824
 31
        0.000000
  0
LINE
  8
LVL0000
 10
      129.314331
 20
      102.000824
 30
        0.000000
 11
      127.314331
 21
      102.000824
 31
        0.000000
  0
LINE
  8
LVL0000
 10
      129.314331
 20
      131.000824
 30
        0.000000
 11
      127.314331
 21
      131.000824
 31
        0.000000
  0
LINE
  8
LVL0000
 10
      129.314331
 20
       99.000824
 30
        0.000000
 11
      129.314331
 21
      134.000824
 31
        0.000000
  0
LINE
  8
LVL0000
 10
      127.314331
 20
       99.000824
 30
        0.000000
 11
      127.314331
 21
      134.000824
 31
        0.000000
  0
LINE
  8
LVL0000
 10
      125.314331
 20
      102.000824
 30
        0.000000
 11
      123.314331
 21
      102.000824
 31
        0.000000
  0
LINE
  8
LVL0000
 10
      125.314331
 20
      131.000824
 30
        0.000000
 11
      123.314331
 21
      131.000824
 31
        0.000000
  0
LINE
  8
LVL0000
 10
      125.314331
 20
       99.000824
 30
        0.000000
 11
      125.314331
 21
      134.000824
 31
        0.000000
  0
LINE
  8
LVL0000
 10
      123.314331
 20
       99.000824
 30
        0.000000
 11
      123.314331
 21
      134.000824
 31
        0.000000
  0
LINE
  8
LVL0000
 10
      121.314331
 20
      102.000824
 30
        0.000000
 11
      119.314331
 21
      102.000824
 31
        0.000000
  0
LINE
  8
LVL0000
 10
      121.314331
 20
      131.000824
 30
        0.000000
 11
      119.314331
 21
      131.000824
 31
        0.000000
  0
LINE
  8
LVL0000
 10
      121.314331
 20
       99.000824
 30
        0.000000
 11
      121.314331
 21
      134.000824
 31
        0.000000
  0
LINE
  8
LVL0000
 10
      119.314331
 20
       99.000824
 30
        0.000000
 11
      119.314331
 21
      134.000824
 31
        0.000000
  0
LINE
  8
LVL0000
 10
      117.314331
 20
      102.000824
 30
        0.000000
 11
      115.314331
 21
      102.000824
 31
        0.000000
  0
LINE
  8
LVL0000
 10
      117.314331
 20
      131.000824
 30
        0.000000
 11
      115.314331
 21
      131.000824
 31
        0.000000
  0
LINE
  8
LVL0000
 10
      117.314331
 20
       99.000824
 30
        0.000000
 11
      117.314331
 21
      134.000824
 31
        0.000000
  0
LINE
  8
LVL0000
 10
      115.314331
 20
       99.000824
 30
        0.000000
 11
      115.314331
 21
      134.000824
 31
        0.000000
  0
LINE
  8
LVL0000
 10
      113.314331
 20
      102.000824
 30
        0.000000
 11
      111.314331
 21
      102.000824
 31
        0.000000
  0
LINE
  8
LVL0000
 10
      113.314331
 20
      131.000824
 30
        0.000000
 11
      111.314331
 21
      131.000824
 31
        0.000000
  0
LINE
  8
LVL0000
 10
      113.314331
 20
       99.000824
 30
        0.000000
 11
      113.314331
 21
      134.000824
 31
        0.000000
  0
LINE
  8
LVL0000
 10
      111.314331
 20
       99.000824
 30
        0.000000
 11
      111.314331
 21
      134.000824
 31
        0.000000
  0
LINE
  8
LVL0000
 10
      109.314331
 20
      102.000824
 30
        0.000000
 11
      107.314331
 21
      102.000824
 31
        0.000000
  0
LINE
  8
LVL0000
 10
      109.314331
 20
      131.000824
 30
        0.000000
 11
      107.314331
 21
      131.000824
 31
        0.000000
  0
LINE
  8
LVL0000
 10
      109.314331
 20
       99.000824
 30
        0.000000
 11
      109.314331
 21
      134.000824
 31
        0.000000
  0
LINE
  8
LVL0000
 10
      107.314331
 20
       99.000824
 30
        0.000000
 11
      107.314331
 21
      134.000824
 31
        0.000000
  0
LINE
  8
LVL0000
 10
      154.614380
 20
      118.500824
 30
        0.000000
 11
      154.614380
 21
      114.500824
 31
        0.000000
  0
LINE
  8
LVL0000
 10
      157.314331
 20
      113.000824
 30
        0.000000
 11
      156.114380
 21
      113.000824
 31
        0.000000
  0
ARC
  8
LVL0000
 10
      156.114380
 20
      114.500824
 30
        0.000000
 40
        1.500000
 50
      180.000010
 51
      270.000000
  0
ARC
  8
LVL0000
 10
      156.114380
 20
      118.500824
 30
        0.000000
 40
        1.500000
 50
       90.000000
 51
      180.000010
  0
LINE
  8
LVL0000
 10
      157.314331
 20
      120.000824
 30
        0.000000
 11
      156.114380
 21
      120.000824
 31
        0.000000
  0
LINE
  8
LVL0000
 10
      157.314331
 20
      134.000824
 30
        0.000000
 11
      157.314331
 21
       99.000824
 31
        0.000000
  0
LINE
  8
LVL0000
 10
      105.314331
 20
      102.000824
 30
        0.000000
 11
      103.314331
 21
      102.000824
 31
        0.000000
  0
LINE
  8
LVL0000
 10
      105.314331
 20
      131.000824
 30
        0.000000
 11
      103.314331
 21
      131.000824
 31
        0.000000
  0
LINE
  8
LVL0000
 10
      105.314331
 20
       99.000824
 30
        0.000000
 11
      105.314331
 21
      134.000824
 31
        0.000000
  0
LINE
  8
LVL0000
 10
      103.314331
 20
       99.000824
 30
        0.000000
 11
      103.314331
 21
      134.000824
 31
        0.000000
  0
LINE
  8
LVL0000
 10
       96.314331
 20
       99.000824
 30
        0.000000
 11
       96.314331
 21
      134.000824
 31
        0.000000
  0
LINE
  8
LVL0000
 10
      166.714355
 20
      134.000824
 30
        0.000000
 11
      166.714355
 21
       99.000824
 31
        0.000000
  0
ARC
  8
LVL0000
 10
       17.000000
 20
      -64.499992
 30
        0.000000
 40
        0.500000
 50
      270.000000
 51
      360.000000
  0
LINE
  8
LVL0000
 10
       17.000000
 20
      -64.999992
 30
        0.000000
 11
      -17.000000
 21
      -64.999992
 31
        0.000000
  0
LINE
  8
LVL0000
 10
       17.500000
 20
      -64.499992
 30
        0.000000
 11
       17.500000
 21
       64.500008
 31
        0.000000
  0
ARC
  8
LVL0000
 10
       17.000000
 20
       64.500008
 30
        0.000000
 40
        0.500000
 50
        0.000000
 51
       90.000000
  0
LINE
  8
LVL0000
 10
      -17.000000
 20
       65.000008
 30
        0.000000
 11
       17.000000
 21
       65.000008
 31
        0.000000
  0
LINE
  8
LVL0000
 10
      -17.500000
 20
       22.500008
 30
        0.000000
 11
       17.500000
 21
       22.500008
 31
        0.000000
  0
LINE
  8
LVL0000
 10
      -17.500000
 20
       22.500008
 30
        0.000000
 11
       17.500000
 21
       22.500008
 31
        0.000000
  0
LINE
  8
LVL0000
 10
       16.099976
 20
       58.000008
 30
        0.000000
 11
       16.099976
 21
       63.500008
 31
        0.000000
  0
LINE
  8
LVL0000
 10
      -16.099976
 20
       58.000008
 30
        0.000000
 11
      -16.099976
 21
       63.500008
 31
        0.000000
  0
LINE
  8
LVL0000
 10
      -16.099976
 20
       58.000008
 30
        0.000000
 11
       16.099976
 21
       58.000008
 31
        0.000000
  0
LINE
  8
LVL0000
 10
      -16.099976
 20
       63.500008
 30
        0.000000
 11
       16.099976
 21
       63.500008
 31
        0.000000
  0
LINE
  8
LVL0000
 10
      -17.500000
 20
       57.000008
 30
        0.000000
 11
       17.500000
 21
       57.000008
 31
        0.000000
  0
CIRCLE
  8
LVL0000
 10
       -6.600220
 20
       12.739998
 30
        0.000000
 40
        1.000000
  0
LINE
  8
LVL0000
 10
      -11.849854
 20
        9.989998
 30
        0.000000
 11
       -3.599854
 21
        9.989998
 31
        0.000000
  0
LINE
  8
LVL0000
 10
      -11.850220
 20
        9.989998
 30
        0.000000
 11
      -11.850220
 21
       15.489998
 31
        0.000000
  0
LINE
  8
LVL0000
 10
      -11.850220
 20
       15.489998
 30
        0.000000
 11
       -3.600220
 21
       15.489998
 31
        0.000000
  0
LINE
  8
LVL0000
 10
        0.749878
 20
        9.989998
 30
        0.000000
 11
        8.999878
 21
        9.989998
 31
        0.000000
  0
CIRCLE
  8
LVL0000
 10
        5.999512
 20
       12.739998
 30
        0.000000
 40
        1.000000
  0
LINE
  8
LVL0000
 10
        0.749512
 20
        9.989998
 30
        0.000000
 11
        0.749512
 21
       15.489998
 31
        0.000000
  0
LINE
  8
LVL0000
 10
        0.749512
 20
       15.489998
 30
        0.000000
 11
        8.999512
 21
       15.489998
 31
        0.000000
  0
CIRCLE
  8
LVL0000
 10
       -6.600342
 20
      -51.239983
 30
        0.000000
 40
        1.000000
  0
LINE
  8
LVL0000
 10
      -11.850342
 20
      -53.989983
 30
        0.000000
 11
      -11.850342
 21
      -48.489983
 31
        0.000000
  0
LINE
  8
LVL0000
 10
      -11.849976
 20
      -53.989983
 30
        0.000000
 11
       -3.599976
 21
      -53.989983
 31
        0.000000
  0
CIRCLE
  8
LVL0000
 10
        5.999512
 20
      -51.239983
 30
        0.000000
 40
        1.000000
  0
LINE
  8
LVL0000
 10
        0.749512
 20
      -53.989983
 30
        0.000000
 11
        0.749512
 21
      -48.489983
 31
        0.000000
  0
LINE
  8
LVL0000
 10
        0.749512
 20
      -48.489983
 30
        0.000000
 11
        8.999512
 21
      -48.489983
 31
        0.000000
  0
LINE
  8
LVL0000
 10
        0.749878
 20
      -53.989983
 30
        0.000000
 11
        8.999878
 21
      -53.989983
 31
        0.000000
  0
LINE
  8
LVL0000
 10
        4.249756
 20
       53.100349
 30
        0.000000
 11
        6.749756
 21
       53.100349
 31
        0.000000
  0
LINE
  8
LVL0000
 10
        6.949951
 20
       53.100349
 30
        0.000000
 11
        9.449951
 21
       53.100349
 31
        0.000000
  0
LINE
  8
LVL0000
 10
      -12.150146
 20
       53.300301
 30
        0.000000
 11
        9.649902
 21
       53.300301
 31
        0.000000
  0
LINE
  8
LVL0000
 10
      -11.949951
 20
       53.100349
 30
        0.000000
 11
       -9.449951
 21
       53.100349
 31
        0.000000
  0
LINE
  8
LVL0000
 10
       -9.250244
 20
       53.100349
 30
        0.000000
 11
       -6.750244
 21
       53.100349
 31
        0.000000
  0
LINE
  8
LVL0000
 10
       -6.550049
 20
       53.100349
 30
        0.000000
 11
       -4.050049
 21
       53.100349
 31
        0.000000
  0
LINE
  8
LVL0000
 10
       -3.850098
 20
       53.100349
 30
        0.000000
 11
       -1.350098
 21
       53.100349
 31
        0.000000
  0
LINE
  8
LVL0000
 10
       -1.150146
 20
       53.100349
 30
        0.000000
 11
        1.349854
 21
       53.100349
 31
        0.000000
  0
LINE
  8
LVL0000
 10
        1.550049
 20
       53.100349
 30
        0.000000
 11
        4.050049
 21
       53.100349
 31
        0.000000
  0
LINE
  8
LVL0000
 10
      -12.150146
 20
       37.400276
 30
        0.000000
 11
        9.649902
 21
       37.400276
 31
        0.000000
  0
LINE
  8
LVL0000
 10
      -12.150146
 20
       37.400276
 30
        0.000000
 11
      -12.150146
 21
       53.300301
 31
        0.000000
  0
LINE
  8
LVL0000
 10
       -9.250244
 20
       49.600349
 30
        0.000000
 11
       -6.750244
 21
       49.600349
 31
        0.000000
  0
LINE
  8
LVL0000
 10
       -9.250244
 20
       49.400276
 30
        0.000000
 11
       -6.750244
 21
       49.400276
 31
        0.000000
  0
LINE
  8
LVL0000
 10
       -9.250244
 20
       45.600349
 30
        0.000000
 11
       -6.750244
 21
       45.600349
 31
        0.000000
  0
LINE
  8
LVL0000
 10
       -9.250244
 20
       45.400276
 30
        0.000000
 11
       -6.750244
 21
       45.400276
 31
        0.000000
  0
LINE
  8
LVL0000
 10
       -6.550049
 20
       49.600349
 30
        0.000000
 11
       -4.050049
 21
       49.600349
 31
        0.000000
  0
LINE
  8
LVL0000
 10
       -6.550049
 20
       49.400276
 30
        0.000000
 11
       -4.050049
 21
       49.400276
 31
        0.000000
  0
LINE
  8
LVL0000
 10
       -6.550049
 20
       45.600349
 30
        0.000000
 11
       -4.050049
 21
       45.600349
 31
        0.000000
  0
LINE
  8
LVL0000
 10
       -6.550049
 20
       45.400276
 30
        0.000000
 11
       -4.050049
 21
       45.400276
 31
        0.000000
  0
LINE
  8
LVL0000
 10
      -11.949951
 20
       49.600349
 30
        0.000000
 11
      -11.949951
 21
       53.100349
 31
        0.000000
  0
LINE
  8
LVL0000
 10
       -9.449951
 20
       49.600349
 30
        0.000000
 11
       -9.449951
 21
       53.100349
 31
        0.000000
  0
LINE
  8
LVL0000
 10
       -9.250244
 20
       49.600349
 30
        0.000000
 11
       -9.250244
 21
       53.100349
 31
        0.000000
  0
LINE
  8
LVL0000
 10
       -6.750244
 20
       49.600349
 30
        0.000000
 11
       -6.750244
 21
       53.100349
 31
        0.000000
  0
LINE
  8
LVL0000
 10
       -6.550049
 20
       49.600349
 30
        0.000000
 11
       -6.550049
 21
       53.100349
 31
        0.000000
  0
LINE
  8
LVL0000
 10
       -4.050049
 20
       49.600349
 30
        0.000000
 11
       -4.050049
 21
       53.100349
 31
        0.000000
  0
LINE
  8
LVL0000
 10
       -3.850098
 20
       49.600349
 30
        0.000000
 11
       -3.850098
 21
       53.100349
 31
        0.000000
  0
LINE
  8
LVL0000
 10
       -1.350098
 20
       49.600349
 30
        0.000000
 11
       -1.350098
 21
       53.100349
 31
        0.000000
  0
LINE
  8
LVL0000
 10
      -11.949951
 20
       49.600349
 30
        0.000000
 11
       -9.449951
 21
       49.600349
 31
        0.000000
  0
LINE
  8
LVL0000
 10
      -11.949951
 20
       49.400276
 30
        0.000000
 11
       -9.449951
 21
       49.400276
 31
        0.000000
  0
LINE
  8
LVL0000
 10
      -11.949951
 20
       45.600349
 30
        0.000000
 11
       -9.449951
 21
       45.600349
 31
        0.000000
  0
LINE
  8
LVL0000
 10
      -11.949951
 20
       45.400276
 30
        0.000000
 11
       -9.449951
 21
       45.400276
 31
        0.000000
  0
LINE
  8
LVL0000
 10
      -11.949951
 20
       45.600349
 30
        0.000000
 11
      -11.949951
 21
       49.400276
 31
        0.000000
  0
LINE
  8
LVL0000
 10
       -9.449951
 20
       45.600349
 30
        0.000000
 11
       -9.449951
 21
       49.400276
 31
        0.000000
  0
LINE
  8
LVL0000
 10
       -9.250244
 20
       45.600349
 30
        0.000000
 11
       -9.250244
 21
       49.400276
 31
        0.000000
  0
LINE
  8
LVL0000
 10
       -6.750244
 20
       45.600349
 30
        0.000000
 11
       -6.750244
 21
       49.400276
 31
        0.000000
  0
LINE
  8
LVL0000
 10
       -6.550049
 20
       45.600349
 30
        0.000000
 11
       -6.550049
 21
       49.400276
 31
        0.000000
  0
LINE
  8
LVL0000
 10
       -4.050049
 20
       45.600349
 30
        0.000000
 11
       -4.050049
 21
       49.400276
 31
        0.000000
  0
LINE
  8
LVL0000
 10
       -3.850098
 20
       45.600349
 30
        0.000000
 11
       -3.850098
 21
       49.400276
 31
        0.000000
  0
LINE
  8
LVL0000
 10
        9.649902
 20
       37.400276
 30
        0.000000
 11
        9.649902
 21
       53.300301
 31
        0.000000
  0
LINE
  8
LVL0000
 10
        6.949951
 20
       37.600349
 30
        0.000000
 11
        9.449951
 21
       37.600349
 31
        0.000000
  0
LINE
  8
LVL0000
 10
        6.949951
 20
       41.400276
 30
        0.000000
 11
        9.449951
 21
       41.400276
 31
        0.000000
  0
LINE
  8
LVL0000
 10
        6.949951
 20
       41.600349
 30
        0.000000
 11
        9.449951
 21
       41.600349
 31
        0.000000
  0
LINE
  8
LVL0000
 10
        6.949951
 20
       45.400276
 30
        0.000000
 11
        9.449951
 21
       45.400276
 31
        0.000000
  0
LINE
  8
LVL0000
 10
        6.949951
 20
       45.600349
 30
        0.000000
 11
        9.449951
 21
       45.600349
 31
        0.000000
  0
LINE
  8
LVL0000
 10
        6.949951
 20
       49.400276
 30
        0.000000
 11
        9.449951
 21
       49.400276
 31
        0.000000
  0
LINE
  8
LVL0000
 10
        6.949951
 20
       49.600349
 30
        0.000000
 11
        9.449951
 21
       49.600349
 31
        0.000000
  0
LINE
  8
LVL0000
 10
        6.949951
 20
       49.600349
 30
        0.000000
 11
        6.949951
 21
       53.100349
 31
        0.000000
  0
LINE
  8
LVL0000
 10
        6.749756
 20
       49.600349
 30
        0.000000
 11
        6.749756
 21
       53.100349
 31
        0.000000
  0
LINE
  8
LVL0000
 10
        4.249756
 20
       49.600349
 30
        0.000000
 11
        4.249756
 21
       53.100349
 31
        0.000000
  0
LINE
  8
LVL0000
 10
        4.050049
 20
       49.600349
 30
        0.000000
 11
        4.050049
 21
       53.100349
 31
        0.000000
  0
LINE
  8
LVL0000
 10
        1.550049
 20
       49.600349
 30
        0.000000
 11
        1.550049
 21
       53.100349
 31
        0.000000
  0
LINE
  8
LVL0000
 10
        1.349854
 20
       49.600349
 30
        0.000000
 11
        1.349854
 21
       53.100349
 31
        0.000000
  0
LINE
  8
LVL0000
 10
       -1.150146
 20
       49.600349
 30
        0.000000
 11
       -1.150146
 21
       53.100349
 31
        0.000000
  0
LINE
  8
LVL0000
 10
        6.949951
 20
       45.600349
 30
        0.000000
 11
        6.949951
 21
       49.400276
 31
        0.000000
  0
LINE
  8
LVL0000
 10
        6.749756
 20
       45.600349
 30
        0.000000
 11
        6.749756
 21
       49.400276
 31
        0.000000
  0
LINE
  8
LVL0000
 10
        4.249756
 20
       45.600349
 30
        0.000000
 11
        4.249756
 21
       49.400276
 31
        0.000000
  0
LINE
  8
LVL0000
 10
        4.050049
 20
       45.600349
 30
        0.000000
 11
        4.050049
 21
       49.400276
 31
        0.000000
  0
LINE
  8
LVL0000
 10
        1.550049
 20
       45.600349
 30
        0.000000
 11
        1.550049
 21
       49.400276
 31
        0.000000
  0
LINE
  8
LVL0000
 10
        1.349854
 20
       45.600349
 30
        0.000000
 11
        1.349854
 21
       49.400276
 31
        0.000000
  0
LINE
  8
LVL0000
 10
       -1.150146
 20
       45.600349
 30
        0.000000
 11
       -1.150146
 21
       49.400276
 31
        0.000000
  0
LINE
  8
LVL0000
 10
       -1.350098
 20
       45.600349
 30
        0.000000
 11
       -1.350098
 21
       49.400276
 31
        0.000000
  0
LINE
  8
LVL0000
 10
        4.249756
 20
       37.600349
 30
        0.000000
 11
        4.249756
 21
       41.400276
 31
        0.000000
  0
LINE
  8
LVL0000
 10
        4.249756
 20
       41.600349
 30
        0.000000
 11
        4.249756
 21
       45.400276
 31
        0.000000
  0
LINE
  8
LVL0000
 10
        4.050049
 20
       37.600349
 30
        0.000000
 11
        4.050049
 21
       41.400276
 31
        0.000000
  0
LINE
  8
LVL0000
 10
        4.050049
 20
       41.600349
 30
        0.000000
 11
        4.050049
 21
       45.400276
 31
        0.000000
  0
LINE
  8
LVL0000
 10
        1.550049
 20
       37.600349
 30
        0.000000
 11
        1.550049
 21
       41.400276
 31
        0.000000
  0
LINE
  8
LVL0000
 10
        1.550049
 20
       41.600349
 30
        0.000000
 11
        1.550049
 21
       45.400276
 31
        0.000000
  0
LINE
  8
LVL0000
 10
        1.349854
 20
       37.600349
 30
        0.000000
 11
        1.349854
 21
       41.400276
 31
        0.000000
  0
LINE
  8
LVL0000
 10
        1.349854
 20
       41.600349
 30
        0.000000
 11
        1.349854
 21
       45.400276
 31
        0.000000
  0
LINE
  8
LVL0000
 10
       -1.150146
 20
       37.600349
 30
        0.000000
 11
       -1.150146
 21
       41.400276
 31
        0.000000
  0
LINE
  8
LVL0000
 10
       -1.150146
 20
       41.600349
 30
        0.000000
 11
       -1.150146
 21
       45.400276
 31
        0.000000
  0
LINE
  8
LVL0000
 10
       -1.350098
 20
       37.600349
 30
        0.000000
 11
       -1.350098
 21
       41.400276
 31
        0.000000
  0
LINE
  8
LVL0000
 10
       -1.350098
 20
       41.600349
 30
        0.000000
 11
       -1.350098
 21
       45.400276
 31
        0.000000
  0
LINE
  8
LVL0000
 10
       -3.850098
 20
       37.600349
 30
        0.000000
 11
       -3.850098
 21
       41.400276
 31
        0.000000
  0
LINE
  8
LVL0000
 10
       -3.850098
 20
       41.600349
 30
        0.000000
 11
       -3.850098
 21
       45.400276
 31
        0.000000
  0
LINE
  8
LVL0000
 10
       -4.050049
 20
       37.600349
 30
        0.000000
 11
       -4.050049
 21
       41.400276
 31
        0.000000
  0
LINE
  8
LVL0000
 10
       -4.050049
 20
       41.600349
 30
        0.000000
 11
       -4.050049
 21
       45.400276
 31
        0.000000
  0
LINE
  8
LVL0000
 10
       -6.550049
 20
       37.600349
 30
        0.000000
 11
       -6.550049
 21
       41.400276
 31
        0.000000
  0
LINE
  8
LVL0000
 10
       -6.550049
 20
       41.600349
 30
        0.000000
 11
       -6.550049
 21
       45.400276
 31
        0.000000
  0
LINE
  8
LVL0000
 10
       -6.750244
 20
       37.600349
 30
        0.000000
 11
       -6.750244
 21
       41.400276
 31
        0.000000
  0
LINE
  8
LVL0000
 10
       -6.750244
 20
       41.600349
 30
        0.000000
 11
       -6.750244
 21
       45.400276
 31
        0.000000
  0
LINE
  8
LVL0000
 10
       -9.250244
 20
       37.600349
 30
        0.000000
 11
       -9.250244
 21
       41.400276
 31
        0.000000
  0
LINE
  8
LVL0000
 10
       -9.250244
 20
       41.600349
 30
        0.000000
 11
       -9.250244
 21
       45.400276
 31
        0.000000
  0
LINE
  8
LVL0000
 10
       -9.449951
 20
       37.600349
 30
        0.000000
 11
       -9.449951
 21
       41.400276
 31
        0.000000
  0
LINE
  8
LVL0000
 10
       -9.449951
 20
       41.600349
 30
        0.000000
 11
       -9.449951
 21
       45.400276
 31
        0.000000
  0
LINE
  8
LVL0000
 10
      -11.949951
 20
       37.600349
 30
        0.000000
 11
      -11.949951
 21
       41.400276
 31
        0.000000
  0
LINE
  8
LVL0000
 10
      -11.949951
 20
       41.600349
 30
        0.000000
 11
      -11.949951
 21
       45.400276
 31
        0.000000
  0
LINE
  8
LVL0000
 10
        6.749756
 20
       37.600349
 30
        0.000000
 11
        6.749756
 21
       41.400276
 31
        0.000000
  0
LINE
  8
LVL0000
 10
        6.749756
 20
       41.600349
 30
        0.000000
 11
        6.749756
 21
       45.400276
 31
        0.000000
  0
LINE
  8
LVL0000
 10
        6.949951
 20
       37.600349
 30
        0.000000
 11
        6.949951
 21
       41.400276
 31
        0.000000
  0
LINE
  8
LVL0000
 10
        6.949951
 20
       41.600349
 30
        0.000000
 11
        6.949951
 21
       45.400276
 31
        0.000000
  0
LINE
  8
LVL0000
 10
        9.449951
 20
       37.600349
 30
        0.000000
 11
        9.449951
 21
       41.400276
 31
        0.000000
  0
LINE
  8
LVL0000
 10
        9.449951
 20
       41.600349
 30
        0.000000
 11
        9.449951
 21
       45.400276
 31
        0.000000
  0
LINE
  8
LVL0000
 10
        9.449951
 20
       45.600349
 30
        0.000000
 11
        9.449951
 21
       49.400276
 31
        0.000000
  0
LINE
  8
LVL0000
 10
        9.449951
 20
       49.600349
 30
        0.000000
 11
        9.449951
 21
       53.100349
 31
        0.000000
  0
LINE
  8
LVL0000
 10
      -11.949951
 20
       41.600349
 30
        0.000000
 11
       -9.449951
 21
       41.600349
 31
        0.000000
  0
LINE
  8
LVL0000
 10
      -11.949951
 20
       41.400276
 30
        0.000000
 11
       -9.449951
 21
       41.400276
 31
        0.000000
  0
LINE
  8
LVL0000
 10
      -11.949951
 20
       37.600349
 30
        0.000000
 11
       -9.449951
 21
       37.600349
 31
        0.000000
  0
LINE
  8
LVL0000
 10
       -9.250244
 20
       41.400276
 30
        0.000000
 11
       -6.750244
 21
       41.400276
 31
        0.000000
  0
LINE
  8
LVL0000
 10
       -9.250244
 20
       41.600349
 30
        0.000000
 11
       -6.750244
 21
       41.600349
 31
        0.000000
  0
LINE
  8
LVL0000
 10
       -9.250244
 20
       37.600349
 30
        0.000000
 11
       -6.750244
 21
       37.600349
 31
        0.000000
  0
LINE
  8
LVL0000
 10
       -6.550049
 20
       41.600349
 30
        0.000000
 11
       -4.050049
 21
       41.600349
 31
        0.000000
  0
LINE
  8
LVL0000
 10
       -6.550049
 20
       41.400276
 30
        0.000000
 11
       -4.050049
 21
       41.400276
 31
        0.000000
  0
LINE
  8
LVL0000
 10
       -6.550049
 20
       37.600349
 30
        0.000000
 11
       -4.050049
 21
       37.600349
 31
        0.000000
  0
LINE
  8
LVL0000
 10
       -3.850098
 20
       41.600349
 30
        0.000000
 11
       -1.350098
 21
       41.600349
 31
        0.000000
  0
LINE
  8
LVL0000
 10
       -3.850098
 20
       41.400276
 30
        0.000000
 11
       -1.350098
 21
       41.400276
 31
        0.000000
  0
LINE
  8
LVL0000
 10
       -3.850098
 20
       45.400276
 30
        0.000000
 11
       -1.350098
 21
       45.400276
 31
        0.000000
  0
LINE
  8
LVL0000
 10
       -3.850098
 20
       45.600349
 30
        0.000000
 11
       -1.350098
 21
       45.600349
 31
        0.000000
  0
LINE
  8
LVL0000
 10
       -3.850098
 20
       49.400276
 30
        0.000000
 11
       -1.350098
 21
       49.400276
 31
        0.000000
  0
LINE
  8
LVL0000
 10
       -3.850098
 20
       49.600349
 30
        0.000000
 11
       -1.350098
 21
       49.600349
 31
        0.000000
  0
LINE
  8
LVL0000
 10
       -3.850098
 20
       37.600349
 30
        0.000000
 11
       -1.350098
 21
       37.600349
 31
        0.000000
  0
LINE
  8
LVL0000
 10
       -1.150146
 20
       49.600349
 30
        0.000000
 11
        1.349854
 21
       49.600349
 31
        0.000000
  0
LINE
  8
LVL0000
 10
       -1.150146
 20
       49.400276
 30
        0.000000
 11
        1.349854
 21
       49.400276
 31
        0.000000
  0
LINE
  8
LVL0000
 10
       -1.150146
 20
       45.600349
 30
        0.000000
 11
        1.349854
 21
       45.600349
 31
        0.000000
  0
LINE
  8
LVL0000
 10
       -1.150146
 20
       45.400276
 30
        0.000000
 11
        1.349854
 21
       45.400276
 31
        0.000000
  0
LINE
  8
LVL0000
 10
       -1.150146
 20
       41.600349
 30
        0.000000
 11
        1.349854
 21
       41.600349
 31
        0.000000
  0
LINE
  8
LVL0000
 10
       -1.150146
 20
       41.400276
 30
        0.000000
 11
        1.349854
 21
       41.400276
 31
        0.000000
  0
LINE
  8
LVL0000
 10
       -1.150146
 20
       37.600349
 30
        0.000000
 11
        1.349854
 21
       37.600349
 31
        0.000000
  0
LINE
  8
LVL0000
 10
        1.550049
 20
       49.600349
 30
        0.000000
 11
        4.050049
 21
       49.600349
 31
        0.000000
  0
LINE
  8
LVL0000
 10
        4.249756
 20
       49.600349
 30
        0.000000
 11
        6.749756
 21
       49.600349
 31
        0.000000
  0
LINE
  8
LVL0000
 10
        1.550049
 20
       49.400276
 30
        0.000000
 11
        4.050049
 21
       49.400276
 31
        0.000000
  0
LINE
  8
LVL0000
 10
        4.249756
 20
       49.400276
 30
        0.000000
 11
        6.749756
 21
       49.400276
 31
        0.000000
  0
LINE
  8
LVL0000
 10
        1.550049
 20
       45.600349
 30
        0.000000
 11
        4.050049
 21
       45.600349
 31
        0.000000
  0
LINE
  8
LVL0000
 10
        4.249756
 20
       45.600349
 30
        0.000000
 11
        6.749756
 21
       45.600349
 31
        0.000000
  0
LINE
  8
LVL0000
 10
        1.550049
 20
       45.400276
 30
        0.000000
 11
        4.050049
 21
       45.400276
 31
        0.000000
  0
LINE
  8
LVL0000
 10
        4.249756
 20
       45.400276
 30
        0.000000
 11
        6.749756
 21
       45.400276
 31
        0.000000
  0
LINE
  8
LVL0000
 10
        1.550049
 20
       41.600349
 30
        0.000000
 11
        4.050049
 21
       41.600349
 31
        0.000000
  0
LINE
  8
LVL0000
 10
        4.249756
 20
       41.600349
 30
        0.000000
 11
        6.749756
 21
       41.600349
 31
        0.000000
  0
LINE
  8
LVL0000
 10
        1.550049
 20
       41.400276
 30
        0.000000
 11
        4.050049
 21
       41.400276
 31
        0.000000
  0
LINE
  8
LVL0000
 10
        4.249756
 20
       41.400276
 30
        0.000000
 11
        6.749756
 21
       41.400276
 31
        0.000000
  0
LINE
  8
LVL0000
 10
        1.550049
 20
       37.600349
 30
        0.000000
 11
        4.050049
 21
       37.600349
 31
        0.000000
  0
LINE
  8
LVL0000
 10
        4.249756
 20
       37.600349
 30
        0.000000
 11
        6.749756
 21
       37.600349
 31
        0.000000
  0
LINE
  8
LVL0000
 10
      -17.500000
 20
       57.000008
 30
        0.000000
 11
      -17.500000
 21
       23.500008
 31
        0.000000
  0
ARC
  8
LVL0000
 10
      -17.000000
 20
      -64.499992
 30
        0.000000
 40
        0.500000
 50
      180.000010
 51
      270.000000
  0
LINE
  8
LVL0000
 10
      -17.500000
 20
      -64.499992
 30
        0.000000
 11
      -17.500000
 21
       64.500008
 31
        0.000000
  0
ARC
  8
LVL0000
 10
      -17.000000
 20
       64.500008
 30
        0.000000
 40
        0.500000
 50
       90.000000
 51
      180.000010
  0
LINE
  8
LVL0000
 10
       -8.150024
 20
       29.999763
 30
        0.000000
 11
       -6.150024
 21
       29.999763
 31
        0.000000
  0
LINE
  8
LVL0000
 10
       -6.150024
 20
       29.999763
 30
        0.000000
 11
       -6.150024
 21
       31.999763
 31
        0.000000
  0
LINE
  8
LVL0000
 10
       -8.150024
 20
       29.999763
 30
        0.000000
 11
       -8.150024
 21
       31.999763
 31
        0.000000
  0
LINE
  8
LVL0000
 10
       -8.150024
 20
       31.999763
 30
        0.000000
 11
       -6.150024
 21
       31.999763
 31
        0.000000
  0
LINE
  8
LVL0000
 10
       10.599976
 20
      -56.250023
 30
        0.000000
 11
       10.599976
 21
       17.749977
 31
        0.000000
  0
LINE
  8
LVL0000
 10
        8.999878
 20
      -56.250023
 30
        0.000000
 11
        8.999878
 21
       17.749977
 31
        0.000000
  0
LINE
  8
LVL0000
 10
        8.999878
 20
      -52.249199
 30
        0.000000
 11
        8.999878
 21
      -56.250023
 31
        0.000000
  0
LINE
  8
LVL0000
 10
       11.000000
 20
      -56.250023
 30
        0.000000
 11
       11.000000
 21
       17.749977
 31
        0.000000
  0
LINE
  8
LVL0000
 10
       -2.000122
 20
      -56.250023
 30
        0.000000
 11
       -2.000122
 21
       17.749977
 31
        0.000000
  0
LINE
  8
LVL0000
 10
       -2.000122
 20
      -52.249199
 30
        0.000000
 11
       -2.000122
 21
      -56.250023
 31
        0.000000
  0
LINE
  8
LVL0000
 10
       -3.599976
 20
      -56.250023
 30
        0.000000
 11
       -3.599976
 21
       17.749977
 31
        0.000000
  0
LINE
  8
LVL0000
 10
       -3.599976
 20
      -53.989983
 30
        0.000000
 11
       -3.599976
 21
      -56.250023
 31
        0.000000
  0
LINE
  8
LVL0000
 10
      -13.849976
 20
       17.749977
 30
        0.000000
 11
      -13.849976
 21
      -56.250023
 31
        0.000000
  0
LINE
  8
LVL0000
 10
       11.000000
 20
      -56.250023
 30
        0.000000
 11
      -13.849976
 21
      -56.250023
 31
        0.000000
  0
LINE
  8
LVL0000
 10
       11.000000
 20
       17.749977
 30
        0.000000
 11
      -13.849976
 21
       17.749977
 31
        0.000000
  0
ENDSEC
  0
EOF
