  0
SECTION
  2
HEADER
  9
$ACADVER
  1
AC1006
  9
$INSBASE
 10
0.0
 20
0.0
 30
0.0
  9
$EXTMIN
 10
      -65.000023
 20
      -65.000023
  9
$EXTMAX
 10
      176.100220
 20
      120.000008
  9
$LIMMIN
 10
      -65.000023
 20
      -65.000023
  9
$LIMMAX
 10
      176.100220
 20
      120.000008
  9
$VIEWCTR
 10
       55.550098
 20
       55.550098
  9
$ORTHOMODE
 70
     0
  9
$ANGBASE
 50
0.0
  9
$ANGDIR
 70
     0
  9
$SPLINETYPE
 70
     6
  9
$SPLINESEGS
 70
     8
9
$DIMASZ
 40
        3.600000
9
$DIMEXE
 40
        0.933333
9
$DIMEXO
 40
        1.333333
9
$DIMTXT
 40
        4.000000
9
$DIMGAP
 40
        0.933333
9
$DIMTAD
 70
1
9
$DIMTIH
 70
0
9
$DIMTOH
 70
0
  0
ENDSEC
  0
SECTION
  2
TABLES
  0
TABLE
  2
LTYPE
 70
     5
  0
LTYPE
  2
CONTINUOUS
 70
    64
  3
SOLID LINE
 72
    65
 73
     0
 40
0.0
  0
LTYPE
  2
DASHED
 70
    64
  3
-- -- -- -- -- --
 72
    65
 73
     2
 40
  0.75  
 49
  0.50  
 49
 -0.25  
  0
LTYPE
  2
DOT
 70
    64
  3
....................
 72
    65
 73
     2
 40
  0.25  
 49
  0.02  
 49
 -0.23  
  0
LTYPE
  2
CENTER
 70
    64
  3
-- . -- . -- . -- .
 72
    65
 73
    4
 40
  2.00  
 49
  1.25  
 49
 -0.25  
 49
  0.25  
 49
 -0.25  
  0
LTYPE
  2
PHANTOM
 70
    64
  3
-- .. -- .. -- ..
 72
    65
 73
    6
 40
  2.50  
 49
  1.25  
 49
 -0.25  
 49
  0.25  
 49
 -0.25  
 49
  0.25  
 49
 -0.25  
  0
ENDTAB
  0
TABLE
  2
LAYER
 70
     1
  0
LAYER
  2
0
 70
    64
 62
     2
  6
CONTINUOUS
  0
ENDTAB
  0
TABLE
  2
STYLE
 70
     2
  0
STYLE
  2
STANDARD
 70
    64
 40
0.0
 41
1.0
 50
0.0
 71
     0
 42
5.0
  3
ROMANS
  4
BIGFONT
  0
STYLE
  2
BIGFONT
 70
    64
 40
0.0
 41
1.0
 50
0.0
 71
     0
 42
5.0
  3
ROMANS
  4
BIGFONT
  0
ENDTAB
  0
TABLE
  2
VIEW
 70
     0
  0
ENDTAB
  0
TABLE
  2
UCS
 70
     0
  0
ENDTAB
  0
TABLE
  2
DWGMGR
 70
     0
  0
ENDTAB
  0
ENDSEC
  0
SECTION
  2
BLOCKS
  0
BLOCK
  8
0
  2
BLK0001
 70
    64
 10
        0.000000
 20
        0.000000
  0
TEXT
  8
0
 10
       -3.909056
 20
      -82.371956
 30
        0.000000
 40
        4.000000
  1
３５
 50
        0.000000
 41
        1.000000
 51
        0.000000
  7
BIGFONT
  0
LINE
  8
0
 10
      -17.500000
 20
      -65.833344
 30
        0.000000
 11
      -17.500000
 21
      -84.238625
 31
        0.000000
  0
LINE
  8
0
 10
       17.500000
 20
      -65.833344
 30
        0.000000
 11
       17.500000
 21
      -84.238625
 31
        0.000000
  0
LINE
  8
0
 10
      -13.900000
 20
      -82.739807
 30
        0.000000
 11
      -17.500000
 21
      -83.305290
 31
        0.000000
  0
LINE
  8
0
 10
      -17.500000
 20
      -83.305290
 30
        0.000000
 11
      -13.900000
 21
      -83.870773
 31
        0.000000
  0
LINE
  8
0
 10
       13.900000
 20
      -83.870773
 30
        0.000000
 11
       17.500000
 21
      -83.305290
 31
        0.000000
  0
LINE
  8
0
 10
       17.500000
 20
      -83.305290
 30
        0.000000
 11
       13.900000
 21
      -82.739807
 31
        0.000000
  0
LINE
  8
0
 10
      -17.500000
 20
      -83.305290
 30
        0.000000
 11
       17.500000
 21
      -83.305290
 31
        0.000000
  0
ENDBLK
  0
BLOCK
  8
0
  2
BLK0002
 70
    64
 10
        0.000000
 20
        0.000000
  0
TEXT
  8
0
 10
       33.175964
 20
       -5.912260
 30
        0.000000
 40
        4.000000
  1
１３０
 50
       90.000000
 41
        1.000000
 51
        0.000000
  7
BIGFONT
  0
LINE
  8
0
 10
       18.333334
 20
       65.000008
 30
        0.000000
 11
       35.042629
 21
       65.000008
 31
        0.000000
  0
LINE
  8
0
 10
       18.333334
 20
      -64.999992
 30
        0.000000
 11
       35.042629
 21
      -64.999992
 31
        0.000000
  0
LINE
  8
0
 10
       34.894695
 20
       62.000008
 30
        0.000000
 11
       34.109295
 21
       65.000008
 31
        0.000000
  0
LINE
  8
0
 10
       34.109295
 20
       65.000008
 30
        0.000000
 11
       33.323895
 21
       62.000008
 31
        0.000000
  0
LINE
  8
0
 10
       33.323895
 20
      -61.999992
 30
        0.000000
 11
       34.109295
 21
      -64.999992
 31
        0.000000
  0
LINE
  8
0
 10
       34.109295
 20
      -64.999992
 30
        0.000000
 11
       34.894691
 21
      -61.999992
 31
        0.000000
  0
LINE
  8
0
 10
       34.109295
 20
       65.000008
 30
        0.000000
 11
       34.109295
 21
      -64.999992
 31
        0.000000
  0
ENDBLK
  0
BLOCK
  8
0
  2
BLK0003
 70
    64
 10
        0.000000
 20
        0.000000
  0
TEXT
  8
0
 10
      108.884544
 20
      -78.477081
 30
        0.000000
 40
        4.000000
  1
１０２．４
 50
        0.000000
 41
        1.000000
 51
        0.000000
  7
BIGFONT
  0
LINE
  8
0
 10
       66.699585
 20
      -65.333328
 30
        0.000000
 11
       66.699585
 21
      -80.343750
 31
        0.000000
  0
LINE
  8
0
 10
      169.099731
 20
       54.166676
 30
        0.000000
 11
      169.099731
 21
      -80.343742
 31
        0.000000
  0
LINE
  8
0
 10
       70.199585
 20
      -78.494118
 30
        0.000000
 11
       66.699585
 21
      -79.410416
 31
        0.000000
  0
LINE
  8
0
 10
       66.699585
 20
      -79.410416
 30
        0.000000
 11
       70.199585
 21
      -80.326714
 31
        0.000000
  0
LINE
  8
0
 10
      165.599731
 20
      -80.326706
 30
        0.000000
 11
      169.099731
 21
      -79.410408
 31
        0.000000
  0
LINE
  8
0
 10
      169.099731
 20
      -79.410408
 30
        0.000000
 11
      165.599731
 21
      -78.494110
 31
        0.000000
  0
LINE
  8
0
 10
       66.699585
 20
      -79.410416
 30
        0.000000
 11
      169.099731
 21
      -79.410408
 31
        0.000000
  0
ENDBLK
  0
ENDSEC
  0
SECTION
  2
ENTITIES
  0
DIMENSION
  8
0
 62
  5
  2
BLK0001
 10
      -17.500000
 20
      -83.305290
 11
       -3.909056
 21
      -82.371956
 13
      -17.500000
 23
      -64.500008
 14
       17.500000
 24
      -64.500008
 50
        0.0
 70
  0
  0
DIMENSION
  8
0
 62
  5
  2
BLK0002
 10
       34.109295
 20
       65.000008
 11
       33.175964
 21
       -5.912260
 13
       17.000000
 23
       65.000008
 14
       17.000000
 24
      -64.999992
 50
       90.0
 70
  0
  0
LINE
  8
0
  6
CENTER
 62
  3
 10
      -26.775342
 20
        0.000000
 30
        0.000000
 11
       25.692608
 21
        0.000000
 31
        0.000000
  0
LINE
  8
0
  6
CENTER
 62
  3
 10
        0.000000
 20
      -75.090590
 30
        0.000000
 11
        0.000000
 21
       72.289983
 31
        0.000000
  0
LINE
  8
0
 62
  3
 10
       17.500000
 20
       57.000008
 30
        0.000000
 11
      -17.500000
 21
       57.000008
 31
        0.000000
  0
LINE
  8
0
 62
  3
 10
       17.500000
 20
       39.000008
 30
        0.000000
 11
      -17.500000
 21
       39.000008
 31
        0.000000
  0
LINE
  8
0
 62
  3
 10
       17.500000
 20
       40.500008
 30
        0.000000
 11
      -17.500000
 21
       40.500008
 31
        0.000000
  0
LINE
  8
0
 62
  3
 10
        9.899902
 20
       38.000008
 30
        0.000000
 11
        9.899902
 21
       39.000008
 31
        0.000000
  0
LINE
  8
0
 62
  3
 10
       16.449951
 20
       38.000008
 30
        0.000000
 11
       16.449951
 21
       39.000008
 31
        0.000000
  0
LINE
  8
0
 62
  3
 10
      -14.100098
 20
       38.000008
 30
        0.000000
 11
      -14.100098
 21
       39.000008
 31
        0.000000
  0
LINE
  8
0
 62
  3
 10
       -9.900024
 20
       38.000008
 30
        0.000000
 11
       -9.900024
 21
       39.000008
 31
        0.000000
  0
LINE
  8
0
 62
  3
 10
      -16.449951
 20
       38.000008
 30
        0.000000
 11
      -16.449951
 21
       39.000008
 31
        0.000000
  0
LINE
  8
0
 62
  3
 10
       14.099976
 20
       38.000008
 30
        0.000000
 11
       14.099976
 21
       39.000008
 31
        0.000000
  0
ARC
  8
0
 62
  3
 10
       17.000000
 20
      -64.499992
 30
        0.000000
 40
        0.500000
 50
      270.000000
 51
      360.000000
  0
LINE
  8
0
 62
  3
 10
      -17.000000
 20
      -64.999992
 30
        0.000000
 11
       17.000000
 21
      -64.999992
 31
        0.000000
  0
ARC
  8
0
 62
  3
 10
      -17.000000
 20
      -64.499992
 30
        0.000000
 40
        0.500000
 50
      180.000010
 51
      270.000000
  0
LINE
  8
0
 62
  3
 10
      -17.500000
 20
      -64.499992
 30
        0.000000
 11
      -17.500000
 21
       64.500008
 31
        0.000000
  0
ARC
  8
0
 62
  3
 10
      -17.000000
 20
       64.500008
 30
        0.000000
 40
        0.500000
 50
       90.000000
 51
      180.000010
  0
LINE
  8
0
 62
  3
 10
      -17.000000
 20
       65.000008
 30
        0.000000
 11
       17.000000
 21
       65.000008
 31
        0.000000
  0
LINE
  8
0
 62
  3
 10
       17.500000
 20
      -64.499992
 30
        0.000000
 11
       17.500000
 21
       64.500008
 31
        0.000000
  0
ARC
  8
0
 62
  3
 10
       17.000000
 20
       64.500008
 30
        0.000000
 40
        0.500000
 50
        0.000000
 51
       90.000000
  0
LINE
  8
0
 62
  3
 10
      -16.100098
 20
       63.500008
 30
        0.000000
 11
       16.099976
 21
       63.500008
 31
        0.000000
  0
LINE
  8
0
 62
  3
 10
      -16.100098
 20
       58.000008
 30
        0.000000
 11
       16.099976
 21
       58.000008
 31
        0.000000
  0
LINE
  8
0
 62
  3
 10
       16.099976
 20
       58.000008
 30
        0.000000
 11
       16.099976
 21
       63.500008
 31
        0.000000
  0
LINE
  8
0
 62
  3
 10
      -16.100098
 20
       58.000008
 30
        0.000000
 11
      -16.100098
 21
       63.500008
 31
        0.000000
  0
LINE
  8
0
 62
  3
 10
       -9.900024
 20
       38.700020
 30
        0.000000
 11
        9.899902
 21
       38.700020
 31
        0.000000
  0
LINE
  8
0
 62
  3
 10
      -17.500000
 20
       38.000008
 30
        0.000000
 11
       -9.900024
 21
       38.000008
 31
        0.000000
  0
LINE
  8
0
 62
  3
 10
        9.899902
 20
       38.000008
 30
        0.000000
 11
       17.500000
 21
       38.000008
 31
        0.000000
  0
CIRCLE
  8
0
 62
  3
 10
       -5.100098
 20
       33.000008
 30
        0.000000
 40
        4.500000
  0
CIRCLE
  8
0
 62
  3
 10
       -5.100098
 20
       32.999947
 30
        0.000000
 40
        2.000000
  0
LINE
  8
0
 62
  3
 10
       -4.600098
 20
       33.499458
 30
        0.000000
 11
       -6.600098
 21
       33.499458
 31
        0.000000
  0
LINE
  8
0
 62
  3
 10
       -4.600098
 20
       32.499458
 30
        0.000000
 11
       -6.600098
 21
       32.499458
 31
        0.000000
  0
LINE
  8
0
 62
  3
 10
       -6.600098
 20
       33.499458
 30
        0.000000
 11
       -6.600098
 21
       32.499458
 31
        0.000000
  0
LINE
  8
0
 62
  3
 10
       -4.600098
 20
       33.999458
 30
        0.000000
 11
       -4.600098
 21
       33.499458
 31
        0.000000
  0
LINE
  8
0
 62
  3
 10
       -3.600098
 20
       32.999458
 30
        0.000000
 11
       -4.600098
 21
       33.999458
 31
        0.000000
  0
LINE
  8
0
 62
  3
 10
       -3.600098
 20
       32.999458
 30
        0.000000
 11
       -4.600098
 21
       31.999458
 31
        0.000000
  0
LINE
  8
0
 62
  3
 10
       -4.600098
 20
       32.499458
 30
        0.000000
 11
       -4.600098
 21
       31.999458
 31
        0.000000
  0
LINE
  8
0
 62
  3
 10
       62.699587
 20
      -47.169975
 30
        0.000000
 11
       62.699579
 21
      -30.830009
 31
        0.000000
  0
LINE
  8
0
 62
  3
 10
       62.699587
 20
      -47.169975
 30
        0.000000
 11
       66.699585
 21
      -47.169974
 31
        0.000000
  0
LINE
  8
0
 62
  3
 10
       62.699579
 20
      -30.830009
 30
        0.000000
 11
       66.699585
 21
      -30.830008
 31
        0.000000
  0
LINE
  8
0
 62
  3
 10
       62.699577
 20
      -29.376848
 30
        0.000000
 11
       62.699575
 21
      -23.603288
 31
        0.000000
  0
LINE
  8
0
 62
  3
 10
       62.699575
 20
      -23.603288
 30
        0.000000
 11
       66.699585
 21
      -23.603288
 31
        0.000000
  0
LINE
  8
0
 62
  3
 10
       62.699577
 20
      -29.376848
 30
        0.000000
 11
       66.699585
 21
      -29.376848
 31
        0.000000
  0
LINE
  8
0
 62
  3
 10
       62.699577
 20
      -27.933366
 30
        0.000000
 11
       66.699585
 21
      -27.933366
 31
        0.000000
  0
LINE
  8
0
 62
  3
 10
       62.699576
 20
      -25.046648
 30
        0.000000
 11
       66.699585
 21
      -25.046648
 31
        0.000000
  0
LINE
  8
0
 62
  3
 10
       62.699576
 20
      -50.066618
 30
        0.000000
 11
       66.699585
 21
      -50.066618
 31
        0.000000
  0
LINE
  8
0
 62
  3
 10
       62.699577
 20
      -54.396819
 30
        0.000000
 11
       66.699585
 21
      -54.396819
 31
        0.000000
  0
LINE
  8
0
 62
  3
 10
       62.699577
 20
      -52.953337
 30
        0.000000
 11
       66.699585
 21
      -52.953337
 31
        0.000000
  0
LINE
  8
0
 62
  3
 10
       62.699575
 20
      -48.623259
 30
        0.000000
 11
       66.699585
 21
      -48.623259
 31
        0.000000
  0
LINE
  8
0
 62
  3
 10
       62.699577
 20
      -54.396819
 30
        0.000000
 11
       62.699575
 21
      -48.623259
 31
        0.000000
  0
LINE
  8
0
 62
  3
 10
       62.699577
 20
      -13.396819
 30
        0.000000
 11
       62.699575
 21
       -7.623259
 31
        0.000000
  0
LINE
  8
0
 62
  3
 10
       62.699575
 20
       -7.623259
 30
        0.000000
 11
       66.699585
 21
       -7.623259
 31
        0.000000
  0
LINE
  8
0
 62
  3
 10
       62.699577
 20
      -13.396819
 30
        0.000000
 11
       66.699585
 21
      -13.396819
 31
        0.000000
  0
LINE
  8
0
 62
  3
 10
       62.699577
 20
      -11.953337
 30
        0.000000
 11
       66.699585
 21
      -11.953337
 31
        0.000000
  0
LINE
  8
0
 62
  3
 10
       62.699576
 20
       -9.066618
 30
        0.000000
 11
       66.699585
 21
       -9.066618
 31
        0.000000
  0
LINE
  8
0
 62
  3
 10
       62.699576
 20
       15.953352
 30
        0.000000
 11
       66.699585
 21
       15.953352
 31
        0.000000
  0
LINE
  8
0
 62
  3
 10
       62.699577
 20
       13.066634
 30
        0.000000
 11
       66.699585
 21
       13.066634
 31
        0.000000
  0
LINE
  8
0
 62
  3
 10
       62.699577
 20
       11.623152
 30
        0.000000
 11
       66.699585
 21
       11.623152
 31
        0.000000
  0
LINE
  8
0
 62
  3
 10
       62.699575
 20
       17.396712
 30
        0.000000
 11
       66.699585
 21
       17.396712
 31
        0.000000
  0
LINE
  8
0
 62
  3
 10
       62.699577
 20
       11.623152
 30
        0.000000
 11
       62.699575
 21
       17.396712
 31
        0.000000
  0
LINE
  8
0
 62
  3
 10
       62.699579
 20
       10.169991
 30
        0.000000
 11
       66.699585
 21
       10.169992
 31
        0.000000
  0
LINE
  8
0
 62
  3
 10
       62.699587
 20
       -6.169975
 30
        0.000000
 11
       66.699585
 21
       -6.169974
 31
        0.000000
  0
LINE
  8
0
 62
  3
 10
       62.699587
 20
       -6.169975
 30
        0.000000
 11
       62.699579
 21
       10.169991
 31
        0.000000
  0
LINE
  8
0
 62
  3
 10
       68.699585
 20
       37.999641
 30
        0.000000
 11
       68.699585
 21
       39.000008
 31
        0.000000
  0
LINE
  8
0
 62
  3
 10
      169.099792
 20
       84.999991
 30
        0.000000
 11
       67.199768
 21
       85.000006
 31
        0.000000
  0
ARC
  8
0
 62
  3
 10
       67.199768
 20
       85.499991
 30
        0.000000
 40
        0.500000
 50
      179.999995
 51
      270.000000
  0
LINE
  8
0
 62
  3
 10
      170.600220
 20
      114.400000
 30
        0.000000
 11
      170.600220
 21
       93.499502
 31
        0.000000
  0
LINE
  8
0
 62
  3
 10
      170.600220
 20
      114.400000
 30
        0.000000
 11
      169.099792
 21
      114.400000
 31
        0.000000
  0
LINE
  8
0
 62
  3
 10
      169.100220
 20
       89.499502
 30
        0.000000
 11
      174.100220
 21
       89.499502
 31
        0.000000
  0
LINE
  8
0
 62
  3
 10
      169.100220
 20
       93.499502
 30
        0.000000
 11
      174.100220
 21
       93.499502
 31
        0.000000
  0
ARC
  8
0
 62
  3
 10
      174.100220
 20
       91.499502
 30
        0.000000
 40
        2.000000
 50
      270.000000
 51
      450.000000
  0
LINE
  8
0
 62
  3
 10
      149.699768
 20
       98.900015
 30
        0.000000
 11
      147.699768
 21
       98.900015
 31
        0.000000
  0
LINE
  8
0
 62
  3
 10
      149.699768
 20
      106.099966
 30
        0.000000
 11
      147.699768
 21
      106.099966
 31
        0.000000
  0
LINE
  8
0
 62
  3
 10
      153.699768
 20
       98.900015
 30
        0.000000
 11
      151.699768
 21
       98.900015
 31
        0.000000
  0
LINE
  8
0
 62
  3
 10
      153.699768
 20
      106.099966
 30
        0.000000
 11
      151.699768
 21
      106.099966
 31
        0.000000
  0
LINE
  8
0
 62
  3
 10
      157.699768
 20
       98.900015
 30
        0.000000
 11
      155.699768
 21
       98.900015
 31
        0.000000
  0
LINE
  8
0
 62
  3
 10
      157.699768
 20
      106.099966
 30
        0.000000
 11
      155.699768
 21
      106.099966
 31
        0.000000
  0
LINE
  8
0
 62
  3
 10
      157.699768
 20
       84.999991
 30
        0.000000
 11
      157.699768
 21
       99.231131
 31
        0.000000
  0
LINE
  8
0
 62
  3
 10
      157.699768
 20
      105.768850
 30
        0.000000
 11
      157.699768
 21
      119.999991
 31
        0.000000
  0
LINE
  8
0
 62
  3
 10
      159.699768
 20
       87.999991
 30
        0.000000
 11
      157.699768
 21
       87.999991
 31
        0.000000
  0
LINE
  8
0
 62
  3
 10
      159.699768
 20
      116.999991
 30
        0.000000
 11
      157.699768
 21
      116.999991
 31
        0.000000
  0
LINE
  8
0
 62
  3
 10
      155.699768
 20
       87.999991
 30
        0.000000
 11
      153.699768
 21
       87.999991
 31
        0.000000
  0
LINE
  8
0
 62
  3
 10
      155.699768
 20
      116.999991
 30
        0.000000
 11
      153.699768
 21
      116.999991
 31
        0.000000
  0
LINE
  8
0
 62
  3
 10
      155.699768
 20
       84.999991
 30
        0.000000
 11
      155.699768
 21
      119.999991
 31
        0.000000
  0
LINE
  8
0
 62
  3
 10
      153.699768
 20
       84.999991
 30
        0.000000
 11
      153.699768
 21
      119.999991
 31
        0.000000
  0
LINE
  8
0
 62
  3
 10
      151.699768
 20
       87.999991
 30
        0.000000
 11
      149.699768
 21
       87.999991
 31
        0.000000
  0
LINE
  8
0
 62
  3
 10
      151.699768
 20
      116.999991
 30
        0.000000
 11
      149.699768
 21
      116.999991
 31
        0.000000
  0
LINE
  8
0
 62
  3
 10
      151.699768
 20
       84.999991
 30
        0.000000
 11
      151.699768
 21
      119.999991
 31
        0.000000
  0
LINE
  8
0
 62
  3
 10
      149.699768
 20
       84.999991
 30
        0.000000
 11
      149.699768
 21
      119.999991
 31
        0.000000
  0
LINE
  8
0
 62
  3
 10
      147.699768
 20
       87.999991
 30
        0.000000
 11
      145.699768
 21
       87.999991
 31
        0.000000
  0
LINE
  8
0
 62
  3
 10
      147.699768
 20
      116.999991
 30
        0.000000
 11
      145.699768
 21
      116.999991
 31
        0.000000
  0
LINE
  8
0
 62
  3
 10
      147.699768
 20
       84.999991
 30
        0.000000
 11
      147.699768
 21
      119.999991
 31
        0.000000
  0
LINE
  8
0
 62
  3
 10
      145.699768
 20
       84.999991
 30
        0.000000
 11
      145.699768
 21
      119.999991
 31
        0.000000
  0
LINE
  8
0
 62
  3
 10
      156.999756
 20
      104.499991
 30
        0.000000
 11
      156.999756
 21
      100.499991
 31
        0.000000
  0
LINE
  8
0
 62
  3
 10
      159.699768
 20
       98.999991
 30
        0.000000
 11
      158.499756
 21
       98.999991
 31
        0.000000
  0
ARC
  8
0
 62
  3
 10
      158.499756
 20
      100.499991
 30
        0.000000
 40
        1.500000
 50
      180.000010
 51
      270.000000
  0
ARC
  8
0
 62
  3
 10
      158.499756
 20
      104.499991
 30
        0.000000
 40
        1.500000
 50
       90.000000
 51
      180.000010
  0
LINE
  8
0
 62
  3
 10
      159.699768
 20
      105.999991
 30
        0.000000
 11
      158.499756
 21
      105.999991
 31
        0.000000
  0
LINE
  8
0
 62
  3
 10
      159.699768
 20
      119.999991
 30
        0.000000
 11
      159.699768
 21
       84.999991
 31
        0.000000
  0
LINE
  8
0
 62
  3
 10
      169.099792
 20
      119.999991
 30
        0.000000
 11
      169.099792
 21
       84.999991
 31
        0.000000
  0
LINE
  8
0
 62
  3
 10
      169.099792
 20
      119.999991
 30
        0.000000
 11
       67.199768
 21
      120.000006
 31
        0.000000
  0
ARC
  8
0
 62
  3
 10
       67.199768
 20
      119.499991
 30
        0.000000
 40
        0.500015
 50
       90.000000
 51
      179.999995
  0
LINE
  8
0
 62
  3
 10
       98.699768
 20
       84.999991
 30
        0.000000
 11
       98.699768
 21
      119.999991
 31
        0.000000
  0
LINE
  8
0
 62
  3
 10
      105.699768
 20
       84.999991
 30
        0.000000
 11
      105.699768
 21
      119.999991
 31
        0.000000
  0
LINE
  8
0
 62
  3
 10
      107.699768
 20
       84.999991
 30
        0.000000
 11
      107.699768
 21
      119.999991
 31
        0.000000
  0
LINE
  8
0
 62
  3
 10
      107.699768
 20
      116.999991
 30
        0.000000
 11
      105.699768
 21
      116.999991
 31
        0.000000
  0
LINE
  8
0
 62
  3
 10
      107.699768
 20
       87.999991
 30
        0.000000
 11
      105.699768
 21
       87.999991
 31
        0.000000
  0
LINE
  8
0
 62
  3
 10
      109.699768
 20
       84.999991
 30
        0.000000
 11
      109.699768
 21
      119.999991
 31
        0.000000
  0
LINE
  8
0
 62
  3
 10
      111.699768
 20
       84.999991
 30
        0.000000
 11
      111.699768
 21
      119.999991
 31
        0.000000
  0
LINE
  8
0
 62
  3
 10
      111.699768
 20
      116.999991
 30
        0.000000
 11
      109.699768
 21
      116.999991
 31
        0.000000
  0
LINE
  8
0
 62
  3
 10
      111.699768
 20
       87.999991
 30
        0.000000
 11
      109.699768
 21
       87.999991
 31
        0.000000
  0
LINE
  8
0
 62
  3
 10
      113.699768
 20
       84.999991
 30
        0.000000
 11
      113.699768
 21
      119.999991
 31
        0.000000
  0
LINE
  8
0
 62
  3
 10
      115.699768
 20
       84.999991
 30
        0.000000
 11
      115.699768
 21
      119.999991
 31
        0.000000
  0
LINE
  8
0
 62
  3
 10
      115.699768
 20
      116.999991
 30
        0.000000
 11
      113.699768
 21
      116.999991
 31
        0.000000
  0
LINE
  8
0
 62
  3
 10
      115.699768
 20
       87.999991
 30
        0.000000
 11
      113.699768
 21
       87.999991
 31
        0.000000
  0
LINE
  8
0
 62
  3
 10
      117.699768
 20
       84.999991
 30
        0.000000
 11
      117.699768
 21
      119.999991
 31
        0.000000
  0
LINE
  8
0
 62
  3
 10
      119.699768
 20
       84.999991
 30
        0.000000
 11
      119.699768
 21
      119.999991
 31
        0.000000
  0
LINE
  8
0
 62
  3
 10
      119.699768
 20
      116.999991
 30
        0.000000
 11
      117.699768
 21
      116.999991
 31
        0.000000
  0
LINE
  8
0
 62
  3
 10
      119.699768
 20
       87.999991
 30
        0.000000
 11
      117.699768
 21
       87.999991
 31
        0.000000
  0
LINE
  8
0
 62
  3
 10
      121.699768
 20
       84.999991
 30
        0.000000
 11
      121.699768
 21
      119.999991
 31
        0.000000
  0
LINE
  8
0
 62
  3
 10
      123.699768
 20
       84.999991
 30
        0.000000
 11
      123.699768
 21
      119.999991
 31
        0.000000
  0
LINE
  8
0
 62
  3
 10
      123.699768
 20
      116.999991
 30
        0.000000
 11
      121.699768
 21
      116.999991
 31
        0.000000
  0
LINE
  8
0
 62
  3
 10
      123.699768
 20
       87.999991
 30
        0.000000
 11
      121.699768
 21
       87.999991
 31
        0.000000
  0
LINE
  8
0
 62
  3
 10
      125.699768
 20
       84.999991
 30
        0.000000
 11
      125.699768
 21
      119.999991
 31
        0.000000
  0
LINE
  8
0
 62
  3
 10
      127.699768
 20
       84.999991
 30
        0.000000
 11
      127.699768
 21
      119.999991
 31
        0.000000
  0
LINE
  8
0
 62
  3
 10
      127.699768
 20
      116.999991
 30
        0.000000
 11
      125.699768
 21
      116.999991
 31
        0.000000
  0
LINE
  8
0
 62
  3
 10
      127.699768
 20
       87.999991
 30
        0.000000
 11
      125.699768
 21
       87.999991
 31
        0.000000
  0
LINE
  8
0
 62
  3
 10
      129.699768
 20
       84.999991
 30
        0.000000
 11
      129.699768
 21
      119.999991
 31
        0.000000
  0
LINE
  8
0
 62
  3
 10
      131.699768
 20
       84.999991
 30
        0.000000
 11
      131.699768
 21
      119.999991
 31
        0.000000
  0
LINE
  8
0
 62
  3
 10
      131.699768
 20
      116.999991
 30
        0.000000
 11
      129.699768
 21
      116.999991
 31
        0.000000
  0
LINE
  8
0
 62
  3
 10
      131.699768
 20
       87.999991
 30
        0.000000
 11
      129.699768
 21
       87.999991
 31
        0.000000
  0
LINE
  8
0
 62
  3
 10
      133.699768
 20
       84.999991
 30
        0.000000
 11
      133.699768
 21
      119.999991
 31
        0.000000
  0
LINE
  8
0
 62
  3
 10
      135.699768
 20
       84.999991
 30
        0.000000
 11
      135.699768
 21
      119.999991
 31
        0.000000
  0
LINE
  8
0
 62
  3
 10
      135.699768
 20
      116.999991
 30
        0.000000
 11
      133.699768
 21
      116.999991
 31
        0.000000
  0
LINE
  8
0
 62
  3
 10
      135.699768
 20
       87.999991
 30
        0.000000
 11
      133.699768
 21
       87.999991
 31
        0.000000
  0
LINE
  8
0
 62
  3
 10
      137.699768
 20
       84.999991
 30
        0.000000
 11
      137.699768
 21
      119.999991
 31
        0.000000
  0
LINE
  8
0
 62
  3
 10
      139.699768
 20
       84.999991
 30
        0.000000
 11
      139.699768
 21
      119.999991
 31
        0.000000
  0
LINE
  8
0
 62
  3
 10
      139.699768
 20
      116.999991
 30
        0.000000
 11
      137.699768
 21
      116.999991
 31
        0.000000
  0
LINE
  8
0
 62
  3
 10
      139.699768
 20
       87.999991
 30
        0.000000
 11
      137.699768
 21
       87.999991
 31
        0.000000
  0
LINE
  8
0
 62
  3
 10
      141.699768
 20
       84.999991
 30
        0.000000
 11
      141.699768
 21
      119.999991
 31
        0.000000
  0
LINE
  8
0
 62
  3
 10
      143.699768
 20
       84.999991
 30
        0.000000
 11
      143.699768
 21
      119.999991
 31
        0.000000
  0
LINE
  8
0
 62
  3
 10
      143.699768
 20
      116.999991
 30
        0.000000
 11
      141.699768
 21
      116.999991
 31
        0.000000
  0
LINE
  8
0
 62
  3
 10
      143.699768
 20
       87.999991
 30
        0.000000
 11
      141.699768
 21
       87.999991
 31
        0.000000
  0
LINE
  8
0
 62
  3
 10
      145.699768
 20
      106.099966
 30
        0.000000
 11
      143.699768
 21
      106.099966
 31
        0.000000
  0
LINE
  8
0
 62
  3
 10
      145.699768
 20
       98.900015
 30
        0.000000
 11
      143.699768
 21
       98.900015
 31
        0.000000
  0
LINE
  8
0
 62
  3
 10
      141.699768
 20
      106.099966
 30
        0.000000
 11
      139.699768
 21
      106.099966
 31
        0.000000
  0
LINE
  8
0
 62
  3
 10
      141.699768
 20
       98.900015
 30
        0.000000
 11
      139.699768
 21
       98.900015
 31
        0.000000
  0
LINE
  8
0
 62
  3
 10
      137.699768
 20
      106.099966
 30
        0.000000
 11
      135.699768
 21
      106.099966
 31
        0.000000
  0
LINE
  8
0
 62
  3
 10
      137.699768
 20
       98.900015
 30
        0.000000
 11
      135.699768
 21
       98.900015
 31
        0.000000
  0
LINE
  8
0
 62
  3
 10
      133.699768
 20
      106.099966
 30
        0.000000
 11
      131.699768
 21
      106.099966
 31
        0.000000
  0
LINE
  8
0
 62
  3
 10
      133.699768
 20
       98.900015
 30
        0.000000
 11
      131.699768
 21
       98.900015
 31
        0.000000
  0
LINE
  8
0
 62
  3
 10
      129.699768
 20
      106.099966
 30
        0.000000
 11
      127.699768
 21
      106.099966
 31
        0.000000
  0
LINE
  8
0
 62
  3
 10
      129.699768
 20
       98.900015
 30
        0.000000
 11
      127.699768
 21
       98.900015
 31
        0.000000
  0
LINE
  8
0
 62
  3
 10
      125.699768
 20
      106.099966
 30
        0.000000
 11
      123.699768
 21
      106.099966
 31
        0.000000
  0
LINE
  8
0
 62
  3
 10
      125.699768
 20
       98.900015
 30
        0.000000
 11
      123.699768
 21
       98.900015
 31
        0.000000
  0
LINE
  8
0
 62
  3
 10
      121.699768
 20
      106.099966
 30
        0.000000
 11
      119.699768
 21
      106.099966
 31
        0.000000
  0
LINE
  8
0
 62
  3
 10
      121.699768
 20
       98.900015
 30
        0.000000
 11
      119.699768
 21
       98.900015
 31
        0.000000
  0
ARC
  8
0
 62
  3
 10
      105.699768
 20
      102.499991
 30
        0.000000
 40
        1.499973
 50
      109.471585
 51
      250.528418
  0
LINE
  8
0
 62
  3
 10
      105.699768
 20
      104.099966
 30
        0.000000
 11
      105.199768
 21
      103.914175
 31
        0.000000
  0
LINE
  8
0
 62
  3
 10
      105.199768
 20
      101.085806
 30
        0.000000
 11
      105.699768
 21
      100.900015
 31
        0.000000
  0
LINE
  8
0
 62
  3
 10
      113.699768
 20
       99.299978
 30
        0.000000
 11
      111.699768
 21
       99.599966
 31
        0.000000
  0
LINE
  8
0
 62
  3
 10
      111.699768
 20
      105.400015
 30
        0.000000
 11
      113.699768
 21
      105.700003
 31
        0.000000
  0
LINE
  8
0
 62
  3
 10
      115.699768
 20
      105.900015
 30
        0.000000
 11
      117.699768
 21
      105.999991
 31
        0.000000
  0
LINE
  8
0
 62
  3
 10
      117.699768
 20
       98.999991
 30
        0.000000
 11
      115.699768
 21
       99.099966
 31
        0.000000
  0
LINE
  8
0
 62
  3
 10
      107.699768
 20
      104.549978
 30
        0.000000
 11
      109.699768
 21
      104.999991
 31
        0.000000
  0
LINE
  8
0
 62
  3
 10
      107.699768
 20
      100.450003
 30
        0.000000
 11
      109.699768
 21
       99.999991
 31
        0.000000
  0
LINE
  8
0
 62
  3
 10
       94.699768
 20
      118.000006
 30
        0.000000
 11
       92.699768
 21
      118.000006
 31
        0.000000
  0
LINE
  8
0
 62
  3
 10
       94.699768
 20
       86.600012
 30
        0.000000
 11
       92.699768
 21
       86.600012
 31
        0.000000
  0
LINE
  8
0
 62
  3
 10
       92.699768
 20
       85.000006
 30
        0.000000
 11
       92.699768
 21
      120.000006
 31
        0.000000
  0
LINE
  8
0
 62
  3
 10
       94.699768
 20
       85.000006
 30
        0.000000
 11
       94.699768
 21
      120.000006
 31
        0.000000
  0
LINE
  8
0
 62
  3
 10
       90.699768
 20
      118.000006
 30
        0.000000
 11
       88.699768
 21
      118.000006
 31
        0.000000
  0
LINE
  8
0
 62
  3
 10
       90.699768
 20
       86.600012
 30
        0.000000
 11
       88.699768
 21
       86.600012
 31
        0.000000
  0
LINE
  8
0
 62
  3
 10
       88.699768
 20
       85.000006
 30
        0.000000
 11
       88.699768
 21
      120.000006
 31
        0.000000
  0
LINE
  8
0
 62
  3
 10
       90.699768
 20
       85.000006
 30
        0.000000
 11
       90.699768
 21
      120.000006
 31
        0.000000
  0
LINE
  8
0
 62
  3
 10
       86.699768
 20
      118.000006
 30
        0.000000
 11
       84.699768
 21
      118.000006
 31
        0.000000
  0
LINE
  8
0
 62
  3
 10
       86.699768
 20
       86.600012
 30
        0.000000
 11
       84.699768
 21
       86.600012
 31
        0.000000
  0
LINE
  8
0
 62
  3
 10
       84.699768
 20
       85.000006
 30
        0.000000
 11
       84.699768
 21
      120.000006
 31
        0.000000
  0
LINE
  8
0
 62
  3
 10
       86.699768
 20
       85.000006
 30
        0.000000
 11
       86.699768
 21
      120.000006
 31
        0.000000
  0
LINE
  8
0
 62
  3
 10
       82.699768
 20
      118.000006
 30
        0.000000
 11
       80.699768
 21
      118.000006
 31
        0.000000
  0
LINE
  8
0
 62
  3
 10
       82.699768
 20
       86.600012
 30
        0.000000
 11
       80.699768
 21
       86.600012
 31
        0.000000
  0
LINE
  8
0
 62
  3
 10
       80.699768
 20
       85.000006
 30
        0.000000
 11
       80.699768
 21
      120.000006
 31
        0.000000
  0
LINE
  8
0
 62
  3
 10
       82.699768
 20
       85.000006
 30
        0.000000
 11
       82.699768
 21
      120.000006
 31
        0.000000
  0
LINE
  8
0
 62
  3
 10
       66.699768
 20
       85.499991
 30
        0.000000
 11
       66.699768
 21
      119.499991
 31
        0.000000
  0
DIMENSION
  8
0
 62
  5
  2
BLK0003
 10
       66.699585
 20
      -79.410416
 11
      108.884544
 21
      -78.477081
 13
       66.699585
 23
      -63.999992
 14
      169.099731
 24
       55.500008
 50
        0.0
 70
  0
  0
LINE
  8
0
 62
  3
 10
       67.699585
 20
      -65.000023
 30
        0.000000
 11
      163.999634
 21
      -65.000023
 31
        0.000000
  0
ARC
  8
0
 62
  3
 10
       67.199585
 20
       64.500008
 30
        0.000000
 40
        0.500000
 50
       90.000000
 51
      179.999995
  0
LINE
  8
0
 62
  3
 10
       66.699585
 20
       57.000008
 30
        0.000000
 11
       66.699585
 21
       64.500008
 31
        0.000000
  0
LINE
  8
0
 62
  3
 10
       67.199585
 20
       65.000008
 30
        0.000000
 11
      169.099731
 21
       65.000008
 31
        0.000000
  0
LINE
  8
0
 62
  3
 10
      166.499390
 20
      -53.500023
 30
        0.000000
 11
      171.499634
 21
      -57.500023
 31
        0.000000
  0
LINE
  8
0
 62
  3
 10
      166.066284
 20
      -60.000023
 30
        0.000000
 11
      168.999634
 21
      -60.000023
 31
        0.000000
  0
LINE
  8
0
 62
  3
 10
      170.499634
 20
      -62.000023
 30
        0.000000
 11
      171.499634
 21
      -62.000023
 31
        0.000000
  0
LINE
  8
0
 62
  3
 10
      170.499634
 20
      -62.000023
 30
        0.000000
 11
      168.999634
 21
      -61.000023
 31
        0.000000
  0
LINE
  8
0
 62
  3
 10
      168.999634
 20
      -61.000023
 30
        0.000000
 11
      168.999634
 21
      -60.000023
 31
        0.000000
  0
LINE
  8
0
 62
  3
 10
      171.499634
 20
      -62.000023
 30
        0.000000
 11
      171.499634
 21
      -57.500023
 31
        0.000000
  0
LINE
  8
0
 62
  3
 10
      166.499390
 20
      -53.500023
 30
        0.000000
 11
      166.066284
 21
      -60.000069
 31
        0.000000
  0
LINE
  8
0
 62
  3
 10
      163.999634
 20
      -65.000023
 30
        0.000000
 11
      166.066284
 21
      -60.000023
 31
        0.000000
  0
LINE
  8
0
 62
  3
 10
      105.499634
 20
       21.500008
 30
        0.000000
 11
      105.499634
 21
       40.500008
 31
        0.000000
  0
LINE
  8
0
 62
  3
 10
      105.499634
 20
      -51.499992
 30
        0.000000
 11
      105.499634
 21
      -32.499992
 31
        0.000000
  0
LINE
  8
0
 62
  3
 10
      102.999634
 20
       21.500008
 30
        0.000000
 11
      102.999634
 21
       40.500008
 31
        0.000000
  0
LINE
  8
0
 62
  3
 10
      102.999634
 20
      -51.499992
 30
        0.000000
 11
      102.999634
 21
      -32.499992
 31
        0.000000
  0
LINE
  8
0
 62
  3
 10
      102.999634
 20
      -51.499992
 30
        0.000000
 11
      105.499634
 21
      -51.499992
 31
        0.000000
  0
LINE
  8
0
 62
  3
 10
      102.999634
 20
      -32.499992
 30
        0.000000
 11
      105.499634
 21
      -32.499992
 31
        0.000000
  0
LINE
  8
0
 62
  3
 10
      102.999634
 20
       21.500008
 30
        0.000000
 11
      105.499634
 21
       21.500008
 31
        0.000000
  0
LINE
  8
0
 62
  3
 10
      102.999634
 20
       40.500008
 30
        0.000000
 11
      105.499634
 21
       40.500008
 31
        0.000000
  0
LINE
  8
0
 62
  3
 10
       99.699585
 20
       24.000008
 30
        0.000000
 11
       99.699585
 21
       38.000008
 31
        0.000000
  0
LINE
  8
0
 62
  3
 10
       99.699585
 20
      -48.999992
 30
        0.000000
 11
       99.699585
 21
      -34.999992
 31
        0.000000
  0
LINE
  8
0
 62
  3
 10
       98.699585
 20
      -48.999992
 30
        0.000000
 11
       99.699585
 21
      -48.999992
 31
        0.000000
  0
LINE
  8
0
 62
  3
 10
       98.699585
 20
      -34.999992
 30
        0.000000
 11
       99.699585
 21
      -34.999992
 31
        0.000000
  0
LINE
  8
0
 62
  3
 10
       98.699585
 20
       24.000008
 30
        0.000000
 11
       99.699585
 21
       24.000008
 31
        0.000000
  0
LINE
  8
0
 62
  3
 10
       98.699585
 20
       38.000008
 30
        0.000000
 11
       99.699585
 21
       38.000008
 31
        0.000000
  0
ARC
  8
0
 62
  3
 10
      174.099365
 20
       59.499977
 30
        0.000000
 40
        2.000000
 50
      270.000000
 51
      360.000000
  0
LINE
  8
0
 62
  3
 10
      169.099731
 20
       57.499977
 30
        0.000000
 11
      174.099365
 21
       57.499977
 31
        0.000000
  0
ARC
  8
0
 62
  3
 10
      174.099365
 20
       59.499977
 30
        0.000000
 40
        2.000000
 50
        0.000000
 51
       90.000000
  0
LINE
  8
0
 62
  3
 10
      169.099731
 20
       61.499977
 30
        0.000000
 11
      174.099365
 21
       61.499977
 31
        0.000000
  0
LINE
  8
0
 62
  3
 10
      107.799683
 20
      -12.699989
 30
        0.000000
 11
      158.199585
 21
      -12.699989
 31
        0.000000
  0
LINE
  8
0
 62
  3
 10
      158.199585
 20
      -12.699989
 30
        0.000000
 11
      158.199585
 21
       12.700005
 31
        0.000000
  0
LINE
  8
0
 62
  3
 10
      107.799683
 20
      -12.699989
 30
        0.000000
 11
      107.799683
 21
       12.700005
 31
        0.000000
  0
LINE
  8
0
 62
  3
 10
      107.799683
 20
       12.700005
 30
        0.000000
 11
      158.199585
 21
       12.700005
 31
        0.000000
  0
LINE
  8
0
 62
  3
 10
      166.499634
 20
      -60.000023
 30
        0.000000
 11
      166.499634
 21
       65.000008
 31
        0.000000
  0
LINE
  8
0
 62
  3
 10
      166.499634
 20
       55.500008
 30
        0.000000
 11
      169.099731
 21
       55.500008
 31
        0.000000
  0
LINE
  8
0
 62
  3
 10
      169.099731
 20
       65.000008
 30
        0.000000
 11
      169.099731
 21
       55.500008
 31
        0.000000
  0
LINE
  8
0
 62
  3
 10
       66.699585
 20
      -63.999992
 30
        0.000000
 11
       66.699585
 21
       37.499641
 31
        0.000000
  0
ARC
  8
0
 62
  3
 10
       67.199585
 20
       37.499641
 30
        0.000000
 40
        0.500000
 50
       90.000000
 51
      180.000010
  0
ARC
  8
0
 62
  3
 10
       67.699585
 20
      -63.999992
 30
        0.000000
 40
        1.000000
 50
      180.000010
 51
      270.000000
  0
LINE
  8
0
 62
  3
 10
       98.699585
 20
      -65.000023
 30
        0.000000
 11
       98.699585
 21
       65.000008
 31
        0.000000
  0
LINE
  8
0
 62
  3
 10
       69.699585
 20
       37.999641
 30
        0.000000
 11
       69.699585
 21
       57.000008
 31
        0.000000
  0
LINE
  8
0
 62
  3
 10
       67.199585
 20
       37.999641
 30
        0.000000
 11
       69.699585
 21
       37.999641
 31
        0.000000
  0
LINE
  8
0
 62
  3
 10
       68.199585
 20
       39.000008
 30
        0.000000
 11
       66.699585
 21
       40.499992
 31
        0.000000
  0
LINE
  8
0
 62
  3
 10
       68.199585
 20
       39.000008
 30
        0.000000
 11
       69.699585
 21
       39.000008
 31
        0.000000
  0
LINE
  8
0
 62
  3
 10
       66.699585
 20
       40.499992
 30
        0.000000
 11
       66.699585
 21
       57.000008
 31
        0.000000
  0
LINE
  8
0
 62
  3
 10
       66.699585
 20
       57.000008
 30
        0.000000
 11
       69.699585
 21
       57.000008
 31
        0.000000
  0
TEXT
  8
0
 10
       -8.733621
 20
      105.008280
 30
        0.000000
 40
        5.000000
  1
ＪＷ２２ＳＵ
 50
        0.000000
 41
        1.000000
 51
        0.000000
  7
BIGFONT
  0
LINE
  8
0
 62
  3
 10
        5.499902
 20
       22.000008
 30
        0.000000
 11
        7.499902
 21
       22.000008
 31
        0.000000
  0
LINE
  8
0
 62
  3
 10
        5.499902
 20
       22.000008
 30
        0.000000
 11
        5.499902
 21
       20.000008
 31
        0.000000
  0
LINE
  8
0
 62
  3
 10
        7.499902
 20
       22.000008
 30
        0.000000
 11
        7.499902
 21
       20.000008
 31
        0.000000
  0
LINE
  8
0
 62
  3
 10
        5.499902
 20
       20.000008
 30
        0.000000
 11
        7.499902
 21
       20.000008
 31
        0.000000
  0
CIRCLE
  8
0
 62
  3
 10
       11.599902
 20
      -26.999992
 30
        0.000000
 40
        0.500000
  0
LINE
  8
0
 62
  3
 10
       10.600000
 20
      -28.499992
 30
        0.000000
 11
       10.600000
 21
      -25.499992
 31
        0.000000
  0
LINE
  8
0
 62
  3
 10
        9.000000
 20
      -55.499992
 30
        0.000000
 11
        9.000000
 21
      -22.499992
 31
        0.000000
  0
LINE
  8
0
 62
  3
 10
        9.000000
 20
      -14.499992
 30
        0.000000
 11
        9.000000
 21
       18.500008
 31
        0.000000
  0
CIRCLE
  8
0
 62
  3
 10
        4.119873
 20
      -34.910020
 30
        0.000000
 40
        0.699951
  0
CIRCLE
  8
0
 62
  3
 10
        1.279785
 20
      -33.530016
 30
        0.000000
 40
        0.699951
  0
CIRCLE
  8
0
 62
  3
 10
        1.279785
 20
      -36.290025
 30
        0.000000
 40
        0.699951
  0
CIRCLE
  8
0
 62
  3
 10
        4.119873
 20
      -37.670030
 30
        0.000000
 40
        0.699951
  0
CIRCLE
  8
0
 62
  3
 10
        1.279785
 20
      -39.050005
 30
        0.000000
 40
        0.699951
  0
CIRCLE
  8
0
 62
  3
 10
        4.119873
 20
      -40.430040
 30
        0.000000
 40
        0.699951
  0
CIRCLE
  8
0
 62
  3
 10
        4.119873
 20
      -43.190019
 30
        0.000000
 40
        0.699951
  0
CIRCLE
  8
0
 62
  3
 10
        1.279785
 20
      -44.569994
 30
        0.000000
 40
        0.699951
  0
CIRCLE
  8
0
 62
  3
 10
        1.279785
 20
      -41.810014
 30
        0.000000
 40
        0.699951
  0
LINE
  8
0
 62
  3
 10
        9.000000
 20
      -23.599992
 30
        0.000000
 11
       -3.600098
 21
      -23.599992
 31
        0.000000
  0
CIRCLE
  8
0
 62
  3
 10
        2.699951
 20
      -26.490007
 30
        0.000000
 40
        1.300049
  0
LINE
  8
0
 62
  3
 10
        5.199951
 20
      -25.046648
 30
        0.000000
 11
        2.699951
 21
      -23.603288
 31
        0.000000
  0
LINE
  8
0
 62
  3
 10
        2.699951
 20
      -23.603288
 30
        0.000000
 11
        0.199951
 21
      -25.046648
 31
        0.000000
  0
LINE
  8
0
 62
  3
 10
        0.199951
 20
      -25.046648
 30
        0.000000
 11
        0.199951
 21
      -27.933366
 31
        0.000000
  0
LINE
  8
0
 62
  3
 10
        0.199951
 20
      -27.933366
 30
        0.000000
 11
        2.699951
 21
      -29.376848
 31
        0.000000
  0
LINE
  8
0
 62
  3
 10
        2.699951
 20
      -29.376848
 30
        0.000000
 11
        5.199951
 21
      -27.933366
 31
        0.000000
  0
LINE
  8
0
 62
  3
 10
        5.199951
 20
      -27.933366
 30
        0.000000
 11
        5.199951
 21
      -25.046648
 31
        0.000000
  0
ARC
  8
0
 62
  3
 10
        0.389893
 20
      -32.455095
 30
        0.000000
 40
        1.599976
 50
       90.000000
 51
      180.000010
  0
LINE
  8
0
 62
  3
 10
        0.389893
 20
      -30.854997
 30
        0.000000
 11
        5.287598
 21
      -31.718645
 31
        0.000000
  0
ARC
  8
0
 62
  3
 10
        5.009766
 20
      -33.294328
 30
        0.000000
 40
        1.600098
 50
        0.000000
 51
       80.000788
  0
LINE
  8
0
 62
  3
 10
        5.199951
 20
      -52.953337
 30
        0.000000
 11
        5.199951
 21
      -50.066496
 31
        0.000000
  0
LINE
  8
0
 62
  3
 10
       -3.600098
 20
      -54.399992
 30
        0.000000
 11
       -3.600098
 21
      -23.599992
 31
        0.000000
  0
LINE
  8
0
 62
  3
 10
        6.609863
 20
      -33.294328
 30
        0.000000
 11
        6.609863
 21
      -44.705656
 31
        0.000000
  0
LINE
  8
0
 62
  3
 10
       -1.209961
 20
      -32.435350
 30
        0.000000
 11
       -1.209961
 21
      -45.545012
 31
        0.000000
  0
LINE
  8
0
 62
  3
 10
        9.000000
 20
      -54.399992
 30
        0.000000
 11
       -3.600098
 21
      -54.399992
 31
        0.000000
  0
ARC
  8
0
 62
  3
 10
        5.009766
 20
      -44.705656
 30
        0.000000
 40
        1.599990
 50
      279.999892
 51
      360.000000
  0
LINE
  8
0
 62
  3
 10
        0.389893
 20
      -47.144987
 30
        0.000000
 11
        5.287598
 21
      -46.281340
 31
        0.000000
  0
ARC
  8
0
 62
  3
 10
        0.389893
 20
      -45.545012
 30
        0.000000
 40
        1.599854
 50
      180.000010
 51
      270.000000
  0
CIRCLE
  8
0
 62
  3
 10
        2.699951
 20
      -51.509978
 30
        0.000000
 40
        1.300049
  0
LINE
  8
0
 62
  3
 10
        5.199951
 20
      -50.066496
 30
        0.000000
 11
        2.699951
 21
      -48.623137
 31
        0.000000
  0
LINE
  8
0
 62
  3
 10
        2.699951
 20
      -48.623137
 30
        0.000000
 11
        0.199951
 21
      -50.066496
 31
        0.000000
  0
LINE
  8
0
 62
  3
 10
        0.199951
 20
      -50.066496
 30
        0.000000
 11
        0.199951
 21
      -52.953337
 31
        0.000000
  0
LINE
  8
0
 62
  3
 10
        0.199951
 20
      -52.953337
 30
        0.000000
 11
        2.699951
 21
      -54.396696
 31
        0.000000
  0
LINE
  8
0
 62
  3
 10
        2.699951
 20
      -54.396696
 30
        0.000000
 11
        5.199951
 21
      -52.953337
 31
        0.000000
  0
LINE
  8
0
 62
  3
 10
        2.699951
 20
      -13.396696
 30
        0.000000
 11
        5.199951
 21
      -11.953337
 31
        0.000000
  0
LINE
  8
0
 62
  3
 10
        0.199951
 20
      -11.953337
 30
        0.000000
 11
        2.699951
 21
      -13.396696
 31
        0.000000
  0
LINE
  8
0
 62
  3
 10
        0.199951
 20
       -9.066496
 30
        0.000000
 11
        0.199951
 21
      -11.953337
 31
        0.000000
  0
LINE
  8
0
 62
  3
 10
        2.699951
 20
       -7.623137
 30
        0.000000
 11
        0.199951
 21
       -9.066496
 31
        0.000000
  0
LINE
  8
0
 62
  3
 10
        5.199951
 20
       -9.066496
 30
        0.000000
 11
        2.699951
 21
       -7.623137
 31
        0.000000
  0
CIRCLE
  8
0
 62
  3
 10
        2.699951
 20
      -10.509978
 30
        0.000000
 40
        1.300049
  0
ARC
  8
0
 62
  3
 10
        0.389893
 20
       -4.545012
 30
        0.000000
 40
        1.599854
 50
      180.000010
 51
      270.000000
  0
LINE
  8
0
 62
  3
 10
        0.389893
 20
       -6.144987
 30
        0.000000
 11
        5.287598
 21
       -5.281340
 31
        0.000000
  0
ARC
  8
0
 62
  3
 10
        5.009766
 20
       -3.705656
 30
        0.000000
 40
        1.599990
 50
      279.999892
 51
      360.000000
  0
LINE
  8
0
 62
  3
 10
        9.000000
 20
      -13.399992
 30
        0.000000
 11
       -3.600098
 21
      -13.399992
 31
        0.000000
  0
LINE
  8
0
 62
  3
 10
       -1.209961
 20
        8.564650
 30
        0.000000
 11
       -1.209961
 21
       -4.545012
 31
        0.000000
  0
LINE
  8
0
 62
  3
 10
        6.609863
 20
        7.705672
 30
        0.000000
 11
        6.609863
 21
       -3.705656
 31
        0.000000
  0
LINE
  8
0
 62
  3
 10
       -3.600098
 20
      -13.399992
 30
        0.000000
 11
       -3.600098
 21
       17.400008
 31
        0.000000
  0
LINE
  8
0
 62
  3
 10
        5.199951
 20
      -11.953337
 30
        0.000000
 11
        5.199951
 21
       -9.066496
 31
        0.000000
  0
ARC
  8
0
 62
  3
 10
        5.009766
 20
        7.705672
 30
        0.000000
 40
        1.600098
 50
        0.000000
 51
       80.000788
  0
LINE
  8
0
 62
  3
 10
        0.389893
 20
       10.145003
 30
        0.000000
 11
        5.287598
 21
        9.281355
 31
        0.000000
  0
ARC
  8
0
 62
  3
 10
        0.389893
 20
        8.544905
 30
        0.000000
 40
        1.599976
 50
       90.000000
 51
      180.000010
  0
LINE
  8
0
 62
  3
 10
        5.199951
 20
       13.066634
 30
        0.000000
 11
        5.199951
 21
       15.953352
 31
        0.000000
  0
LINE
  8
0
 62
  3
 10
        2.699951
 20
       11.623152
 30
        0.000000
 11
        5.199951
 21
       13.066634
 31
        0.000000
  0
LINE
  8
0
 62
  3
 10
        0.199951
 20
       13.066634
 30
        0.000000
 11
        2.699951
 21
       11.623152
 31
        0.000000
  0
LINE
  8
0
 62
  3
 10
        0.199951
 20
       15.953352
 30
        0.000000
 11
        0.199951
 21
       13.066634
 31
        0.000000
  0
LINE
  8
0
 62
  3
 10
        2.699951
 20
       17.396712
 30
        0.000000
 11
        0.199951
 21
       15.953352
 31
        0.000000
  0
LINE
  8
0
 62
  3
 10
        5.199951
 20
       15.953352
 30
        0.000000
 11
        2.699951
 21
       17.396712
 31
        0.000000
  0
CIRCLE
  8
0
 62
  3
 10
        2.699951
 20
       14.509993
 30
        0.000000
 40
        1.300049
  0
LINE
  8
0
 62
  3
 10
        9.000000
 20
       17.400008
 30
        0.000000
 11
       -3.600098
 21
       17.400008
 31
        0.000000
  0
CIRCLE
  8
0
 62
  3
 10
        1.279785
 20
       -0.810014
 30
        0.000000
 40
        0.699951
  0
CIRCLE
  8
0
 62
  3
 10
        1.279785
 20
       -3.569994
 30
        0.000000
 40
        0.699951
  0
CIRCLE
  8
0
 62
  3
 10
        4.119873
 20
       -2.190019
 30
        0.000000
 40
        0.699951
  0
CIRCLE
  8
0
 62
  3
 10
        4.119873
 20
        0.569960
 30
        0.000000
 40
        0.699951
  0
CIRCLE
  8
0
 62
  3
 10
        1.279785
 20
        1.949995
 30
        0.000000
 40
        0.699951
  0
CIRCLE
  8
0
 62
  3
 10
        4.119873
 20
        3.329970
 30
        0.000000
 40
        0.699951
  0
CIRCLE
  8
0
 62
  3
 10
        1.279785
 20
        4.709975
 30
        0.000000
 40
        0.699951
  0
CIRCLE
  8
0
 62
  3
 10
        1.279785
 20
        7.469984
 30
        0.000000
 40
        0.699951
  0
CIRCLE
  8
0
 62
  3
 10
        4.119873
 20
        6.089980
 30
        0.000000
 40
        0.699951
  0
LINE
  8
0
 62
  3
 10
        9.999902
 20
       18.500008
 30
        0.000000
 11
        9.999902
 21
      -14.499992
 31
        0.000000
  0
LINE
  8
0
 62
  3
 10
       -4.600098
 20
       18.500008
 30
        0.000000
 11
       -4.600098
 21
      -14.499992
 31
        0.000000
  0
LINE
  8
0
 62
  3
 10
       -4.600098
 20
       18.500008
 30
        0.000000
 11
        9.999902
 21
       18.500008
 31
        0.000000
  0
LINE
  8
0
 62
  3
 10
       -4.600098
 20
      -14.499992
 30
        0.000000
 11
        9.999902
 21
      -14.499992
 31
        0.000000
  0
LINE
  8
0
 62
  3
 10
        9.999902
 20
      -28.499992
 30
        0.000000
 11
        9.999902
 21
      -55.499992
 31
        0.000000
  0
LINE
  8
0
 62
  3
 10
        9.999902
 20
      -22.499992
 30
        0.000000
 11
        9.999902
 21
      -25.499992
 31
        0.000000
  0
LINE
  8
0
 62
  3
 10
        9.999902
 20
      -25.499992
 30
        0.000000
 11
       12.499902
 21
      -25.499992
 31
        0.000000
  0
LINE
  8
0
 62
  3
 10
        9.999902
 20
      -28.499992
 30
        0.000000
 11
       12.499902
 21
      -28.499992
 31
        0.000000
  0
LINE
  8
0
 62
  3
 10
       12.499902
 20
      -25.499992
 30
        0.000000
 11
       12.499902
 21
      -28.499992
 31
        0.000000
  0
LINE
  8
0
 62
  3
 10
       -4.600098
 20
      -22.499992
 30
        0.000000
 11
        9.999902
 21
      -22.499992
 31
        0.000000
  0
LINE
  8
0
 62
  3
 10
       -4.600098
 20
      -55.499992
 30
        0.000000
 11
        9.999902
 21
      -55.499992
 31
        0.000000
  0
LINE
  8
0
 62
  3
 10
       -4.600098
 20
      -22.499992
 30
        0.000000
 11
       -4.600098
 21
      -55.499992
 31
        0.000000
  0
LINE
  8
0
 62
  3
 10
       -9.400061
 20
       37.500008
 30
        0.000000
 11
       -9.400061
 21
       38.400020
 31
        0.000000
  0
LINE
  8
0
 62
  3
 10
       -9.400061
 20
       38.400020
 30
        0.000000
 11
        9.399927
 21
       38.400020
 31
        0.000000
  0
LINE
  8
0
 62
  3
 10
      -16.700098
 20
       37.500008
 30
        0.000000
 11
       -9.400061
 21
       37.500008
 31
        0.000000
  0
LINE
  8
0
 62
  3
 10
        9.399927
 20
       37.500008
 30
        0.000000
 11
       16.699902
 21
       37.500008
 31
        0.000000
  0
LINE
  8
0
 62
  3
 10
        9.399927
 20
       37.500008
 30
        0.000000
 11
        9.399927
 21
       38.400020
 31
        0.000000
  0
ARC
  8
0
 62
  3
 10
       16.699902
 20
       37.200008
 30
        0.000000
 40
        0.300000
 50
        0.000000
 51
       90.000000
  0
ARC
  8
0
 62
  3
 10
      -16.700098
 20
       37.200008
 30
        0.000000
 40
        0.300000
 50
       90.000000
 51
      179.999995
  0
ARC
  8
0
 62
  3
 10
       16.299902
 20
      -63.799992
 30
        0.000000
 40
        0.700000
 50
      270.000000
 51
      360.000000
  0
LINE
  8
0
 62
  3
 10
       16.999902
 20
      -63.799992
 30
        0.000000
 11
       16.999902
 21
       37.200008
 31
        0.000000
  0
LINE
  8
0
 62
  3
 10
      -16.300098
 20
      -64.499992
 30
        0.000000
 11
       16.299902
 21
      -64.499992
 31
        0.000000
  0
ARC
  8
0
 62
  3
 10
      -16.300098
 20
      -63.799992
 30
        0.000000
 40
        0.700000
 50
      179.999995
 51
      270.000000
  0
LINE
  8
0
 62
  3
 10
      -17.000098
 20
      -63.799992
 30
        0.000000
 11
      -17.000098
 21
       37.200008
 31
        0.000000
  0
LINE
  8
0
 62
  3
 10
        5.249902
 20
       24.300008
 30
        0.000000
 11
        5.249902
 21
       19.700008
 31
        0.000000
  0
LINE
  8
0
 62
  3
 10
        5.249902
 20
       24.300008
 30
        0.000000
 11
        7.749902
 21
       24.300008
 31
        0.000000
  0
LINE
  8
0
 62
  3
 10
        7.749902
 20
       24.300008
 30
        0.000000
 11
        7.749902
 21
       19.700008
 31
        0.000000
  0
LINE
  8
0
 62
  3
 10
        5.249902
 20
       19.700008
 30
        0.000000
 11
        7.749902
 21
       19.700008
 31
        0.000000
  0
ENDSEC
  0
EOF
