  0
SECTION
  2
HEADER
  9
$ACADVER
  1
AC1006
  9
$INSBASE
 10
0.0
 20
0.0
 30
0.0
  9
$EXTMIN
 10
      -64.999992
 20
      -64.999992
  9
$EXTMAX
 10
      169.792389
 20
      120.000008
  9
$LIMMIN
 10
      -64.999992
 20
      -64.999992
  9
$LIMMAX
 10
      169.792389
 20
      120.000008
  9
$VIEWCTR
 10
       52.396198
 20
       52.396198
  9
$ORTHOMODE
 70
     0
  9
$ANGBASE
 50
0.0
  9
$ANGDIR
 70
     0
  9
$SPLINETYPE
 70
     6
  9
$SPLINESEGS
 70
     8
9
$DIMASZ
 40
        2.000000
9
$DIMEXE
 40
        1.000000
9
$DIMEXO
 40
        1.000000
9
$DIMTXT
 40
        4.000000
9
$DIMGAP
 40
        1.000000
9
$DIMTAD
 70
1
9
$DIMTIH
 70
0
9
$DIMTOH
 70
0
  0
ENDSEC
  0
SECTION
  2
TABLES
  0
TABLE
  2
LTYPE
 70
     5
  0
LTYPE
  2
CONTINUOUS
 70
    64
  3
SOLID LINE
 72
    65
 73
     0
 40
0.0
  0
LTYPE
  2
DASHED
 70
    64
  3
-- -- -- -- -- --
 72
    65
 73
     2
 40
  0.75  
 49
  0.50  
 49
 -0.25  
  0
LTYPE
  2
DOT
 70
    64
  3
....................
 72
    65
 73
     2
 40
  0.25  
 49
  0.02  
 49
 -0.23  
  0
LTYPE
  2
CENTER
 70
    64
  3
-- . -- . -- . -- .
 72
    65
 73
    4
 40
  2.00  
 49
  1.25  
 49
 -0.25  
 49
  0.25  
 49
 -0.25  
  0
LTYPE
  2
PHANTOM
 70
    64
  3
-- .. -- .. -- ..
 72
    65
 73
    6
 40
  2.50  
 49
  1.25  
 49
 -0.25  
 49
  0.25  
 49
 -0.25  
 49
  0.25  
 49
 -0.25  
  0
ENDTAB
  0
TABLE
  2
LAYER
 70
     1
  0
LAYER
  2
LVL0000
 70
    64
 62
     3
  6
CONTINUOUS
  0
ENDTAB
  0
TABLE
  2
STYLE
 70
     2
  0
STYLE
  2
STANDARD
 70
    64
 40
0.0
 41
1.0
 50
0.0
 71
     0
 42
5.0
  3
ROMANS
  4
BIGFONT
  0
STYLE
  2
BIGFONT
 70
    64
 40
0.0
 41
1.0
 50
0.0
 71
     0
 42
5.0
  3
ROMANS
  4
BIGFONT
  0
ENDTAB
  0
TABLE
  2
VIEW
 70
     0
  0
ENDTAB
  0
TABLE
  2
UCS
 70
     0
  0
ENDTAB
  0
TABLE
  2
DWGMGR
 70
     0
  0
ENDTAB
  0
ENDSEC
  0
SECTION
  2
BLOCKS
  0
BLOCK
  8
0
  2
BLK0001
 70
    64
 10
        0.000000
 20
        0.000000
  0
TEXT
  8
LVL0000
 62
  2
 10
       92.591698
 20
      -92.815964
 30
        0.000000
 40
        4.000000
  1
１０８．４
 50
        0.000000
 41
        0.835000
 51
        0.000000
  7
BIGFONT
  0
LINE
  8
LVL0000
 62
  2
 10
       54.391533
 20
      -11.199946
 30
        0.000000
 11
       54.391533
 21
      -94.815964
 31
        0.000000
  0
LINE
  8
LVL0000
 62
  2
 10
      162.791870
 20
       53.500008
 30
        0.000000
 11
      162.791870
 21
      -94.815971
 31
        0.000000
  0
LINE
  8
LVL0000
 62
  2
 10
       56.391533
 20
      -93.501801
 30
        0.000000
 11
       54.391533
 21
      -93.815964
 31
        0.000000
  0
LINE
  8
LVL0000
 62
  2
 10
       54.391533
 20
      -93.815964
 30
        0.000000
 11
       56.391533
 21
      -94.130119
 31
        0.000000
  0
LINE
  8
LVL0000
 62
  2
 10
      160.791870
 20
      -94.130127
 30
        0.000000
 11
      162.791870
 21
      -93.815971
 31
        0.000000
  0
LINE
  8
LVL0000
 62
  2
 10
      162.791870
 20
      -93.815971
 30
        0.000000
 11
      160.791870
 21
      -93.501808
 31
        0.000000
  0
LINE
  8
LVL0000
 62
  2
 10
       54.391533
 20
      -93.815964
 30
        0.000000
 11
      162.791870
 21
      -93.815971
 31
        0.000000
  0
ENDBLK
  0
BLOCK
  8
0
  2
BLK0002
 70
    64
 10
        0.000000
 20
        0.000000
  0
TEXT
  8
LVL0000
 62
  2
 10
       -3.708450
 20
      -82.180473
 30
        0.000000
 40
        4.000000
  1
３５
 50
        0.000000
 41
        0.835000
 51
        0.000000
  7
BIGFONT
  0
LINE
  8
LVL0000
 62
  2
 10
      -17.500000
 20
      -65.500008
 30
        0.000000
 11
      -17.500000
 21
      -84.180473
 31
        0.000000
  0
LINE
  8
LVL0000
 62
  2
 10
       17.500000
 20
      -65.500008
 30
        0.000000
 11
       17.500000
 21
      -84.180473
 31
        0.000000
  0
LINE
  8
LVL0000
 62
  2
 10
      -13.900000
 20
      -82.614990
 30
        0.000000
 11
      -17.500000
 21
      -83.180473
 31
        0.000000
  0
LINE
  8
LVL0000
 62
  2
 10
      -17.500000
 20
      -83.180473
 30
        0.000000
 11
      -13.900000
 21
      -83.745956
 31
        0.000000
  0
LINE
  8
LVL0000
 62
  2
 10
       13.900000
 20
      -83.745956
 30
        0.000000
 11
       17.500000
 21
      -83.180473
 31
        0.000000
  0
LINE
  8
LVL0000
 62
  2
 10
       17.500000
 20
      -83.180473
 30
        0.000000
 11
       13.900000
 21
      -82.614990
 31
        0.000000
  0
LINE
  8
LVL0000
 62
  2
 10
      -17.500000
 20
      -83.180473
 30
        0.000000
 11
       17.500000
 21
      -83.180473
 31
        0.000000
  0
ENDBLK
  0
BLOCK
  8
0
  2
BLK0003
 70
    64
 10
        0.000000
 20
        0.000000
  0
TEXT
  8
LVL0000
 62
  2
 10
       34.582764
 20
       -5.953166
 30
        0.000000
 40
        4.000000
  1
１３０
 50
       90.000000
 41
        0.835000
 51
        0.000000
  7
BIGFONT
  0
LINE
  8
LVL0000
 62
  2
 10
       18.000000
 20
       65.000008
 30
        0.000000
 11
       36.582764
 21
       65.000008
 31
        0.000000
  0
LINE
  8
LVL0000
 62
  2
 10
       18.000000
 20
      -64.999992
 30
        0.000000
 11
       36.582764
 21
      -64.999992
 31
        0.000000
  0
LINE
  8
LVL0000
 62
  2
 10
       36.368164
 20
       62.000008
 30
        0.000000
 11
       35.582764
 21
       65.000008
 31
        0.000000
  0
LINE
  8
LVL0000
 62
  2
 10
       35.582764
 20
       65.000008
 30
        0.000000
 11
       34.797363
 21
       62.000008
 31
        0.000000
  0
LINE
  8
LVL0000
 62
  2
 10
       34.797363
 20
      -61.999992
 30
        0.000000
 11
       35.582764
 21
      -64.999992
 31
        0.000000
  0
LINE
  8
LVL0000
 62
  2
 10
       35.582764
 20
      -64.999992
 30
        0.000000
 11
       36.368160
 21
      -61.999992
 31
        0.000000
  0
LINE
  8
LVL0000
 62
  2
 10
       35.582764
 20
       65.000008
 30
        0.000000
 11
       35.582764
 21
      -64.999992
 31
        0.000000
  0
ENDBLK
  0
BLOCK
  8
0
  2
BLK0004
 70
    64
 10
        0.000000
 20
        0.000000
  0
TEXT
  8
LVL0000
 62
  2
 10
      100.604713
 20
      -81.314255
 30
        0.000000
 40
        4.000000
  1
１０２．４
 50
        0.000000
 41
        0.835000
 51
        0.000000
  7
BIGFONT
  0
LINE
  8
LVL0000
 62
  2
 10
       60.391960
 20
      -65.499992
 30
        0.000000
 11
       60.391960
 21
      -83.314255
 31
        0.000000
  0
LINE
  8
LVL0000
 62
  2
 10
      162.791870
 20
       54.000008
 30
        0.000000
 11
      162.791870
 21
      -83.314262
 31
        0.000000
  0
LINE
  8
LVL0000
 62
  2
 10
       63.891960
 20
      -81.764473
 30
        0.000000
 11
       60.391960
 21
      -82.314255
 31
        0.000000
  0
LINE
  8
LVL0000
 62
  2
 10
       60.391960
 20
      -82.314255
 30
        0.000000
 11
       63.891960
 21
      -82.864037
 31
        0.000000
  0
LINE
  8
LVL0000
 62
  2
 10
      159.291870
 20
      -82.864044
 30
        0.000000
 11
      162.791870
 21
      -82.314262
 31
        0.000000
  0
LINE
  8
LVL0000
 62
  2
 10
      162.791870
 20
      -82.314262
 30
        0.000000
 11
      159.291870
 21
      -81.764481
 31
        0.000000
  0
LINE
  8
LVL0000
 62
  2
 10
       60.391960
 20
      -82.314255
 30
        0.000000
 11
      162.791870
 21
      -82.314262
 31
        0.000000
  0
ENDBLK
  0
ENDSEC
  0
SECTION
  2
ENTITIES
  0
LINE
  8
LVL0000
 10
       54.391526
 20
       96.913290
 30
        0.000000
 11
       60.391938
 21
       96.913290
 31
        0.000000
  0
LINE
  8
LVL0000
 10
       54.391526
 20
       98.356665
 30
        0.000000
 11
       60.391938
 21
       98.356665
 31
        0.000000
  0
LINE
  8
LVL0000
 10
       54.391526
 20
      101.243417
 30
        0.000000
 11
       60.391938
 21
      101.243417
 31
        0.000000
  0
LINE
  8
LVL0000
 10
       54.391526
 20
      102.686792
 30
        0.000000
 11
       60.391938
 21
      102.686792
 31
        0.000000
  0
LINE
  8
LVL0000
 10
       54.391525
 20
      103.710014
 30
        0.000000
 11
       60.391938
 21
      103.710014
 31
        0.000000
  0
LINE
  8
LVL0000
 10
       54.391526
 20
       95.890007
 30
        0.000000
 11
       60.391938
 21
       95.890007
 31
        0.000000
  0
LINE
  8
LVL0000
 10
       54.391525
 20
      103.710014
 30
        0.000000
 11
       54.391526
 21
       95.890007
 31
        0.000000
  0
LINE
  8
LVL0000
 10
       54.391531
 20
       -7.699947
 30
        0.000000
 11
       60.391960
 21
       -7.699947
 31
        0.000000
  0
LINE
  8
LVL0000
 10
       54.391530
 20
       25.300053
 30
        0.000000
 11
       60.391960
 21
       25.300053
 31
        0.000000
  0
DIMENSION
  8
LVL0000
 62
  5
  2
BLK0001
 10
       54.391533
 20
      -93.815964
 11
       92.591698
 21
      -92.815964
 13
       54.391533
 23
      -10.199946
 14
      162.791870
 24
       54.500008
 50
        0.0
 70
  0
  0
LINE
  8
LVL0000
 10
       54.391531
 20
       -5.199947
 30
        0.000000
 11
       60.391860
 21
       -5.199947
 31
        0.000000
  0
LINE
  8
LVL0000
 10
       54.391532
 20
      -10.199947
 30
        0.000000
 11
       60.391860
 21
      -10.199947
 31
        0.000000
  0
LINE
  8
LVL0000
 10
       54.391530
 20
       22.800053
 30
        0.000000
 11
       60.391860
 21
       22.800053
 31
        0.000000
  0
LINE
  8
LVL0000
 10
       54.391530
 20
       27.800053
 30
        0.000000
 11
       60.391860
 21
       27.800053
 31
        0.000000
  0
LINE
  8
LVL0000
 10
       54.391531
 20
       -5.199947
 30
        0.000000
 11
       54.391532
 21
      -10.199947
 31
        0.000000
  0
LINE
  8
LVL0000
 10
       54.391530
 20
       27.800053
 30
        0.000000
 11
       54.391530
 21
       22.800053
 31
        0.000000
  0
LINE
  8
LVL0000
 10
       54.391531
 20
       -2.585559
 30
        0.000000
 11
       60.391860
 21
       -2.585559
 31
        0.000000
  0
LINE
  8
LVL0000
 10
       54.391530
 20
       20.185666
 30
        0.000000
 11
       60.391860
 21
       20.185666
 31
        0.000000
  0
LINE
  8
LVL0000
 10
       54.391530
 20
       20.185666
 30
        0.000000
 11
       54.391531
 21
       -2.585559
 31
        0.000000
  0
DIMENSION
  8
LVL0000
 62
  5
  2
BLK0002
 10
      -17.500000
 20
      -83.180473
 11
       -3.708450
 21
      -82.180473
 13
      -17.500000
 23
      -64.500008
 14
       17.500000
 24
      -64.500008
 50
        0.0
 70
  0
  0
DIMENSION
  8
LVL0000
 62
  5
  2
BLK0003
 10
       35.582764
 20
       65.000008
 11
       34.582764
 21
       -5.953166
 13
       17.000000
 23
       65.000008
 14
       17.000000
 24
      -64.999992
 50
       90.0
 70
  0
  0
DIMENSION
  8
LVL0000
 62
  5
  2
BLK0004
 10
       60.391960
 20
      -82.314255
 11
      100.604713
 21
      -81.314255
 13
       60.391960
 23
      -64.499992
 14
      162.791870
 24
       55.000008
 50
        0.0
 70
  0
  0
ARC
  8
LVL0000
 10
       60.891960
 20
       64.500008
 30
        0.000000
 40
        0.500000
 50
       90.000000
 51
      179.999995
  0
LINE
  8
LVL0000
 10
       60.391960
 20
       40.500008
 30
        0.000000
 11
       60.391960
 21
       64.500008
 31
        0.000000
  0
LINE
  8
LVL0000
 10
       60.891960
 20
       65.000008
 30
        0.000000
 11
      162.791863
 21
       65.000008
 31
        0.000000
  0
LINE
  8
LVL0000
  6
CENTER
 10
      -26.775342
 20
        0.000000
 30
        0.000000
 11
       25.692608
 21
        0.000000
 31
        0.000000
  0
LINE
  8
LVL0000
  6
CENTER
 10
        0.000000
 20
      -75.090590
 30
        0.000000
 11
        0.000000
 21
       72.289983
 31
        0.000000
  0
ARC
  8
LVL0000
 10
       -4.099994
 20
      -11.599992
 30
        0.000000
 40
        0.300000
 50
      179.999995
 51
      270.000000
  0
LINE
  8
LVL0000
 10
       -4.399994
 20
      -11.599992
 30
        0.000000
 11
       -4.399994
 21
       28.850056
 31
        0.000000
  0
LINE
  8
LVL0000
 10
        9.500012
 20
      -11.899992
 30
        0.000000
 11
       -4.099994
 21
      -11.899992
 31
        0.000000
  0
ARC
  8
LVL0000
 10
        9.500012
 20
      -11.599992
 30
        0.000000
 40
        0.300000
 50
      270.000000
 51
      360.000000
  0
LINE
  8
LVL0000
 10
        9.800012
 20
      -11.599992
 30
        0.000000
 11
        9.800012
 21
       28.850056
 31
        0.000000
  0
CIRCLE
  8
LVL0000
 10
       -2.500015
 20
      -57.099961
 30
        0.000000
 40
        0.500000
  0
CIRCLE
  8
LVL0000
 10
       -2.500015
 20
      -57.099961
 30
        0.000000
 40
        1.500000
  0
ARC
  8
LVL0000
 10
       -1.800000
 20
      -31.199961
 30
        0.000000
 40
        0.300000
 50
      270.000000
 51
      360.000000
  0
ARC
  8
LVL0000
 10
       -3.200000
 20
      -31.199961
 30
        0.000000
 40
        0.300000
 50
      179.999995
 51
      270.000000
  0
LINE
  8
LVL0000
 10
       -1.800000
 20
      -31.499961
 30
        0.000000
 11
       -3.200000
 21
      -31.499961
 31
        0.000000
  0
LINE
  8
LVL0000
 10
       -3.500000
 20
      -26.899961
 30
        0.000000
 11
       -3.500000
 21
      -31.199961
 31
        0.000000
  0
LINE
  8
LVL0000
 10
       -1.500000
 20
      -26.899961
 30
        0.000000
 11
       -1.500000
 21
      -31.199961
 31
        0.000000
  0
ARC
  8
LVL0000
 10
       -1.800000
 20
      -26.899961
 30
        0.000000
 40
        0.300000
 50
        0.000000
 51
       90.000000
  0
ARC
  8
LVL0000
 10
       -3.200000
 20
      -26.899961
 30
        0.000000
 40
        0.300000
 50
       90.000000
 51
      179.999995
  0
LINE
  8
LVL0000
 10
       -3.200000
 20
      -26.599961
 30
        0.000000
 11
       -1.800000
 21
      -26.599961
 31
        0.000000
  0
LINE
  8
LVL0000
 10
       -3.500000
 20
      -36.999961
 30
        0.000000
 11
       -3.500000
 21
      -51.599961
 31
        0.000000
  0
LINE
  8
LVL0000
 10
        6.400000
 20
      -46.099961
 30
        0.000000
 11
        2.400000
 21
      -46.099961
 31
        0.000000
  0
LINE
  8
LVL0000
 10
        6.400000
 20
      -47.299961
 30
        0.000000
 11
        2.400000
 21
      -47.299961
 31
        0.000000
  0
LINE
  8
LVL0000
 10
        6.400000
 20
      -48.499961
 30
        0.000000
 11
        2.400000
 21
      -48.499961
 31
        0.000000
  0
LINE
  8
LVL0000
 10
        6.400000
 20
      -43.699961
 30
        0.000000
 11
        2.400000
 21
      -43.699961
 31
        0.000000
  0
LINE
  8
LVL0000
 10
        6.400000
 20
      -44.899961
 30
        0.000000
 11
        2.400000
 21
      -44.899961
 31
        0.000000
  0
LINE
  8
LVL0000
 10
        6.400000
 20
      -42.499961
 30
        0.000000
 11
        2.400000
 21
      -42.499961
 31
        0.000000
  0
LINE
  8
LVL0000
 10
        6.400000
 20
      -41.299961
 30
        0.000000
 11
        2.400000
 21
      -41.299961
 31
        0.000000
  0
LINE
  8
LVL0000
 10
        6.400000
 20
      -40.099961
 30
        0.000000
 11
        2.400000
 21
      -40.099961
 31
        0.000000
  0
LINE
  8
LVL0000
 10
        7.400000
 20
      -39.299961
 30
        0.000000
 11
        7.400000
 21
      -49.299961
 31
        0.000000
  0
LINE
  8
LVL0000
 10
        7.400000
 20
      -49.299961
 30
        0.000000
 11
        6.400000
 21
      -49.299961
 31
        0.000000
  0
LINE
  8
LVL0000
 10
        7.400000
 20
      -39.299961
 30
        0.000000
 11
        6.400000
 21
      -39.299961
 31
        0.000000
  0
LINE
  8
LVL0000
 10
        6.400000
 20
      -38.299961
 30
        0.000000
 11
       -0.500000
 21
      -38.299961
 31
        0.000000
  0
LINE
  8
LVL0000
 10
        6.400000
 20
      -38.299961
 30
        0.000000
 11
        6.400000
 21
      -50.299961
 31
        0.000000
  0
LINE
  8
LVL0000
 10
       -0.500000
 20
      -38.299961
 30
        0.000000
 11
       -0.500000
 21
      -41.199961
 31
        0.000000
  0
LINE
  8
LVL0000
 10
        6.400000
 20
      -50.299961
 30
        0.000000
 11
       -0.500000
 21
      -50.299961
 31
        0.000000
  0
LINE
  8
LVL0000
 10
       -0.500000
 20
      -47.399961
 30
        0.000000
 11
       -0.500000
 21
      -50.299961
 31
        0.000000
  0
LINE
  8
LVL0000
 10
       -2.100000
 20
      -42.299961
 30
        0.000000
 11
       -3.500000
 21
      -42.299961
 31
        0.000000
  0
LINE
  8
LVL0000
 10
       -2.100000
 20
      -46.299961
 30
        0.000000
 11
       -3.500000
 21
      -46.299961
 31
        0.000000
  0
LINE
  8
LVL0000
 10
       -2.100000
 20
      -46.299961
 30
        0.000000
 11
       -2.100000
 21
      -47.399961
 31
        0.000000
  0
LINE
  8
LVL0000
 10
       -2.100000
 20
      -41.199961
 30
        0.000000
 11
       -2.100000
 21
      -42.299961
 31
        0.000000
  0
LINE
  8
LVL0000
 10
       -0.500000
 20
      -47.399961
 30
        0.000000
 11
       -2.100000
 21
      -47.399961
 31
        0.000000
  0
LINE
  8
LVL0000
 10
       -0.500000
 20
      -41.199961
 30
        0.000000
 11
       -2.100000
 21
      -41.199961
 31
        0.000000
  0
LINE
  8
LVL0000
 10
        8.400000
 20
      -51.599961
 30
        0.000000
 11
       -3.500000
 21
      -51.599961
 31
        0.000000
  0
LINE
  8
LVL0000
 10
        8.400000
 20
      -36.999961
 30
        0.000000
 11
        8.400000
 21
      -51.599961
 31
        0.000000
  0
LINE
  8
LVL0000
 10
        8.400000
 20
      -36.999961
 30
        0.000000
 11
       -3.500000
 21
      -36.999961
 31
        0.000000
  0
LINE
  8
LVL0000
 10
       -3.500000
 20
      -52.099961
 30
        0.000000
 11
        9.500012
 21
      -52.099961
 31
        0.000000
  0
LINE
  8
LVL0000
 10
        9.500012
 20
      -36.499961
 30
        0.000000
 11
       -3.500000
 21
      -36.499961
 31
        0.000000
  0
LINE
  8
LVL0000
 10
        9.500012
 20
      -52.099961
 30
        0.000000
 11
        9.500012
 21
      -36.499961
 31
        0.000000
  0
LINE
  8
LVL0000
 10
       -3.500000
 20
      -52.099961
 30
        0.000000
 11
       -3.500000
 21
      -36.499961
 31
        0.000000
  0
LINE
  8
LVL0000
 10
       -3.500000
 20
      -42.299961
 30
        0.000000
 11
       -5.500000
 21
      -42.299961
 31
        0.000000
  0
LINE
  8
LVL0000
 10
       -5.500000
 20
      -46.299961
 30
        0.000000
 11
       -5.500000
 21
      -42.299961
 31
        0.000000
  0
LINE
  8
LVL0000
 10
       -3.500000
 20
      -46.299961
 30
        0.000000
 11
       -5.500000
 21
      -46.299961
 31
        0.000000
  0
LINE
  8
LVL0000
 10
       -2.800000
 20
      -27.299961
 30
        0.000000
 11
       -2.800000
 21
      -30.799961
 31
        0.000000
  0
LINE
  8
LVL0000
 10
       -2.200000
 20
      -27.299961
 30
        0.000000
 11
       -2.200000
 21
      -30.799961
 31
        0.000000
  0
LINE
  8
LVL0000
 10
       -2.200000
 20
      -30.799961
 30
        0.000000
 11
       -2.800000
 21
      -30.799961
 31
        0.000000
  0
LINE
  8
LVL0000
 10
       -2.200000
 20
      -27.299961
 30
        0.000000
 11
       -2.800000
 21
      -27.299961
 31
        0.000000
  0
LINE
  8
LVL0000
 10
       -2.200000
 20
      -29.299961
 30
        0.000000
 11
       -2.800000
 21
      -29.299961
 31
        0.000000
  0
LINE
  8
LVL0000
 10
       61.891960
 20
       39.000008
 30
        0.000000
 11
       63.391960
 21
       39.000008
 31
        0.000000
  0
LINE
  8
LVL0000
 10
       96.692009
 20
       21.750008
 30
        0.000000
 11
       99.192009
 21
       21.750008
 31
        0.000000
  0
LINE
  8
LVL0000
 10
       93.391960
 20
      -35.999992
 30
        0.000000
 11
       93.391960
 21
      -47.999992
 31
        0.000000
  0
LINE
  8
LVL0000
 10
       96.692009
 20
      -32.749992
 30
        0.000000
 11
       96.692009
 21
      -51.249992
 31
        0.000000
  0
LINE
  8
LVL0000
 10
       92.391960
 20
      -47.999992
 30
        0.000000
 11
       93.391960
 21
      -47.999992
 31
        0.000000
  0
LINE
  8
LVL0000
 10
       99.192009
 20
      -32.749992
 30
        0.000000
 11
       99.192009
 21
      -51.249992
 31
        0.000000
  0
LINE
  8
LVL0000
 10
       96.692009
 20
      -51.249992
 30
        0.000000
 11
       99.192009
 21
      -51.249992
 31
        0.000000
  0
LINE
  8
LVL0000
 10
       92.391960
 20
      -35.999992
 30
        0.000000
 11
       93.391960
 21
      -35.999992
 31
        0.000000
  0
LINE
  8
LVL0000
 10
       96.692009
 20
      -32.749992
 30
        0.000000
 11
       99.192009
 21
      -32.749992
 31
        0.000000
  0
LINE
  8
LVL0000
 10
      159.692009
 20
      -59.999992
 30
        0.000000
 11
      161.791863
 21
      -59.999992
 31
        0.000000
  0
LINE
  8
LVL0000
 10
      159.692009
 20
      -59.999992
 30
        0.000000
 11
      157.692009
 21
      -64.999992
 31
        0.000000
  0
LINE
  8
LVL0000
 10
      163.291863
 20
      -61.999992
 30
        0.000000
 11
      164.291863
 21
      -61.999992
 31
        0.000000
  0
LINE
  8
LVL0000
 10
      161.791863
 20
      -60.999992
 30
        0.000000
 11
      163.291863
 21
      -61.999992
 31
        0.000000
  0
LINE
  8
LVL0000
 10
      160.192009
 20
      -53.499992
 30
        0.000000
 11
      164.291863
 21
      -57.499992
 31
        0.000000
  0
LINE
  8
LVL0000
 10
      160.192009
 20
      -53.499992
 30
        0.000000
 11
      159.692009
 21
      -59.999992
 31
        0.000000
  0
LINE
  8
LVL0000
 10
      161.791863
 20
      -59.999992
 30
        0.000000
 11
      161.791863
 21
      -60.999992
 31
        0.000000
  0
LINE
  8
LVL0000
 10
      164.291863
 20
      -57.499992
 30
        0.000000
 11
      164.291863
 21
      -61.999992
 31
        0.000000
  0
LINE
  8
LVL0000
 10
       60.891960
 20
      -64.999992
 30
        0.000000
 11
      157.692009
 21
      -64.999992
 31
        0.000000
  0
ARC
  8
LVL0000
 10
       60.891960
 20
      -64.499992
 30
        0.000000
 40
        0.500000
 50
      180.000010
 51
      270.000000
  0
LINE
  8
LVL0000
 10
      151.841912
 20
       12.650032
 30
        0.000000
 11
      151.841912
 21
      -12.650017
 31
        0.000000
  0
LINE
  8
LVL0000
 10
      151.841912
 20
      -12.650017
 30
        0.000000
 11
      101.541863
 21
      -12.650017
 31
        0.000000
  0
LINE
  8
LVL0000
 10
      151.841912
 20
       12.650032
 30
        0.000000
 11
      101.541863
 21
       12.650032
 31
        0.000000
  0
LINE
  8
LVL0000
 10
      101.541863
 20
       12.650032
 30
        0.000000
 11
      101.541863
 21
      -12.650017
 31
        0.000000
  0
LINE
  8
LVL0000
 10
       92.391960
 20
       65.000008
 30
        0.000000
 11
       92.391960
 21
      -64.999992
 31
        0.000000
  0
LINE
  8
LVL0000
 10
       93.391960
 20
       37.000008
 30
        0.000000
 11
       93.391960
 21
       25.000008
 31
        0.000000
  0
LINE
  8
LVL0000
 10
       96.692009
 20
       40.250008
 30
        0.000000
 11
       96.692009
 21
       21.750008
 31
        0.000000
  0
LINE
  8
LVL0000
 10
       92.391960
 20
       25.000008
 30
        0.000000
 11
       93.391960
 21
       25.000008
 31
        0.000000
  0
LINE
  8
LVL0000
 10
       92.391960
 20
       37.000008
 30
        0.000000
 11
       93.391960
 21
       37.000008
 31
        0.000000
  0
LINE
  8
LVL0000
 10
       99.192009
 20
       40.250008
 30
        0.000000
 11
       99.192009
 21
       21.750008
 31
        0.000000
  0
LINE
  8
LVL0000
 10
       96.692009
 20
       40.250008
 30
        0.000000
 11
       99.192009
 21
       40.250008
 31
        0.000000
  0
LINE
  8
LVL0000
 10
       60.391960
 20
       57.000008
 30
        0.000000
 11
       63.391960
 21
       57.000008
 31
        0.000000
  0
LINE
  8
LVL0000
 10
       60.391960
 20
       40.500008
 30
        0.000000
 11
       61.891960
 21
       39.000008
 31
        0.000000
  0
LINE
  8
LVL0000
 10
      162.791863
 20
       65.000008
 30
        0.000000
 11
      162.791863
 21
       55.000008
 31
        0.000000
  0
LINE
  8
LVL0000
 10
      160.192009
 20
       55.000008
 30
        0.000000
 11
      162.791863
 21
       55.000008
 31
        0.000000
  0
LINE
  8
LVL0000
 10
      160.192009
 20
       55.000008
 30
        0.000000
 11
      160.192009
 21
      -53.499992
 31
        0.000000
  0
ARC
  8
LVL0000
 10
      167.791863
 20
       58.400032
 30
        0.000000
 40
        2.000000
 50
      270.000000
 51
      450.000000
  0
LINE
  8
LVL0000
 10
      162.791863
 20
       60.400032
 30
        0.000000
 11
      167.791863
 21
       60.400032
 31
        0.000000
  0
LINE
  8
LVL0000
 10
      162.791863
 20
       56.400032
 30
        0.000000
 11
      167.791863
 21
       56.400032
 31
        0.000000
  0
LINE
  8
LVL0000
 10
       60.391960
 20
       38.000008
 30
        0.000000
 11
       63.391960
 21
       38.000008
 31
        0.000000
  0
LINE
  8
LVL0000
 10
       60.391960
 20
       38.000008
 30
        0.000000
 11
       60.391960
 21
      -64.499992
 31
        0.000000
  0
LINE
  8
LVL0000
 10
       63.391960
 20
       38.000008
 30
        0.000000
 11
       63.391960
 21
       39.000008
 31
        0.000000
  0
LINE
  8
LVL0000
 10
       63.391960
 20
       39.000008
 30
        0.000000
 11
       63.391960
 21
       57.000008
 31
        0.000000
  0
TEXT
  8
LVL0000
 62
  2
 10
      -14.050816
 20
      113.896021
 30
        0.000000
 40
        5.000000
  1
ＪＷ２０ＦＬＴ
 50
        0.000000
 41
        0.835000
 51
        0.000000
  7
BIGFONT
  0
LINE
  8
LVL0000
 10
      162.791963
 20
       84.999991
 30
        0.000000
 11
       60.891938
 21
       85.000006
 31
        0.000000
  0
ARC
  8
LVL0000
 10
       60.891938
 20
       85.499991
 30
        0.000000
 40
        0.500000
 50
      179.999995
 51
      270.000000
  0
LINE
  8
LVL0000
 10
       76.391938
 20
       85.000006
 30
        0.000000
 11
       76.391938
 21
      120.000006
 31
        0.000000
  0
LINE
  8
LVL0000
 10
       74.391938
 20
       85.000006
 30
        0.000000
 11
       74.391938
 21
      120.000006
 31
        0.000000
  0
LINE
  8
LVL0000
 10
       76.391938
 20
       86.600012
 30
        0.000000
 11
       74.391938
 21
       86.600012
 31
        0.000000
  0
LINE
  8
LVL0000
 10
       76.391938
 20
      118.000006
 30
        0.000000
 11
       74.391938
 21
      118.000006
 31
        0.000000
  0
LINE
  8
LVL0000
 10
       80.391938
 20
       85.000006
 30
        0.000000
 11
       80.391938
 21
      120.000006
 31
        0.000000
  0
LINE
  8
LVL0000
 10
       78.391938
 20
       85.000006
 30
        0.000000
 11
       78.391938
 21
      120.000006
 31
        0.000000
  0
LINE
  8
LVL0000
 10
       80.391938
 20
       86.600012
 30
        0.000000
 11
       78.391938
 21
       86.600012
 31
        0.000000
  0
LINE
  8
LVL0000
 10
       80.391938
 20
      118.000006
 30
        0.000000
 11
       78.391938
 21
      118.000006
 31
        0.000000
  0
LINE
  8
LVL0000
 10
       84.391938
 20
       85.000006
 30
        0.000000
 11
       84.391938
 21
      120.000006
 31
        0.000000
  0
LINE
  8
LVL0000
 10
       82.391938
 20
       85.000006
 30
        0.000000
 11
       82.391938
 21
      120.000006
 31
        0.000000
  0
LINE
  8
LVL0000
 10
       84.391938
 20
       86.600012
 30
        0.000000
 11
       82.391938
 21
       86.600012
 31
        0.000000
  0
LINE
  8
LVL0000
 10
       84.391938
 20
      118.000006
 30
        0.000000
 11
       82.391938
 21
      118.000006
 31
        0.000000
  0
LINE
  8
LVL0000
 10
       88.391938
 20
       85.000006
 30
        0.000000
 11
       88.391938
 21
      120.000006
 31
        0.000000
  0
LINE
  8
LVL0000
 10
       86.391938
 20
       85.000006
 30
        0.000000
 11
       86.391938
 21
      120.000006
 31
        0.000000
  0
LINE
  8
LVL0000
 10
       88.391938
 20
       86.600012
 30
        0.000000
 11
       86.391938
 21
       86.600012
 31
        0.000000
  0
LINE
  8
LVL0000
 10
       88.391938
 20
      118.000006
 30
        0.000000
 11
       86.391938
 21
      118.000006
 31
        0.000000
  0
LINE
  8
LVL0000
 10
      164.292390
 20
      114.400000
 30
        0.000000
 11
      164.292390
 21
       93.499502
 31
        0.000000
  0
LINE
  8
LVL0000
 10
      164.292390
 20
      114.400000
 30
        0.000000
 11
      162.791963
 21
      114.400000
 31
        0.000000
  0
LINE
  8
LVL0000
 10
      162.792390
 20
       89.499502
 30
        0.000000
 11
      167.792390
 21
       89.499502
 31
        0.000000
  0
LINE
  8
LVL0000
 10
      162.792390
 20
       93.499502
 30
        0.000000
 11
      167.792390
 21
       93.499502
 31
        0.000000
  0
ARC
  8
LVL0000
 10
      167.792390
 20
       91.499502
 30
        0.000000
 40
        2.000000
 50
      270.000000
 51
      450.000000
  0
LINE
  8
LVL0000
 10
      101.391938
 20
      100.450003
 30
        0.000000
 11
      103.391938
 21
       99.999991
 31
        0.000000
  0
LINE
  8
LVL0000
 10
      101.391938
 20
      104.549978
 30
        0.000000
 11
      103.391938
 21
      104.999991
 31
        0.000000
  0
LINE
  8
LVL0000
 10
      111.391938
 20
       98.999991
 30
        0.000000
 11
      109.391938
 21
       99.099966
 31
        0.000000
  0
LINE
  8
LVL0000
 10
      109.391938
 20
      105.900015
 30
        0.000000
 11
      111.391938
 21
      105.999991
 31
        0.000000
  0
LINE
  8
LVL0000
 10
      105.391938
 20
      105.400015
 30
        0.000000
 11
      107.391938
 21
      105.700003
 31
        0.000000
  0
LINE
  8
LVL0000
 10
      107.391938
 20
       99.299978
 30
        0.000000
 11
      105.391938
 21
       99.599966
 31
        0.000000
  0
LINE
  8
LVL0000
 10
       98.891938
 20
      101.085806
 30
        0.000000
 11
       99.391938
 21
      100.900015
 31
        0.000000
  0
LINE
  8
LVL0000
 10
       99.391938
 20
      104.099966
 30
        0.000000
 11
       98.891938
 21
      103.914175
 31
        0.000000
  0
ARC
  8
LVL0000
 10
       99.391938
 20
      102.499991
 30
        0.000000
 40
        1.499973
 50
      109.471585
 51
      250.528418
  0
LINE
  8
LVL0000
 10
      115.391938
 20
       98.900015
 30
        0.000000
 11
      113.391938
 21
       98.900015
 31
        0.000000
  0
LINE
  8
LVL0000
 10
      115.391938
 20
      106.099966
 30
        0.000000
 11
      113.391938
 21
      106.099966
 31
        0.000000
  0
LINE
  8
LVL0000
 10
      119.391938
 20
       98.900015
 30
        0.000000
 11
      117.391938
 21
       98.900015
 31
        0.000000
  0
LINE
  8
LVL0000
 10
      119.391938
 20
      106.099966
 30
        0.000000
 11
      117.391938
 21
      106.099966
 31
        0.000000
  0
LINE
  8
LVL0000
 10
      123.391938
 20
       98.900015
 30
        0.000000
 11
      121.391938
 21
       98.900015
 31
        0.000000
  0
LINE
  8
LVL0000
 10
      123.391938
 20
      106.099966
 30
        0.000000
 11
      121.391938
 21
      106.099966
 31
        0.000000
  0
LINE
  8
LVL0000
 10
      127.391938
 20
       98.900015
 30
        0.000000
 11
      125.391938
 21
       98.900015
 31
        0.000000
  0
LINE
  8
LVL0000
 10
      127.391938
 20
      106.099966
 30
        0.000000
 11
      125.391938
 21
      106.099966
 31
        0.000000
  0
LINE
  8
LVL0000
 10
      131.391938
 20
       98.900015
 30
        0.000000
 11
      129.391938
 21
       98.900015
 31
        0.000000
  0
LINE
  8
LVL0000
 10
      131.391938
 20
      106.099966
 30
        0.000000
 11
      129.391938
 21
      106.099966
 31
        0.000000
  0
LINE
  8
LVL0000
 10
      135.391938
 20
       98.900015
 30
        0.000000
 11
      133.391938
 21
       98.900015
 31
        0.000000
  0
LINE
  8
LVL0000
 10
      135.391938
 20
      106.099966
 30
        0.000000
 11
      133.391938
 21
      106.099966
 31
        0.000000
  0
LINE
  8
LVL0000
 10
      139.391938
 20
       98.900015
 30
        0.000000
 11
      137.391938
 21
       98.900015
 31
        0.000000
  0
LINE
  8
LVL0000
 10
      139.391938
 20
      106.099966
 30
        0.000000
 11
      137.391938
 21
      106.099966
 31
        0.000000
  0
LINE
  8
LVL0000
 10
      143.391938
 20
       98.900015
 30
        0.000000
 11
      141.391938
 21
       98.900015
 31
        0.000000
  0
LINE
  8
LVL0000
 10
      143.391938
 20
      106.099966
 30
        0.000000
 11
      141.391938
 21
      106.099966
 31
        0.000000
  0
LINE
  8
LVL0000
 10
      147.391938
 20
       98.900015
 30
        0.000000
 11
      145.391938
 21
       98.900015
 31
        0.000000
  0
LINE
  8
LVL0000
 10
      147.391938
 20
      106.099966
 30
        0.000000
 11
      145.391938
 21
      106.099966
 31
        0.000000
  0
LINE
  8
LVL0000
 10
      151.391938
 20
       98.900015
 30
        0.000000
 11
      149.391938
 21
       98.900015
 31
        0.000000
  0
LINE
  8
LVL0000
 10
      151.391938
 20
      106.099966
 30
        0.000000
 11
      149.391938
 21
      106.099966
 31
        0.000000
  0
LINE
  8
LVL0000
 10
      151.391938
 20
       84.999991
 30
        0.000000
 11
      151.391938
 21
       99.231131
 31
        0.000000
  0
LINE
  8
LVL0000
 10
      151.391938
 20
      105.768850
 30
        0.000000
 11
      151.391938
 21
      119.999991
 31
        0.000000
  0
LINE
  8
LVL0000
 10
      153.391938
 20
       87.999991
 30
        0.000000
 11
      151.391938
 21
       87.999991
 31
        0.000000
  0
LINE
  8
LVL0000
 10
      153.391938
 20
      116.999991
 30
        0.000000
 11
      151.391938
 21
      116.999991
 31
        0.000000
  0
LINE
  8
LVL0000
 10
      149.391938
 20
       87.999991
 30
        0.000000
 11
      147.391938
 21
       87.999991
 31
        0.000000
  0
LINE
  8
LVL0000
 10
      149.391938
 20
      116.999991
 30
        0.000000
 11
      147.391938
 21
      116.999991
 31
        0.000000
  0
LINE
  8
LVL0000
 10
      149.391938
 20
       84.999991
 30
        0.000000
 11
      149.391938
 21
      119.999991
 31
        0.000000
  0
LINE
  8
LVL0000
 10
      147.391938
 20
       84.999991
 30
        0.000000
 11
      147.391938
 21
      119.999991
 31
        0.000000
  0
LINE
  8
LVL0000
 10
      145.391938
 20
       87.999991
 30
        0.000000
 11
      143.391938
 21
       87.999991
 31
        0.000000
  0
LINE
  8
LVL0000
 10
      145.391938
 20
      116.999991
 30
        0.000000
 11
      143.391938
 21
      116.999991
 31
        0.000000
  0
LINE
  8
LVL0000
 10
      145.391938
 20
       84.999991
 30
        0.000000
 11
      145.391938
 21
      119.999991
 31
        0.000000
  0
LINE
  8
LVL0000
 10
      143.391938
 20
       84.999991
 30
        0.000000
 11
      143.391938
 21
      119.999991
 31
        0.000000
  0
LINE
  8
LVL0000
 10
      141.391938
 20
       87.999991
 30
        0.000000
 11
      139.391938
 21
       87.999991
 31
        0.000000
  0
LINE
  8
LVL0000
 10
      141.391938
 20
      116.999991
 30
        0.000000
 11
      139.391938
 21
      116.999991
 31
        0.000000
  0
LINE
  8
LVL0000
 10
      141.391938
 20
       84.999991
 30
        0.000000
 11
      141.391938
 21
      119.999991
 31
        0.000000
  0
LINE
  8
LVL0000
 10
      139.391938
 20
       84.999991
 30
        0.000000
 11
      139.391938
 21
      119.999991
 31
        0.000000
  0
LINE
  8
LVL0000
 10
      137.391938
 20
       87.999991
 30
        0.000000
 11
      135.391938
 21
       87.999991
 31
        0.000000
  0
LINE
  8
LVL0000
 10
      137.391938
 20
      116.999991
 30
        0.000000
 11
      135.391938
 21
      116.999991
 31
        0.000000
  0
LINE
  8
LVL0000
 10
      137.391938
 20
       84.999991
 30
        0.000000
 11
      137.391938
 21
      119.999991
 31
        0.000000
  0
LINE
  8
LVL0000
 10
      135.391938
 20
       84.999991
 30
        0.000000
 11
      135.391938
 21
      119.999991
 31
        0.000000
  0
LINE
  8
LVL0000
 10
      133.391938
 20
       87.999991
 30
        0.000000
 11
      131.391938
 21
       87.999991
 31
        0.000000
  0
LINE
  8
LVL0000
 10
      133.391938
 20
      116.999991
 30
        0.000000
 11
      131.391938
 21
      116.999991
 31
        0.000000
  0
LINE
  8
LVL0000
 10
      133.391938
 20
       84.999991
 30
        0.000000
 11
      133.391938
 21
      119.999991
 31
        0.000000
  0
LINE
  8
LVL0000
 10
      131.391938
 20
       84.999991
 30
        0.000000
 11
      131.391938
 21
      119.999991
 31
        0.000000
  0
LINE
  8
LVL0000
 10
      129.391938
 20
       87.999991
 30
        0.000000
 11
      127.391938
 21
       87.999991
 31
        0.000000
  0
LINE
  8
LVL0000
 10
      129.391938
 20
      116.999991
 30
        0.000000
 11
      127.391938
 21
      116.999991
 31
        0.000000
  0
LINE
  8
LVL0000
 10
      129.391938
 20
       84.999991
 30
        0.000000
 11
      129.391938
 21
      119.999991
 31
        0.000000
  0
LINE
  8
LVL0000
 10
      127.391938
 20
       84.999991
 30
        0.000000
 11
      127.391938
 21
      119.999991
 31
        0.000000
  0
LINE
  8
LVL0000
 10
      125.391938
 20
       87.999991
 30
        0.000000
 11
      123.391938
 21
       87.999991
 31
        0.000000
  0
LINE
  8
LVL0000
 10
      125.391938
 20
      116.999991
 30
        0.000000
 11
      123.391938
 21
      116.999991
 31
        0.000000
  0
LINE
  8
LVL0000
 10
      125.391938
 20
       84.999991
 30
        0.000000
 11
      125.391938
 21
      119.999991
 31
        0.000000
  0
LINE
  8
LVL0000
 10
      123.391938
 20
       84.999991
 30
        0.000000
 11
      123.391938
 21
      119.999991
 31
        0.000000
  0
LINE
  8
LVL0000
 10
      121.391938
 20
       87.999991
 30
        0.000000
 11
      119.391938
 21
       87.999991
 31
        0.000000
  0
LINE
  8
LVL0000
 10
      121.391938
 20
      116.999991
 30
        0.000000
 11
      119.391938
 21
      116.999991
 31
        0.000000
  0
LINE
  8
LVL0000
 10
      121.391938
 20
       84.999991
 30
        0.000000
 11
      121.391938
 21
      119.999991
 31
        0.000000
  0
LINE
  8
LVL0000
 10
      119.391938
 20
       84.999991
 30
        0.000000
 11
      119.391938
 21
      119.999991
 31
        0.000000
  0
LINE
  8
LVL0000
 10
      117.391938
 20
       87.999991
 30
        0.000000
 11
      115.391938
 21
       87.999991
 31
        0.000000
  0
LINE
  8
LVL0000
 10
      117.391938
 20
      116.999991
 30
        0.000000
 11
      115.391938
 21
      116.999991
 31
        0.000000
  0
LINE
  8
LVL0000
 10
      117.391938
 20
       84.999991
 30
        0.000000
 11
      117.391938
 21
      119.999991
 31
        0.000000
  0
LINE
  8
LVL0000
 10
      115.391938
 20
       84.999991
 30
        0.000000
 11
      115.391938
 21
      119.999991
 31
        0.000000
  0
LINE
  8
LVL0000
 10
      113.391938
 20
       87.999991
 30
        0.000000
 11
      111.391938
 21
       87.999991
 31
        0.000000
  0
LINE
  8
LVL0000
 10
      113.391938
 20
      116.999991
 30
        0.000000
 11
      111.391938
 21
      116.999991
 31
        0.000000
  0
LINE
  8
LVL0000
 10
      113.391938
 20
       84.999991
 30
        0.000000
 11
      113.391938
 21
      119.999991
 31
        0.000000
  0
LINE
  8
LVL0000
 10
      111.391938
 20
       84.999991
 30
        0.000000
 11
      111.391938
 21
      119.999991
 31
        0.000000
  0
LINE
  8
LVL0000
 10
      109.391938
 20
       87.999991
 30
        0.000000
 11
      107.391938
 21
       87.999991
 31
        0.000000
  0
LINE
  8
LVL0000
 10
      109.391938
 20
      116.999991
 30
        0.000000
 11
      107.391938
 21
      116.999991
 31
        0.000000
  0
LINE
  8
LVL0000
 10
      109.391938
 20
       84.999991
 30
        0.000000
 11
      109.391938
 21
      119.999991
 31
        0.000000
  0
LINE
  8
LVL0000
 10
      107.391938
 20
       84.999991
 30
        0.000000
 11
      107.391938
 21
      119.999991
 31
        0.000000
  0
LINE
  8
LVL0000
 10
      105.391938
 20
       87.999991
 30
        0.000000
 11
      103.391938
 21
       87.999991
 31
        0.000000
  0
LINE
  8
LVL0000
 10
      105.391938
 20
      116.999991
 30
        0.000000
 11
      103.391938
 21
      116.999991
 31
        0.000000
  0
LINE
  8
LVL0000
 10
      105.391938
 20
       84.999991
 30
        0.000000
 11
      105.391938
 21
      119.999991
 31
        0.000000
  0
LINE
  8
LVL0000
 10
      103.391938
 20
       84.999991
 30
        0.000000
 11
      103.391938
 21
      119.999991
 31
        0.000000
  0
LINE
  8
LVL0000
 10
      150.691926
 20
      104.499991
 30
        0.000000
 11
      150.691926
 21
      100.499991
 31
        0.000000
  0
LINE
  8
LVL0000
 10
      153.391938
 20
       98.999991
 30
        0.000000
 11
      152.191926
 21
       98.999991
 31
        0.000000
  0
ARC
  8
LVL0000
 10
      152.191926
 20
      100.499991
 30
        0.000000
 40
        1.500000
 50
      180.000010
 51
      270.000000
  0
ARC
  8
LVL0000
 10
      152.191926
 20
      104.499991
 30
        0.000000
 40
        1.500000
 50
       90.000000
 51
      180.000010
  0
LINE
  8
LVL0000
 10
      153.391938
 20
      105.999991
 30
        0.000000
 11
      152.191926
 21
      105.999991
 31
        0.000000
  0
LINE
  8
LVL0000
 10
      153.391938
 20
      119.999991
 30
        0.000000
 11
      153.391938
 21
       84.999991
 31
        0.000000
  0
LINE
  8
LVL0000
 10
      101.391938
 20
       87.999991
 30
        0.000000
 11
       99.391938
 21
       87.999991
 31
        0.000000
  0
LINE
  8
LVL0000
 10
      101.391938
 20
      116.999991
 30
        0.000000
 11
       99.391938
 21
      116.999991
 31
        0.000000
  0
LINE
  8
LVL0000
 10
      101.391938
 20
       84.999991
 30
        0.000000
 11
      101.391938
 21
      119.999991
 31
        0.000000
  0
LINE
  8
LVL0000
 10
       99.391938
 20
       84.999991
 30
        0.000000
 11
       99.391938
 21
      119.999991
 31
        0.000000
  0
LINE
  8
LVL0000
 10
       92.391938
 20
       84.999991
 30
        0.000000
 11
       92.391938
 21
      119.999991
 31
        0.000000
  0
LINE
  8
LVL0000
 10
      162.791963
 20
      119.999991
 30
        0.000000
 11
      162.791963
 21
       84.999991
 31
        0.000000
  0
LINE
  8
LVL0000
 10
      162.791963
 20
      119.999991
 30
        0.000000
 11
       60.891938
 21
      120.000006
 31
        0.000000
  0
ARC
  8
LVL0000
 10
       60.891938
 20
      119.499991
 30
        0.000000
 40
        0.500015
 50
       90.000000
 51
      179.999995
  0
LINE
  8
LVL0000
 10
       60.391938
 20
       85.499991
 30
        0.000000
 11
       60.391938
 21
      119.499991
 31
        0.000000
  0
LINE
  8
LVL0000
 10
       -0.500000
 20
       54.600000
 30
        0.000000
 11
        0.700000
 21
       54.600000
 31
        0.000000
  0
LINE
  8
LVL0000
 10
        2.200000
 20
       54.600000
 30
        0.000000
 11
        3.400000
 21
       54.600000
 31
        0.000000
  0
LINE
  8
LVL0000
 10
        4.900000
 20
       54.600000
 30
        0.000000
 11
        6.100000
 21
       54.600000
 31
        0.000000
  0
LINE
  8
LVL0000
 10
       -0.500000
 20
       54.600000
 30
        0.000000
 11
       -0.500000
 21
       52.600000
 31
        0.000000
  0
LINE
  8
LVL0000
 10
        2.200000
 20
       54.600000
 30
        0.000000
 11
        2.200000
 21
       52.600000
 31
        0.000000
  0
LINE
  8
LVL0000
 10
        4.900000
 20
       54.600000
 30
        0.000000
 11
        4.900000
 21
       52.600000
 31
        0.000000
  0
LINE
  8
LVL0000
 10
       -0.500000
 20
       52.600000
 30
        0.000000
 11
        0.700000
 21
       52.600000
 31
        0.000000
  0
LINE
  8
LVL0000
 10
        2.200000
 20
       52.600000
 30
        0.000000
 11
        3.400000
 21
       52.600000
 31
        0.000000
  0
LINE
  8
LVL0000
 10
        4.900000
 20
       52.600000
 30
        0.000000
 11
        6.100000
 21
       52.600000
 31
        0.000000
  0
LINE
  8
LVL0000
 10
        0.700000
 20
       54.600000
 30
        0.000000
 11
        0.700000
 21
       52.600000
 31
        0.000000
  0
LINE
  8
LVL0000
 10
        3.400000
 20
       54.600000
 30
        0.000000
 11
        3.400000
 21
       52.600000
 31
        0.000000
  0
LINE
  8
LVL0000
 10
        6.100000
 20
       54.600000
 30
        0.000000
 11
        6.100000
 21
       52.600000
 31
        0.000000
  0
LINE
  8
LVL0000
 10
        4.900000
 20
       45.600000
 30
        0.000000
 11
        6.100000
 21
       45.600000
 31
        0.000000
  0
LINE
  8
LVL0000
 10
        2.200000
 20
       45.600000
 30
        0.000000
 11
        3.400000
 21
       45.600000
 31
        0.000000
  0
LINE
  8
LVL0000
 10
       -0.500000
 20
       45.600000
 30
        0.000000
 11
        0.700000
 21
       45.600000
 31
        0.000000
  0
LINE
  8
LVL0000
 10
        7.600000
 20
       45.600000
 30
        0.000000
 11
        8.800000
 21
       45.600000
 31
        0.000000
  0
LINE
  8
LVL0000
 10
       -3.200000
 20
       45.600000
 30
        0.000000
 11
       -2.000000
 21
       45.600000
 31
        0.000000
  0
LINE
  8
LVL0000
 10
       -5.900000
 20
       45.600000
 30
        0.000000
 11
       -4.700000
 21
       45.600000
 31
        0.000000
  0
LINE
  8
LVL0000
 10
       -8.600000
 20
       45.600000
 30
        0.000000
 11
       -7.400000
 21
       45.600000
 31
        0.000000
  0
LINE
  8
LVL0000
 10
      -11.300000
 20
       45.600000
 30
        0.000000
 11
      -10.100000
 21
       45.600000
 31
        0.000000
  0
LINE
  8
LVL0000
 10
        6.100000
 20
       47.600000
 30
        0.000000
 11
        6.100000
 21
       45.600000
 31
        0.000000
  0
LINE
  8
LVL0000
 10
        3.400000
 20
       47.600000
 30
        0.000000
 11
        3.400000
 21
       45.600000
 31
        0.000000
  0
LINE
  8
LVL0000
 10
        0.700000
 20
       47.600000
 30
        0.000000
 11
        0.700000
 21
       45.600000
 31
        0.000000
  0
LINE
  8
LVL0000
 10
        4.900000
 20
       47.600000
 30
        0.000000
 11
        4.900000
 21
       45.600000
 31
        0.000000
  0
LINE
  8
LVL0000
 10
        2.200000
 20
       47.600000
 30
        0.000000
 11
        2.200000
 21
       45.600000
 31
        0.000000
  0
LINE
  8
LVL0000
 10
       -0.500000
 20
       47.600000
 30
        0.000000
 11
       -0.500000
 21
       45.600000
 31
        0.000000
  0
LINE
  8
LVL0000
 10
        4.900000
 20
       47.600000
 30
        0.000000
 11
        6.100000
 21
       47.600000
 31
        0.000000
  0
LINE
  8
LVL0000
 10
        2.200000
 20
       47.600000
 30
        0.000000
 11
        3.400000
 21
       47.600000
 31
        0.000000
  0
LINE
  8
LVL0000
 10
       -0.500000
 20
       47.600000
 30
        0.000000
 11
        0.700000
 21
       47.600000
 31
        0.000000
  0
LINE
  8
LVL0000
 10
        7.600000
 20
       47.600000
 30
        0.000000
 11
        8.800000
 21
       47.600000
 31
        0.000000
  0
LINE
  8
LVL0000
 10
        8.800000
 20
       47.600000
 30
        0.000000
 11
        8.800000
 21
       45.600000
 31
        0.000000
  0
LINE
  8
LVL0000
 10
        7.600000
 20
       47.600000
 30
        0.000000
 11
        7.600000
 21
       45.600000
 31
        0.000000
  0
LINE
  8
LVL0000
 10
       -2.000000
 20
       47.600000
 30
        0.000000
 11
       -2.000000
 21
       45.600000
 31
        0.000000
  0
LINE
  8
LVL0000
 10
       -4.700000
 20
       47.600000
 30
        0.000000
 11
       -4.700000
 21
       45.600000
 31
        0.000000
  0
LINE
  8
LVL0000
 10
       -7.400000
 20
       47.600000
 30
        0.000000
 11
       -7.400000
 21
       45.600000
 31
        0.000000
  0
LINE
  8
LVL0000
 10
       -3.200000
 20
       47.600000
 30
        0.000000
 11
       -2.000000
 21
       47.600000
 31
        0.000000
  0
LINE
  8
LVL0000
 10
       -5.900000
 20
       47.600000
 30
        0.000000
 11
       -4.700000
 21
       47.600000
 31
        0.000000
  0
LINE
  8
LVL0000
 10
       -8.600000
 20
       47.600000
 30
        0.000000
 11
       -7.400000
 21
       47.600000
 31
        0.000000
  0
LINE
  8
LVL0000
 10
       -3.200000
 20
       47.600000
 30
        0.000000
 11
       -3.200000
 21
       45.600000
 31
        0.000000
  0
LINE
  8
LVL0000
 10
       -5.900000
 20
       47.600000
 30
        0.000000
 11
       -5.900000
 21
       45.600000
 31
        0.000000
  0
LINE
  8
LVL0000
 10
       -8.600000
 20
       47.600000
 30
        0.000000
 11
       -8.600000
 21
       45.600000
 31
        0.000000
  0
LINE
  8
LVL0000
 10
      -11.300000
 20
       47.600000
 30
        0.000000
 11
      -10.100000
 21
       47.600000
 31
        0.000000
  0
LINE
  8
LVL0000
 10
      -10.100000
 20
       47.600000
 30
        0.000000
 11
      -10.100000
 21
       45.600000
 31
        0.000000
  0
LINE
  8
LVL0000
 10
      -11.300000
 20
       47.600000
 30
        0.000000
 11
      -11.300000
 21
       45.600000
 31
        0.000000
  0
LINE
  8
LVL0000
 10
      -11.300000
 20
       54.600000
 30
        0.000000
 11
      -11.300000
 21
       52.600000
 31
        0.000000
  0
LINE
  8
LVL0000
 10
      -11.300000
 20
       52.600000
 30
        0.000000
 11
      -10.100000
 21
       52.600000
 31
        0.000000
  0
LINE
  8
LVL0000
 10
      -10.100000
 20
       54.600000
 30
        0.000000
 11
      -10.100000
 21
       52.600000
 31
        0.000000
  0
LINE
  8
LVL0000
 10
      -11.300000
 20
       54.600000
 30
        0.000000
 11
      -10.100000
 21
       54.600000
 31
        0.000000
  0
LINE
  8
LVL0000
 10
       -5.900000
 20
       54.600000
 30
        0.000000
 11
       -5.900000
 21
       52.600000
 31
        0.000000
  0
LINE
  8
LVL0000
 10
       -5.900000
 20
       54.600000
 30
        0.000000
 11
       -4.700000
 21
       54.600000
 31
        0.000000
  0
LINE
  8
LVL0000
 10
       -4.700000
 20
       54.600000
 30
        0.000000
 11
       -4.700000
 21
       52.600000
 31
        0.000000
  0
LINE
  8
LVL0000
 10
       -5.900000
 20
       52.600000
 30
        0.000000
 11
       -4.700000
 21
       52.600000
 31
        0.000000
  0
LINE
  8
LVL0000
 10
        7.600000
 20
       54.600000
 30
        0.000000
 11
        7.600000
 21
       52.600000
 31
        0.000000
  0
LINE
  8
LVL0000
 10
        7.600000
 20
       52.600000
 30
        0.000000
 11
        8.800000
 21
       52.600000
 31
        0.000000
  0
LINE
  8
LVL0000
 10
        8.800000
 20
       54.600000
 30
        0.000000
 11
        8.800000
 21
       52.600000
 31
        0.000000
  0
LINE
  8
LVL0000
 10
        7.600000
 20
       54.600000
 30
        0.000000
 11
        8.800000
 21
       54.600000
 31
        0.000000
  0
LINE
  8
LVL0000
 10
       -8.600000
 20
       54.600000
 30
        0.000000
 11
       -8.600000
 21
       52.600000
 31
        0.000000
  0
LINE
  8
LVL0000
 10
       -8.600000
 20
       54.600000
 30
        0.000000
 11
       -7.400000
 21
       54.600000
 31
        0.000000
  0
LINE
  8
LVL0000
 10
       -7.400000
 20
       54.600000
 30
        0.000000
 11
       -7.400000
 21
       52.600000
 31
        0.000000
  0
LINE
  8
LVL0000
 10
       -8.600000
 20
       52.600000
 30
        0.000000
 11
       -7.400000
 21
       52.600000
 31
        0.000000
  0
LINE
  8
LVL0000
 10
       -3.200000
 20
       54.600000
 30
        0.000000
 11
       -3.200000
 21
       52.600000
 31
        0.000000
  0
LINE
  8
LVL0000
 10
       -3.200000
 20
       54.600000
 30
        0.000000
 11
       -2.000000
 21
       54.600000
 31
        0.000000
  0
LINE
  8
LVL0000
 10
       -2.000000
 20
       54.600000
 30
        0.000000
 11
       -2.000000
 21
       52.600000
 31
        0.000000
  0
LINE
  8
LVL0000
 10
       -3.200000
 20
       52.600000
 30
        0.000000
 11
       -2.000000
 21
       52.600000
 31
        0.000000
  0
LINE
  8
LVL0000
 10
        8.141136
 20
      -10.749950
 30
        0.000000
 11
       -2.600006
 21
      -10.749950
 31
        0.000000
  0
ARC
  8
LVL0000
 10
        8.000000
 20
       -9.759959
 30
        0.000000
 40
        1.000000
 50
      270.000000
 51
      360.000000
  0
ARC
  8
LVL0000
 10
       -2.600006
 20
       -9.749950
 30
        0.000000
 40
        1.000000
 50
      179.999995
 51
      270.000000
  0
LINE
  8
LVL0000
 10
      -17.000000
 20
      -64.599992
 30
        0.000000
 11
       17.000000
 21
      -64.599992
 31
        0.000000
  0
LINE
  8
LVL0000
 10
       17.000000
 20
      -64.599992
 30
        0.000000
 11
       17.000000
 21
       37.100008
 31
        0.000000
  0
LINE
  8
LVL0000
 10
      -17.000000
 20
      -64.599992
 30
        0.000000
 11
      -17.000000
 21
       37.100008
 31
        0.000000
  0
LINE
  8
LVL0000
 10
      -17.500000
 20
      -64.499992
 30
        0.000000
 11
      -17.500000
 21
       64.500008
 31
        0.000000
  0
ARC
  8
LVL0000
 10
       17.000000
 20
      -64.499992
 30
        0.000000
 40
        0.500000
 50
      270.000000
 51
      360.000000
  0
LINE
  8
LVL0000
 10
      -17.000000
 20
      -64.999992
 30
        0.000000
 11
       17.000000
 21
      -64.999992
 31
        0.000000
  0
ARC
  8
LVL0000
 10
      -17.000000
 20
      -64.499992
 30
        0.000000
 40
        0.500000
 50
      180.000010
 51
      270.000000
  0
LINE
  8
LVL0000
 10
       17.500000
 20
      -64.499992
 30
        0.000000
 11
       17.500000
 21
       64.500008
 31
        0.000000
  0
ARC
  8
LVL0000
 10
      -16.700000
 20
       37.100008
 30
        0.000000
 40
        0.300000
 50
       90.000000
 51
      179.999995
  0
ARC
  8
LVL0000
 10
       16.700000
 20
       37.100008
 30
        0.000000
 40
        0.300000
 50
        0.000000
 51
       90.000000
  0
LINE
  8
LVL0000
 10
        9.400024
 20
       37.400008
 30
        0.000000
 11
        9.400024
 21
       38.300020
 31
        0.000000
  0
LINE
  8
LVL0000
 10
        9.400024
 20
       37.400008
 30
        0.000000
 11
       16.700000
 21
       37.400008
 31
        0.000000
  0
LINE
  8
LVL0000
 10
      -16.700000
 20
       37.400008
 30
        0.000000
 11
       -9.399963
 21
       37.400008
 31
        0.000000
  0
LINE
  8
LVL0000
 10
       -9.399963
 20
       38.300020
 30
        0.000000
 11
        9.400024
 21
       38.300020
 31
        0.000000
  0
LINE
  8
LVL0000
 10
       -9.399963
 20
       37.400008
 30
        0.000000
 11
       -9.399963
 21
       38.300020
 31
        0.000000
  0
LINE
  8
LVL0000
 10
      -17.500000
 20
       40.500008
 30
        0.000000
 11
       17.500000
 21
       40.500008
 31
        0.000000
  0
LINE
  8
LVL0000
 10
      -17.500000
 20
       39.000008
 30
        0.000000
 11
       17.500000
 21
       39.000008
 31
        0.000000
  0
LINE
  8
LVL0000
 10
        9.900024
 20
       38.000008
 30
        0.000000
 11
        9.900024
 21
       39.000008
 31
        0.000000
  0
LINE
  8
LVL0000
 10
       14.100037
 20
       38.000008
 30
        0.000000
 11
       14.100037
 21
       39.000008
 31
        0.000000
  0
LINE
  8
LVL0000
 10
      -14.099976
 20
       38.000008
 30
        0.000000
 11
      -14.099976
 21
       39.000008
 31
        0.000000
  0
LINE
  8
LVL0000
 10
       -9.899963
 20
       38.000008
 30
        0.000000
 11
       -9.899963
 21
       39.000008
 31
        0.000000
  0
LINE
  8
LVL0000
 10
      -16.449951
 20
       38.000008
 30
        0.000000
 11
      -16.449951
 21
       39.000008
 31
        0.000000
  0
LINE
  8
LVL0000
 10
       16.450073
 20
       38.000008
 30
        0.000000
 11
       16.450073
 21
       39.000008
 31
        0.000000
  0
LINE
  8
LVL0000
 10
        9.900024
 20
       38.000008
 30
        0.000000
 11
       17.500000
 21
       38.000008
 31
        0.000000
  0
ARC
  8
LVL0000
 10
      -17.000000
 20
       64.500008
 30
        0.000000
 40
        0.500000
 50
       90.000000
 51
      180.000010
  0
LINE
  8
LVL0000
 10
      -17.000000
 20
       65.000008
 30
        0.000000
 11
       17.000000
 21
       65.000008
 31
        0.000000
  0
ARC
  8
LVL0000
 10
       17.000000
 20
       64.500008
 30
        0.000000
 40
        0.500000
 50
        0.000000
 51
       90.000000
  0
LINE
  8
LVL0000
 10
      -16.099976
 20
       63.500008
 30
        0.000000
 11
       16.100037
 21
       63.500008
 31
        0.000000
  0
LINE
  8
LVL0000
 10
      -16.099976
 20
       58.000008
 30
        0.000000
 11
       16.100037
 21
       58.000008
 31
        0.000000
  0
LINE
  8
LVL0000
 10
       16.100037
 20
       58.000008
 30
        0.000000
 11
       16.100037
 21
       63.500008
 31
        0.000000
  0
LINE
  8
LVL0000
 10
      -16.099976
 20
       58.000008
 30
        0.000000
 11
      -16.099976
 21
       63.500008
 31
        0.000000
  0
LINE
  8
LVL0000
 10
      -17.500000
 20
       57.000008
 30
        0.000000
 11
       17.500000
 21
       57.000008
 31
        0.000000
  0
LINE
  8
LVL0000
 10
       -9.899963
 20
       38.700020
 30
        0.000000
 11
        9.900024
 21
       38.700020
 31
        0.000000
  0
LINE
  8
LVL0000
 10
      -17.500000
 20
       38.000008
 30
        0.000000
 11
       -9.899963
 21
       38.000008
 31
        0.000000
  0
LINE
  8
LVL0000
 10
        1.256606
 20
       -5.199947
 30
        0.000000
 11
       -0.186770
 21
       -7.699947
 31
        0.000000
  0
LINE
  8
LVL0000
 10
       -0.186770
 20
       -7.699947
 30
        0.000000
 11
        1.256606
 21
      -10.199947
 31
        0.000000
  0
CIRCLE
  8
LVL0000
 10
        2.699982
 20
       -7.699947
 30
        0.000000
 40
        2.500000
  0
CIRCLE
  8
LVL0000
 10
        2.699982
 20
       -7.699947
 30
        0.000000
 40
        1.250000
  0
LINE
  8
LVL0000
 10
        4.143357
 20
       -5.199947
 30
        0.000000
 11
        1.256606
 21
       -5.199947
 31
        0.000000
  0
LINE
  8
LVL0000
 10
        5.586733
 20
       -7.699947
 30
        0.000000
 11
        4.143357
 21
       -5.199947
 31
        0.000000
  0
LINE
  8
LVL0000
 10
        4.143357
 20
      -10.199947
 30
        0.000000
 11
        5.586733
 21
       -7.699947
 31
        0.000000
  0
LINE
  8
LVL0000
 10
        1.256606
 20
      -10.199947
 30
        0.000000
 11
        4.143357
 21
      -10.199947
 31
        0.000000
  0
LINE
  8
LVL0000
 10
        4.143357
 20
       27.800053
 30
        0.000000
 11
        1.256606
 21
       27.800053
 31
        0.000000
  0
LINE
  8
LVL0000
 10
       -0.186770
 20
       25.300053
 30
        0.000000
 11
        1.256606
 21
       22.800053
 31
        0.000000
  0
LINE
  8
LVL0000
 10
        1.256606
 20
       27.800053
 30
        0.000000
 11
       -0.186770
 21
       25.300053
 31
        0.000000
  0
LINE
  8
LVL0000
 10
        5.586733
 20
       25.300053
 30
        0.000000
 11
        4.143357
 21
       27.800053
 31
        0.000000
  0
CIRCLE
  8
LVL0000
 10
        2.699982
 20
       25.300053
 30
        0.000000
 40
        2.500000
  0
LINE
  8
LVL0000
 10
        4.143357
 20
       22.800053
 30
        0.000000
 11
        5.586733
 21
       25.300053
 31
        0.000000
  0
LINE
  8
LVL0000
 10
        1.256606
 20
       22.800053
 30
        0.000000
 11
        4.143357
 21
       22.800053
 31
        0.000000
  0
CIRCLE
  8
LVL0000
 10
        2.699982
 20
       25.300053
 30
        0.000000
 40
        1.250000
  0
CIRCLE
  8
LVL0000
 10
        1.290009
 20
       15.050053
 30
        0.000000
 40
        0.500000
  0
CIRCLE
  8
LVL0000
 10
        1.290009
 20
       12.550053
 30
        0.000000
 40
        0.500000
  0
CIRCLE
  8
LVL0000
 10
        1.290009
 20
       10.050053
 30
        0.000000
 40
        0.500000
  0
CIRCLE
  8
LVL0000
 10
        1.290009
 20
        7.550053
 30
        0.000000
 40
        0.500000
  0
CIRCLE
  8
LVL0000
 10
        1.290009
 20
        5.050053
 30
        0.000000
 40
        0.500000
  0
CIRCLE
  8
LVL0000
 10
        1.290009
 20
        2.550053
 30
        0.000000
 40
        0.500000
  0
CIRCLE
  8
LVL0000
 10
        1.290009
 20
        0.050053
 30
        0.000000
 40
        0.500000
  0
CIRCLE
  8
LVL0000
 10
        1.290009
 20
       17.550053
 30
        0.000000
 40
        0.500000
  0
CIRCLE
  8
LVL0000
 10
        4.110016
 20
        6.300053
 30
        0.000000
 40
        0.500000
  0
CIRCLE
  8
LVL0000
 10
        4.110016
 20
        3.800053
 30
        0.000000
 40
        0.500000
  0
CIRCLE
  8
LVL0000
 10
        4.110016
 20
        1.300053
 30
        0.000000
 40
        0.500000
  0
CIRCLE
  8
LVL0000
 10
        4.110016
 20
       16.300053
 30
        0.000000
 40
        0.500000
  0
CIRCLE
  8
LVL0000
 10
        4.110016
 20
       13.800053
 30
        0.000000
 40
        0.500000
  0
CIRCLE
  8
LVL0000
 10
        4.110016
 20
       11.300053
 30
        0.000000
 40
        0.500000
  0
CIRCLE
  8
LVL0000
 10
        4.110016
 20
        8.800053
 30
        0.000000
 40
        0.500000
  0
LINE
  8
LVL0000
 10
        9.000000
 20
       -9.759959
 30
        0.000000
 11
        9.000000
 21
       27.350056
 31
        0.000000
  0
LINE
  8
LVL0000
 10
       -3.600006
 20
       -9.749950
 30
        0.000000
 11
       -3.600006
 21
       27.350056
 31
        0.000000
  0
ARC
  8
LVL0000
 10
        8.000000
 20
       27.350056
 30
        0.000000
 40
        1.000000
 50
        0.000000
 51
       90.000000
  0
LINE
  8
LVL0000
 10
        8.000000
 20
       28.350056
 30
        0.000000
 11
       -2.600006
 21
       28.350056
 31
        0.000000
  0
ARC
  8
LVL0000
 10
       -2.600006
 20
       27.350056
 30
        0.000000
 40
        1.000000
 50
       90.000000
 51
      179.999995
  0
ARC
  8
LVL0000
 10
        4.610016
 20
       16.720191
 30
        0.000000
 40
        2.000000
 50
        0.000000
 51
       69.011618
  0
LINE
  8
LVL0000
 10
        6.610016
 20
        0.879916
 30
        0.000000
 11
        6.610016
 21
       16.720191
 31
        0.000000
  0
LINE
  8
LVL0000
 10
        1.506366
 20
       20.052972
 30
        0.000000
 11
        5.326373
 21
       18.587497
 31
        0.000000
  0
ARC
  8
LVL0000
 10
        4.610016
 20
        0.879916
 30
        0.000000
 40
        2.000000
 50
      290.988382
 51
      360.000000
  0
LINE
  8
LVL0000
 10
        1.506366
 20
       -2.452865
 30
        0.000000
 11
        5.326373
 21
       -0.987390
 31
        0.000000
  0
ARC
  8
LVL0000
 10
        0.790009
 20
       -0.585559
 30
        0.000000
 40
        2.000000
 50
      179.999995
 51
      290.988382
  0
LINE
  8
LVL0000
 10
       -1.209991
 20
       -0.585559
 30
        0.000000
 11
       -1.209991
 21
       18.185666
 31
        0.000000
  0
ARC
  8
LVL0000
 10
        0.790009
 20
       18.185666
 30
        0.000000
 40
        2.000000
 50
       69.011618
 51
      179.999995
  0
LINE
  8
LVL0000
 10
        9.500012
 20
       29.150056
 30
        0.000000
 11
       -4.099994
 21
       29.150056
 31
        0.000000
  0
ARC
  8
LVL0000
 10
        9.500012
 20
       28.850056
 30
        0.000000
 40
        0.300000
 50
        0.000000
 51
       90.000000
  0
ARC
  8
LVL0000
 10
       -4.099994
 20
       28.850056
 30
        0.000000
 40
        0.300000
 50
       90.000000
 51
      179.999995
  0
ENDSEC
  0
EOF
