  0
SECTION
  2
HEADER
  9
$ACADVER
  1
AC1006
  9
$INSBASE
 10
0.0
 20
0.0
 30
0.0
  9
$EXTMIN
 10
      -64.999992
 20
      -64.999992
  9
$EXTMAX
 10
      176.900452
 20
      130.000000
  9
$LIMMIN
 10
      -64.999992
 20
      -64.999992
  9
$LIMMAX
 10
      176.900452
 20
      130.000000
  9
$VIEWCTR
 10
       55.950230
 20
       55.950230
  9
$ORTHOMODE
 70
     0
  9
$ANGBASE
 50
0.0
  9
$ANGDIR
 70
     0
  9
$SPLINETYPE
 70
     6
  9
$SPLINESEGS
 70
     8
9
$DIMASZ
 40
        3.500000
9
$DIMEXE
 40
        0.933333
9
$DIMEXO
 40
        1.333333
9
$DIMTXT
 40
        4.000000
9
$DIMGAP
 40
        0.933333
9
$DIMTAD
 70
1
9
$DIMTIH
 70
0
9
$DIMTOH
 70
0
  0
ENDSEC
  0
SECTION
  2
TABLES
  0
TABLE
  2
LTYPE
 70
     5
  0
LTYPE
  2
CONTINUOUS
 70
    64
  3
SOLID LINE
 72
    65
 73
     0
 40
0.0
  0
LTYPE
  2
DASHED
 70
    64
  3
-- -- -- -- -- --
 72
    65
 73
     2
 40
  0.75  
 49
  0.50  
 49
 -0.25  
  0
LTYPE
  2
DOT
 70
    64
  3
....................
 72
    65
 73
     2
 40
  0.25  
 49
  0.02  
 49
 -0.23  
  0
LTYPE
  2
CENTER
 70
    64
  3
-- . -- . -- . -- .
 72
    65
 73
    4
 40
  2.00  
 49
  1.25  
 49
 -0.25  
 49
  0.25  
 49
 -0.25  
  0
LTYPE
  2
PHANTOM
 70
    64
  3
-- .. -- .. -- ..
 72
    65
 73
    6
 40
  2.50  
 49
  1.25  
 49
 -0.25  
 49
  0.25  
 49
 -0.25  
 49
  0.25  
 49
 -0.25  
  0
ENDTAB
  0
TABLE
  2
LAYER
 70
     1
  0
LAYER
  2
LVL0000
 70
    64
 62
     2
  6
CONTINUOUS
  0
ENDTAB
  0
TABLE
  2
STYLE
 70
     2
  0
STYLE
  2
STANDARD
 70
    64
 40
0.0
 41
1.0
 50
0.0
 71
     0
 42
5.0
  3
ROMANS
  4
BIGFONT
  0
STYLE
  2
BIGFONT
 70
    64
 40
0.0
 41
1.0
 50
0.0
 71
     0
 42
5.0
  3
ROMANS
  4
BIGFONT
  0
ENDTAB
  0
TABLE
  2
VIEW
 70
     0
  0
ENDTAB
  0
TABLE
  2
UCS
 70
     0
  0
ENDTAB
  0
TABLE
  2
DWGMGR
 70
     0
  0
ENDTAB
  0
ENDSEC
  0
SECTION
  2
BLOCKS
  0
BLOCK
  8
0
  2
BLK0001
 70
    64
 10
        0.000000
 20
        0.000000
  0
TEXT
  8
LVL0000
 10
       95.145592
 20
      -95.327713
 30
        0.000000
 40
        4.000000
  1
１１４．７
 50
        0.000000
 41
        0.835000
 51
        0.000000
  7
BIGFONT
  0
LINE
  8
LVL0000
 10
       55.199829
 20
      -56.433300
 30
        0.000000
 11
       55.199829
 21
      -97.194382
 31
        0.000000
  0
LINE
  8
LVL0000
 10
      169.899902
 20
       52.666676
 30
        0.000000
 11
      169.899902
 21
      -97.194389
 31
        0.000000
  0
LINE
  8
LVL0000
 10
       58.699829
 20
      -95.344749
 30
        0.000000
 11
       55.199829
 21
      -96.261047
 31
        0.000000
  0
LINE
  8
LVL0000
 10
       55.199829
 20
      -96.261047
 30
        0.000000
 11
       58.699829
 21
      -97.177345
 31
        0.000000
  0
LINE
  8
LVL0000
 10
      166.399902
 20
      -97.177353
 30
        0.000000
 11
      169.899902
 21
      -96.261055
 31
        0.000000
  0
LINE
  8
LVL0000
 10
      169.899902
 20
      -96.261055
 30
        0.000000
 11
      166.399902
 21
      -95.344757
 31
        0.000000
  0
LINE
  8
LVL0000
 10
       55.199829
 20
      -96.261047
 30
        0.000000
 11
      169.899902
 21
      -96.261055
 31
        0.000000
  0
ENDBLK
  0
BLOCK
  8
0
  2
BLK0002
 70
    64
 10
        0.000000
 20
        0.000000
  0
TEXT
  8
LVL0000
 10
       34.803810
 20
       -6.304741
 30
        0.000000
 40
        4.000000
  1
１３０
 50
       90.000000
 41
        0.835000
 51
        0.000000
  7
BIGFONT
  0
LINE
  8
LVL0000
 10
       18.333334
 20
      -64.999992
 30
        0.000000
 11
       36.670475
 21
      -64.999992
 31
        0.000000
  0
LINE
  8
LVL0000
 10
       18.333334
 20
       65.000008
 30
        0.000000
 11
       36.670475
 21
       65.000008
 31
        0.000000
  0
LINE
  8
LVL0000
 10
       35.171654
 20
      -61.399994
 30
        0.000000
 11
       35.737141
 21
      -64.999992
 31
        0.000000
  0
LINE
  8
LVL0000
 10
       35.737141
 20
      -64.999992
 30
        0.000000
 11
       36.302628
 21
      -61.399994
 31
        0.000000
  0
LINE
  8
LVL0000
 10
       36.302628
 20
       61.400009
 30
        0.000000
 11
       35.737141
 21
       65.000008
 31
        0.000000
  0
LINE
  8
LVL0000
 10
       35.737141
 20
       65.000008
 30
        0.000000
 11
       35.171654
 21
       61.400009
 31
        0.000000
  0
LINE
  8
LVL0000
 10
       35.737141
 20
      -64.999992
 30
        0.000000
 11
       35.737141
 21
       65.000008
 31
        0.000000
  0
ENDBLK
  0
BLOCK
  8
0
  2
BLK0003
 70
    64
 10
        0.000000
 20
        0.000000
  0
TEXT
  8
LVL0000
 10
      105.731300
 20
      -83.442169
 30
        0.000000
 40
        4.000000
  1
１０２．４
 50
        0.000000
 41
        0.835000
 51
        0.000000
  7
BIGFONT
  0
LINE
  8
LVL0000
 10
       67.500000
 20
      -65.333328
 30
        0.000000
 11
       67.500000
 21
      -85.308838
 31
        0.000000
  0
LINE
  8
LVL0000
 10
      169.899902
 20
       53.666676
 30
        0.000000
 11
      169.899902
 21
      -85.308830
 31
        0.000000
  0
LINE
  8
LVL0000
 10
       71.000000
 20
      -83.459206
 30
        0.000000
 11
       67.500000
 21
      -84.375504
 31
        0.000000
  0
LINE
  8
LVL0000
 10
       67.500000
 20
      -84.375504
 30
        0.000000
 11
       71.000000
 21
      -85.291801
 31
        0.000000
  0
LINE
  8
LVL0000
 10
      166.399902
 20
      -85.291794
 30
        0.000000
 11
      169.899902
 21
      -84.375496
 31
        0.000000
  0
LINE
  8
LVL0000
 10
      169.899902
 20
      -84.375496
 30
        0.000000
 11
      166.399902
 21
      -83.459198
 31
        0.000000
  0
LINE
  8
LVL0000
 10
       67.500000
 20
      -84.375504
 30
        0.000000
 11
      169.899902
 21
      -84.375496
 31
        0.000000
  0
ENDBLK
  0
BLOCK
  8
0
  2
BLK0004
 70
    64
 10
        0.000000
 20
        0.000000
  0
TEXT
  8
LVL0000
 10
       -4.260453
 20
      -84.287712
 30
        0.000000
 40
        4.000000
  1
３５
 50
        0.000000
 41
        0.835000
 51
        0.000000
  7
BIGFONT
  0
LINE
  8
LVL0000
 10
       17.500000
 20
      -65.833328
 30
        0.000000
 11
       17.500000
 21
      -86.154381
 31
        0.000000
  0
LINE
  8
LVL0000
 10
      -17.500000
 20
      -65.833328
 30
        0.000000
 11
      -17.500000
 21
      -86.154381
 31
        0.000000
  0
LINE
  8
LVL0000
 10
       13.900000
 20
      -85.786530
 30
        0.000000
 11
       17.500000
 21
      -85.221046
 31
        0.000000
  0
LINE
  8
LVL0000
 10
       17.500000
 20
      -85.221046
 30
        0.000000
 11
       13.900000
 21
      -84.655563
 31
        0.000000
  0
LINE
  8
LVL0000
 10
      -13.900000
 20
      -84.655563
 30
        0.000000
 11
      -17.500000
 21
      -85.221046
 31
        0.000000
  0
LINE
  8
LVL0000
 10
      -17.500000
 20
      -85.221046
 30
        0.000000
 11
      -13.900000
 21
      -85.786530
 31
        0.000000
  0
LINE
  8
LVL0000
 10
       17.500000
 20
      -85.221046
 30
        0.000000
 11
      -17.500000
 21
      -85.221046
 31
        0.000000
  0
ENDBLK
  0
ENDSEC
  0
SECTION
  2
ENTITIES
  0
DIMENSION
  8
LVL0000
 62
  5
  2
BLK0001
 10
       55.199829
 20
      -96.261047
 11
       95.145592
 21
      -95.327713
 13
       55.199829
 23
      -55.099968
 14
      169.899902
 24
       54.000008
 50
        0.0
 70
  0
  0
DIMENSION
  8
LVL0000
 62
  5
  2
BLK0002
 10
       35.737141
 20
      -64.999992
 11
       34.803810
 21
       -6.304741
 13
       17.000000
 23
      -64.999992
 14
       17.000000
 24
       65.000008
 50
       90.0
 70
  0
  0
DIMENSION
  8
LVL0000
 62
  5
  2
BLK0003
 10
       67.500000
 20
      -84.375504
 11
      105.731300
 21
      -83.442169
 13
       67.500000
 23
      -63.999992
 14
      169.899902
 24
       55.000008
 50
        0.0
 70
  0
  0
DIMENSION
  8
LVL0000
 62
  5
  2
BLK0004
 10
       17.500000
 20
      -85.221046
 11
       -4.260453
 21
      -84.287712
 13
       17.500000
 23
      -64.499992
 14
      -17.500000
 24
      -64.499992
 50
        0.0
 70
  0
  0
TEXT
  8
LVL0000
 10
      -11.870388
 20
      116.381981
 30
        0.000000
 40
        5.000000
  1
ＪＷ２２ＤＵ
 50
        0.000000
 41
        0.835000
 51
        0.000000
  7
BIGFONT
  0
ARC
  8
LVL0000
 62
  3
 10
       68.000000
 20
       64.500008
 30
        0.000000
 40
        0.500000
 50
       90.000000
 51
      179.999995
  0
LINE
  8
LVL0000
 62
  3
 10
       67.500000
 20
       40.500008
 30
        0.000000
 11
       67.500000
 21
       64.500008
 31
        0.000000
  0
LINE
  8
LVL0000
 62
  3
 10
       68.000000
 20
       65.000008
 30
        0.000000
 11
      169.899902
 21
       65.000008
 31
        0.000000
  0
LINE
  8
LVL0000
 62
  3
 10
       55.200007
 20
      104.499942
 30
        0.000000
 11
       55.199956
 21
      114.499942
 31
        0.000000
  0
LINE
  8
LVL0000
 62
  3
 10
       56.200012
 20
      103.499947
 30
        0.000000
 11
       58.000000
 21
      103.499947
 31
        0.000000
  0
ARC
  8
LVL0000
 62
  3
 10
       56.200012
 20
      104.499947
 30
        0.000000
 40
        1.000056
 50
      179.999704
 51
      270.000000
  0
LINE
  8
LVL0000
 62
  3
 10
       56.200012
 20
      115.499947
 30
        0.000000
 11
       58.000000
 21
      115.499947
 31
        0.000000
  0
ARC
  8
LVL0000
 62
  3
 10
       56.200012
 20
      114.499947
 30
        0.000000
 40
        1.000000
 50
       90.000000
 51
      180.000296
  0
LINE
  8
LVL0000
 62
  3
 10
       99.500000
 20
       95.000008
 30
        0.000000
 11
       99.500000
 21
      130.000008
 31
        0.000000
  0
LINE
  8
LVL0000
 62
  3
 10
      106.500000
 20
       95.000008
 30
        0.000000
 11
      106.500000
 21
      130.000008
 31
        0.000000
  0
LINE
  8
LVL0000
 62
  3
 10
      108.500000
 20
       95.000008
 30
        0.000000
 11
      108.500000
 21
      130.000008
 31
        0.000000
  0
LINE
  8
LVL0000
 62
  3
 10
      108.500000
 20
      127.000008
 30
        0.000000
 11
      106.500000
 21
      127.000008
 31
        0.000000
  0
LINE
  8
LVL0000
 62
  3
 10
      108.500000
 20
       98.000008
 30
        0.000000
 11
      106.500000
 21
       98.000008
 31
        0.000000
  0
LINE
  8
LVL0000
 62
  3
 10
      160.500000
 20
      130.000008
 30
        0.000000
 11
      160.500000
 21
       95.000008
 31
        0.000000
  0
LINE
  8
LVL0000
 62
  3
 10
      160.500000
 20
      116.000008
 30
        0.000000
 11
      159.300049
 21
      116.000008
 31
        0.000000
  0
ARC
  8
LVL0000
 62
  3
 10
      159.300049
 20
      114.500008
 30
        0.000000
 40
        1.500000
 50
       90.000000
 51
      180.000010
  0
ARC
  8
LVL0000
 62
  3
 10
      159.300049
 20
      110.500008
 30
        0.000000
 40
        1.500000
 50
      180.000010
 51
      270.000000
  0
LINE
  8
LVL0000
 62
  3
 10
      160.500000
 20
      109.000008
 30
        0.000000
 11
      159.300049
 21
      109.000008
 31
        0.000000
  0
LINE
  8
LVL0000
 62
  3
 10
      157.800049
 20
      114.500008
 30
        0.000000
 11
      157.800049
 21
      110.500008
 31
        0.000000
  0
LINE
  8
LVL0000
 62
  3
 10
      110.500000
 20
       95.000008
 30
        0.000000
 11
      110.500000
 21
      130.000008
 31
        0.000000
  0
LINE
  8
LVL0000
 62
  3
 10
      112.500000
 20
       95.000008
 30
        0.000000
 11
      112.500000
 21
      130.000008
 31
        0.000000
  0
LINE
  8
LVL0000
 62
  3
 10
      112.500000
 20
      127.000008
 30
        0.000000
 11
      110.500000
 21
      127.000008
 31
        0.000000
  0
LINE
  8
LVL0000
 62
  3
 10
      112.500000
 20
       98.000008
 30
        0.000000
 11
      110.500000
 21
       98.000008
 31
        0.000000
  0
LINE
  8
LVL0000
 62
  3
 10
      114.500000
 20
       95.000008
 30
        0.000000
 11
      114.500000
 21
      130.000008
 31
        0.000000
  0
LINE
  8
LVL0000
 62
  3
 10
      116.500000
 20
       95.000008
 30
        0.000000
 11
      116.500000
 21
      130.000008
 31
        0.000000
  0
LINE
  8
LVL0000
 62
  3
 10
      116.500000
 20
      127.000008
 30
        0.000000
 11
      114.500000
 21
      127.000008
 31
        0.000000
  0
LINE
  8
LVL0000
 62
  3
 10
      116.500000
 20
       98.000008
 30
        0.000000
 11
      114.500000
 21
       98.000008
 31
        0.000000
  0
LINE
  8
LVL0000
 62
  3
 10
      118.500000
 20
       95.000008
 30
        0.000000
 11
      118.500000
 21
      130.000008
 31
        0.000000
  0
LINE
  8
LVL0000
 62
  3
 10
      120.500000
 20
       95.000008
 30
        0.000000
 11
      120.500000
 21
      130.000008
 31
        0.000000
  0
LINE
  8
LVL0000
 62
  3
 10
      120.500000
 20
      127.000008
 30
        0.000000
 11
      118.500000
 21
      127.000008
 31
        0.000000
  0
LINE
  8
LVL0000
 62
  3
 10
      120.500000
 20
       98.000008
 30
        0.000000
 11
      118.500000
 21
       98.000008
 31
        0.000000
  0
LINE
  8
LVL0000
 62
  3
 10
      122.500000
 20
       95.000008
 30
        0.000000
 11
      122.500000
 21
      130.000008
 31
        0.000000
  0
LINE
  8
LVL0000
 62
  3
 10
      124.500000
 20
       95.000008
 30
        0.000000
 11
      124.500000
 21
      130.000008
 31
        0.000000
  0
LINE
  8
LVL0000
 62
  3
 10
      124.500000
 20
      127.000008
 30
        0.000000
 11
      122.500000
 21
      127.000008
 31
        0.000000
  0
LINE
  8
LVL0000
 62
  3
 10
      124.500000
 20
       98.000008
 30
        0.000000
 11
      122.500000
 21
       98.000008
 31
        0.000000
  0
LINE
  8
LVL0000
 62
  3
 10
      126.500000
 20
       95.000008
 30
        0.000000
 11
      126.500000
 21
      130.000008
 31
        0.000000
  0
LINE
  8
LVL0000
 62
  3
 10
      128.500000
 20
       95.000008
 30
        0.000000
 11
      128.500000
 21
      130.000008
 31
        0.000000
  0
LINE
  8
LVL0000
 62
  3
 10
      128.500000
 20
      127.000008
 30
        0.000000
 11
      126.500000
 21
      127.000008
 31
        0.000000
  0
LINE
  8
LVL0000
 62
  3
 10
      128.500000
 20
       98.000008
 30
        0.000000
 11
      126.500000
 21
       98.000008
 31
        0.000000
  0
LINE
  8
LVL0000
 62
  3
 10
      130.500000
 20
       95.000008
 30
        0.000000
 11
      130.500000
 21
      130.000008
 31
        0.000000
  0
LINE
  8
LVL0000
 62
  3
 10
      132.500000
 20
       95.000008
 30
        0.000000
 11
      132.500000
 21
      130.000008
 31
        0.000000
  0
LINE
  8
LVL0000
 62
  3
 10
      132.500000
 20
      127.000008
 30
        0.000000
 11
      130.500000
 21
      127.000008
 31
        0.000000
  0
LINE
  8
LVL0000
 62
  3
 10
      132.500000
 20
       98.000008
 30
        0.000000
 11
      130.500000
 21
       98.000008
 31
        0.000000
  0
LINE
  8
LVL0000
 62
  3
 10
      134.500000
 20
       95.000008
 30
        0.000000
 11
      134.500000
 21
      130.000008
 31
        0.000000
  0
LINE
  8
LVL0000
 62
  3
 10
      136.500000
 20
       95.000008
 30
        0.000000
 11
      136.500000
 21
      130.000008
 31
        0.000000
  0
LINE
  8
LVL0000
 62
  3
 10
      136.500000
 20
      127.000008
 30
        0.000000
 11
      134.500000
 21
      127.000008
 31
        0.000000
  0
LINE
  8
LVL0000
 62
  3
 10
      136.500000
 20
       98.000008
 30
        0.000000
 11
      134.500000
 21
       98.000008
 31
        0.000000
  0
LINE
  8
LVL0000
 62
  3
 10
      138.500000
 20
       95.000008
 30
        0.000000
 11
      138.500000
 21
      130.000008
 31
        0.000000
  0
LINE
  8
LVL0000
 62
  3
 10
      140.500000
 20
       95.000008
 30
        0.000000
 11
      140.500000
 21
      130.000008
 31
        0.000000
  0
LINE
  8
LVL0000
 62
  3
 10
      140.500000
 20
      127.000008
 30
        0.000000
 11
      138.500000
 21
      127.000008
 31
        0.000000
  0
LINE
  8
LVL0000
 62
  3
 10
      140.500000
 20
       98.000008
 30
        0.000000
 11
      138.500000
 21
       98.000008
 31
        0.000000
  0
LINE
  8
LVL0000
 62
  3
 10
      142.500000
 20
       95.000008
 30
        0.000000
 11
      142.500000
 21
      130.000008
 31
        0.000000
  0
LINE
  8
LVL0000
 62
  3
 10
      144.500000
 20
       95.000008
 30
        0.000000
 11
      144.500000
 21
      130.000008
 31
        0.000000
  0
LINE
  8
LVL0000
 62
  3
 10
      144.500000
 20
      127.000008
 30
        0.000000
 11
      142.500000
 21
      127.000008
 31
        0.000000
  0
LINE
  8
LVL0000
 62
  3
 10
      144.500000
 20
       98.000008
 30
        0.000000
 11
      142.500000
 21
       98.000008
 31
        0.000000
  0
LINE
  8
LVL0000
 62
  3
 10
      146.500000
 20
       95.000008
 30
        0.000000
 11
      146.500000
 21
      130.000008
 31
        0.000000
  0
LINE
  8
LVL0000
 62
  3
 10
      148.500000
 20
       95.000008
 30
        0.000000
 11
      148.500000
 21
      130.000008
 31
        0.000000
  0
LINE
  8
LVL0000
 62
  3
 10
      148.500000
 20
      127.000008
 30
        0.000000
 11
      146.500000
 21
      127.000008
 31
        0.000000
  0
LINE
  8
LVL0000
 62
  3
 10
      148.500000
 20
       98.000008
 30
        0.000000
 11
      146.500000
 21
       98.000008
 31
        0.000000
  0
LINE
  8
LVL0000
 62
  3
 10
      150.500000
 20
       95.000008
 30
        0.000000
 11
      150.500000
 21
      130.000008
 31
        0.000000
  0
LINE
  8
LVL0000
 62
  3
 10
      152.500000
 20
       95.000008
 30
        0.000000
 11
      152.500000
 21
      130.000008
 31
        0.000000
  0
LINE
  8
LVL0000
 62
  3
 10
      152.500000
 20
      127.000008
 30
        0.000000
 11
      150.500000
 21
      127.000008
 31
        0.000000
  0
LINE
  8
LVL0000
 62
  3
 10
      152.500000
 20
       98.000008
 30
        0.000000
 11
      150.500000
 21
       98.000008
 31
        0.000000
  0
LINE
  8
LVL0000
 62
  3
 10
      154.500000
 20
       95.000008
 30
        0.000000
 11
      154.500000
 21
      130.000008
 31
        0.000000
  0
LINE
  8
LVL0000
 62
  3
 10
      156.500000
 20
       95.000008
 30
        0.000000
 11
      156.500000
 21
      130.000008
 31
        0.000000
  0
LINE
  8
LVL0000
 62
  3
 10
      156.500000
 20
      127.000008
 30
        0.000000
 11
      154.500000
 21
      127.000008
 31
        0.000000
  0
LINE
  8
LVL0000
 62
  3
 10
      156.500000
 20
       98.000008
 30
        0.000000
 11
      154.500000
 21
       98.000008
 31
        0.000000
  0
LINE
  8
LVL0000
 62
  3
 10
      160.500000
 20
      127.000008
 30
        0.000000
 11
      158.500000
 21
      127.000008
 31
        0.000000
  0
LINE
  8
LVL0000
 62
  3
 10
      160.500000
 20
       98.000008
 30
        0.000000
 11
      158.500000
 21
       98.000008
 31
        0.000000
  0
LINE
  8
LVL0000
 62
  3
 10
      158.500000
 20
      115.768806
 30
        0.000000
 11
      158.500000
 21
      130.000008
 31
        0.000000
  0
LINE
  8
LVL0000
 62
  3
 10
      158.500000
 20
       95.000008
 30
        0.000000
 11
      158.500000
 21
      109.231209
 31
        0.000000
  0
LINE
  8
LVL0000
 62
  3
 10
      158.500000
 20
      116.099983
 30
        0.000000
 11
      156.500000
 21
      116.099983
 31
        0.000000
  0
LINE
  8
LVL0000
 62
  3
 10
      158.500000
 20
      108.900032
 30
        0.000000
 11
      156.500000
 21
      108.900032
 31
        0.000000
  0
LINE
  8
LVL0000
 62
  3
 10
      154.500000
 20
      116.099983
 30
        0.000000
 11
      152.500000
 21
      116.099983
 31
        0.000000
  0
LINE
  8
LVL0000
 62
  3
 10
      154.500000
 20
      108.900032
 30
        0.000000
 11
      152.500000
 21
      108.900032
 31
        0.000000
  0
LINE
  8
LVL0000
 62
  3
 10
      150.500000
 20
      116.099983
 30
        0.000000
 11
      148.500000
 21
      116.099983
 31
        0.000000
  0
LINE
  8
LVL0000
 62
  3
 10
      150.500000
 20
      108.900032
 30
        0.000000
 11
      148.500000
 21
      108.900032
 31
        0.000000
  0
LINE
  8
LVL0000
 62
  3
 10
      146.500000
 20
      116.099983
 30
        0.000000
 11
      144.500000
 21
      116.099983
 31
        0.000000
  0
LINE
  8
LVL0000
 62
  3
 10
      146.500000
 20
      108.900032
 30
        0.000000
 11
      144.500000
 21
      108.900032
 31
        0.000000
  0
LINE
  8
LVL0000
 62
  3
 10
      142.500000
 20
      116.099983
 30
        0.000000
 11
      140.500000
 21
      116.099983
 31
        0.000000
  0
LINE
  8
LVL0000
 62
  3
 10
      142.500000
 20
      108.900032
 30
        0.000000
 11
      140.500000
 21
      108.900032
 31
        0.000000
  0
LINE
  8
LVL0000
 62
  3
 10
      138.500000
 20
      116.099983
 30
        0.000000
 11
      136.500000
 21
      116.099983
 31
        0.000000
  0
LINE
  8
LVL0000
 62
  3
 10
      138.500000
 20
      108.900032
 30
        0.000000
 11
      136.500000
 21
      108.900032
 31
        0.000000
  0
LINE
  8
LVL0000
 62
  3
 10
      134.500000
 20
      116.099983
 30
        0.000000
 11
      132.500000
 21
      116.099983
 31
        0.000000
  0
LINE
  8
LVL0000
 62
  3
 10
      134.500000
 20
      108.900032
 30
        0.000000
 11
      132.500000
 21
      108.900032
 31
        0.000000
  0
LINE
  8
LVL0000
 62
  3
 10
      130.500000
 20
      116.099983
 30
        0.000000
 11
      128.500000
 21
      116.099983
 31
        0.000000
  0
LINE
  8
LVL0000
 62
  3
 10
      130.500000
 20
      108.900032
 30
        0.000000
 11
      128.500000
 21
      108.900032
 31
        0.000000
  0
LINE
  8
LVL0000
 62
  3
 10
      126.500000
 20
      116.099983
 30
        0.000000
 11
      124.500000
 21
      116.099983
 31
        0.000000
  0
LINE
  8
LVL0000
 62
  3
 10
      126.500000
 20
      108.900032
 30
        0.000000
 11
      124.500000
 21
      108.900032
 31
        0.000000
  0
LINE
  8
LVL0000
 62
  3
 10
      122.500000
 20
      116.099983
 30
        0.000000
 11
      120.500000
 21
      116.099983
 31
        0.000000
  0
LINE
  8
LVL0000
 62
  3
 10
      122.500000
 20
      108.900032
 30
        0.000000
 11
      120.500000
 21
      108.900032
 31
        0.000000
  0
ARC
  8
LVL0000
 62
  3
 10
      106.500000
 20
      112.500008
 30
        0.000000
 40
        1.499973
 50
      109.471585
 51
      250.528418
  0
LINE
  8
LVL0000
 62
  3
 10
      106.500000
 20
      114.099983
 30
        0.000000
 11
      106.000000
 21
      113.914192
 31
        0.000000
  0
LINE
  8
LVL0000
 62
  3
 10
      106.000000
 20
      111.085823
 30
        0.000000
 11
      106.500000
 21
      110.900032
 31
        0.000000
  0
LINE
  8
LVL0000
 62
  3
 10
      114.500000
 20
      109.300056
 30
        0.000000
 11
      112.500000
 21
      109.599983
 31
        0.000000
  0
LINE
  8
LVL0000
 62
  3
 10
      112.500000
 20
      115.400032
 30
        0.000000
 11
      114.500000
 21
      115.699959
 31
        0.000000
  0
LINE
  8
LVL0000
 62
  3
 10
      116.500000
 20
      115.900032
 30
        0.000000
 11
      118.500000
 21
      116.000008
 31
        0.000000
  0
LINE
  8
LVL0000
 62
  3
 10
      118.500000
 20
      109.000008
 30
        0.000000
 11
      116.500000
 21
      109.099983
 31
        0.000000
  0
LINE
  8
LVL0000
 62
  3
 10
      108.500000
 20
      114.550056
 30
        0.000000
 11
      110.500000
 21
      115.000008
 31
        0.000000
  0
LINE
  8
LVL0000
 62
  3
 10
      108.500000
 20
      110.449959
 30
        0.000000
 11
      110.500000
 21
      110.000008
 31
        0.000000
  0
LINE
  8
LVL0000
 62
  3
 10
       95.500000
 20
      128.000008
 30
        0.000000
 11
       93.500000
 21
      128.000008
 31
        0.000000
  0
LINE
  8
LVL0000
 62
  3
 10
       95.500000
 20
       96.599983
 30
        0.000000
 11
       93.500000
 21
       96.599983
 31
        0.000000
  0
LINE
  8
LVL0000
 62
  3
 10
       93.500000
 20
       95.000008
 30
        0.000000
 11
       93.500000
 21
      130.000008
 31
        0.000000
  0
LINE
  8
LVL0000
 62
  3
 10
       95.500000
 20
       95.000008
 30
        0.000000
 11
       95.500000
 21
      130.000008
 31
        0.000000
  0
LINE
  8
LVL0000
 62
  3
 10
       91.500000
 20
      128.000008
 30
        0.000000
 11
       89.500000
 21
      128.000008
 31
        0.000000
  0
LINE
  8
LVL0000
 62
  3
 10
       91.500000
 20
       96.599983
 30
        0.000000
 11
       89.500000
 21
       96.599983
 31
        0.000000
  0
LINE
  8
LVL0000
 62
  3
 10
       89.500000
 20
       95.000008
 30
        0.000000
 11
       89.500000
 21
      130.000008
 31
        0.000000
  0
LINE
  8
LVL0000
 62
  3
 10
       91.500000
 20
       95.000008
 30
        0.000000
 11
       91.500000
 21
      130.000008
 31
        0.000000
  0
LINE
  8
LVL0000
 62
  3
 10
       87.500000
 20
      128.000008
 30
        0.000000
 11
       85.500000
 21
      128.000008
 31
        0.000000
  0
LINE
  8
LVL0000
 62
  3
 10
       87.500000
 20
       96.599983
 30
        0.000000
 11
       85.500000
 21
       96.599983
 31
        0.000000
  0
LINE
  8
LVL0000
 62
  3
 10
       85.500000
 20
       95.000008
 30
        0.000000
 11
       85.500000
 21
      130.000008
 31
        0.000000
  0
LINE
  8
LVL0000
 62
  3
 10
       87.500000
 20
       95.000008
 30
        0.000000
 11
       87.500000
 21
      130.000008
 31
        0.000000
  0
LINE
  8
LVL0000
 62
  3
 10
       83.500000
 20
      128.000008
 30
        0.000000
 11
       81.500000
 21
      128.000008
 31
        0.000000
  0
LINE
  8
LVL0000
 62
  3
 10
       83.500000
 20
       96.599983
 30
        0.000000
 11
       81.500000
 21
       96.599983
 31
        0.000000
  0
LINE
  8
LVL0000
 62
  3
 10
       81.500000
 20
       95.000008
 30
        0.000000
 11
       81.500000
 21
      130.000008
 31
        0.000000
  0
LINE
  8
LVL0000
 62
  3
 10
       83.500000
 20
       95.000008
 30
        0.000000
 11
       83.500000
 21
      130.000008
 31
        0.000000
  0
LINE
  8
LVL0000
 62
  3
 10
      169.900024
 20
      130.000008
 30
        0.000000
 11
       68.000000
 21
      130.000008
 31
        0.000000
  0
ARC
  8
LVL0000
 62
  3
 10
       68.000000
 20
      129.500008
 30
        0.000000
 40
        0.500000
 50
       90.000000
 51
      180.000010
  0
LINE
  8
LVL0000
 62
  3
 10
      169.900024
 20
       95.000008
 30
        0.000000
 11
       68.000000
 21
       95.000008
 31
        0.000000
  0
LINE
  8
LVL0000
 62
  3
 10
       67.500000
 20
       95.500008
 30
        0.000000
 11
       67.500000
 21
      129.500008
 31
        0.000000
  0
ARC
  8
LVL0000
 62
  3
 10
       68.000000
 20
       95.500008
 30
        0.000000
 40
        0.500000
 50
      180.000010
 51
      270.000000
  0
LINE
  8
LVL0000
 62
  3
 10
       66.000000
 20
      105.000069
 30
        0.000000
 11
       66.000000
 21
      114.000069
 31
        0.000000
  0
LINE
  8
LVL0000
 62
  3
 10
       59.000000
 20
      104.500069
 30
        0.000000
 11
       58.000000
 21
      103.499947
 31
        0.000000
  0
LINE
  8
LVL0000
 62
  3
 10
       59.000000
 20
      114.500069
 30
        0.000000
 11
       57.999939
 21
      115.499947
 31
        0.000000
  0
LINE
  8
LVL0000
 62
  3
 10
       59.000000
 20
      103.500069
 30
        0.000000
 11
       59.000000
 21
      104.500069
 31
        0.000000
  0
LINE
  8
LVL0000
 62
  3
 10
       59.000000
 20
      114.500069
 30
        0.000000
 11
       58.999939
 21
      115.500069
 31
        0.000000
  0
ARC
  8
LVL0000
 62
  3
 10
       58.000000
 20
      104.499947
 30
        0.000000
 40
        1.000000
 50
      180.000010
 51
      270.000000
  0
LINE
  8
LVL0000
 62
  3
 10
       57.000000
 20
      104.499947
 30
        0.000000
 11
       57.000000
 21
      114.499947
 31
        0.000000
  0
ARC
  8
LVL0000
 62
  3
 10
       58.000000
 20
      114.499947
 30
        0.000000
 40
        1.000000
 50
       90.000000
 51
      180.000010
  0
LINE
  8
LVL0000
 62
  3
 10
       67.499939
 20
      114.000069
 30
        0.000000
 11
       66.000000
 21
      114.000069
 31
        0.000000
  0
LINE
  8
LVL0000
 62
  3
 10
       67.499939
 20
      115.500069
 30
        0.000000
 11
       58.999939
 21
      115.500069
 31
        0.000000
  0
LINE
  8
LVL0000
 62
  3
 10
       67.500000
 20
      105.000069
 30
        0.000000
 11
       66.000000
 21
      105.000069
 31
        0.000000
  0
LINE
  8
LVL0000
 62
  3
 10
       67.500000
 20
      103.500069
 30
        0.000000
 11
       59.000000
 21
      103.500069
 31
        0.000000
  0
LINE
  8
LVL0000
 62
  3
 10
       99.500000
 20
       65.000008
 30
        0.000000
 11
       99.500000
 21
      -64.999992
 31
        0.000000
  0
LINE
  8
LVL0000
 62
  3
 10
      108.649902
 20
       12.649971
 30
        0.000000
 11
      108.649902
 21
      -12.650017
 31
        0.000000
  0
LINE
  8
LVL0000
 62
  3
 10
      108.649902
 20
      -12.650017
 30
        0.000000
 11
      158.949951
 21
      -12.650017
 31
        0.000000
  0
LINE
  8
LVL0000
 62
  3
 10
      100.500000
 20
       37.000008
 30
        0.000000
 11
      100.500000
 21
       25.000008
 31
        0.000000
  0
LINE
  8
LVL0000
 62
  3
 10
      103.800049
 20
       40.250008
 30
        0.000000
 11
      103.800049
 21
       21.750008
 31
        0.000000
  0
LINE
  8
LVL0000
 62
  3
 10
       99.500000
 20
       25.000008
 30
        0.000000
 11
      100.500000
 21
       25.000008
 31
        0.000000
  0
LINE
  8
LVL0000
 62
  3
 10
       99.500000
 20
       37.000008
 30
        0.000000
 11
      100.500000
 21
       37.000008
 31
        0.000000
  0
LINE
  8
LVL0000
 62
  3
 10
      106.300049
 20
       40.250008
 30
        0.000000
 11
      106.300049
 21
       21.750008
 31
        0.000000
  0
LINE
  8
LVL0000
 62
  3
 10
      103.800049
 20
       40.250008
 30
        0.000000
 11
      106.300049
 21
       40.250008
 31
        0.000000
  0
LINE
  8
LVL0000
 62
  3
 10
      103.800049
 20
       21.750008
 30
        0.000000
 11
      106.300049
 21
       21.750008
 31
        0.000000
  0
LINE
  8
LVL0000
 62
  3
 10
       67.500000
 20
       57.000008
 30
        0.000000
 11
       70.500000
 21
       57.000008
 31
        0.000000
  0
LINE
  8
LVL0000
 62
  3
 10
       67.500000
 20
       40.500008
 30
        0.000000
 11
       69.000000
 21
       39.000008
 31
        0.000000
  0
LINE
  8
LVL0000
 62
  3
 10
      100.500000
 20
      -35.999992
 30
        0.000000
 11
      100.500000
 21
      -47.999992
 31
        0.000000
  0
LINE
  8
LVL0000
 62
  3
 10
      103.800049
 20
      -32.749992
 30
        0.000000
 11
      103.800049
 21
      -51.249992
 31
        0.000000
  0
LINE
  8
LVL0000
 62
  3
 10
       99.500000
 20
      -47.999992
 30
        0.000000
 11
      100.500000
 21
      -47.999992
 31
        0.000000
  0
LINE
  8
LVL0000
 62
  3
 10
      106.300049
 20
      -32.749992
 30
        0.000000
 11
      106.300049
 21
      -51.249992
 31
        0.000000
  0
LINE
  8
LVL0000
 62
  3
 10
      103.800049
 20
      -51.249992
 30
        0.000000
 11
      106.300049
 21
      -51.249992
 31
        0.000000
  0
LINE
  8
LVL0000
 62
  3
 10
       99.500000
 20
      -35.999992
 30
        0.000000
 11
      100.500000
 21
      -35.999992
 31
        0.000000
  0
LINE
  8
LVL0000
 62
  3
 10
      103.800049
 20
      -32.749992
 30
        0.000000
 11
      106.300049
 21
      -32.749992
 31
        0.000000
  0
LINE
  8
LVL0000
 62
  3
 10
      169.899902
 20
       65.000008
 30
        0.000000
 11
      169.899902
 21
       55.000008
 31
        0.000000
  0
LINE
  8
LVL0000
 62
  3
 10
      167.300049
 20
       55.000008
 30
        0.000000
 11
      169.899902
 21
       55.000008
 31
        0.000000
  0
LINE
  8
LVL0000
 62
  3
 10
      108.649902
 20
       12.649971
 30
        0.000000
 11
      158.949951
 21
       12.649971
 31
        0.000000
  0
LINE
  8
LVL0000
 62
  3
 10
      158.949951
 20
       12.649971
 30
        0.000000
 11
      158.949951
 21
      -12.650017
 31
        0.000000
  0
LINE
  8
LVL0000
 62
  3
 10
      166.800049
 20
      -59.999992
 30
        0.000000
 11
      164.800049
 21
      -64.999992
 31
        0.000000
  0
LINE
  8
LVL0000
 62
  3
 10
      167.300049
 20
      -53.499992
 30
        0.000000
 11
      166.800049
 21
      -59.999992
 31
        0.000000
  0
LINE
  8
LVL0000
 62
  3
 10
      167.300049
 20
       55.000008
 30
        0.000000
 11
      167.300049
 21
      -53.499992
 31
        0.000000
  0
LINE
  8
LVL0000
 62
  3
 10
       91.800049
 20
      -64.999992
 30
        0.000000
 11
      164.800049
 21
      -64.999992
 31
        0.000000
  0
LINE
  8
LVL0000
 62
  3
 10
       91.800049
 20
      -64.999992
 30
        0.000000
 11
       68.500000
 21
      -64.999992
 31
        0.000000
  0
ARC
  8
LVL0000
 62
  3
 10
       68.500000
 20
      -63.999992
 30
        0.000000
 40
        1.000000
 50
      180.000010
 51
      270.000000
  0
LINE
  8
LVL0000
 62
  3
 10
       70.500000
 20
       38.000008
 30
        0.000000
 11
       70.500000
 21
       57.000008
 31
        0.000000
  0
LINE
  8
LVL0000
 62
  3
 10
       67.500000
 20
       38.000008
 30
        0.000000
 11
       70.500000
 21
       38.000008
 31
        0.000000
  0
LINE
  8
LVL0000
 62
  3
 10
       70.500000
 20
       38.000008
 30
        0.000000
 11
       67.500000
 21
       38.000008
 31
        0.000000
  0
LINE
  8
LVL0000
 62
  3
 10
       70.500000
 20
       39.000008
 30
        0.000000
 11
       69.000000
 21
       39.000008
 31
        0.000000
  0
LINE
  8
LVL0000
 62
  3
 10
       67.500000
 20
       38.000008
 30
        0.000000
 11
       67.500000
 21
      -63.999992
 31
        0.000000
  0
LINE
  8
LVL0000
 62
  3
 10
       65.999878
 20
      -37.660027
 30
        0.000000
 11
       65.999878
 21
      -36.679985
 31
        0.000000
  0
LINE
  8
LVL0000
 62
  3
 10
       65.999878
 20
      -45.280022
 30
        0.000000
 11
       65.999878
 21
      -38.879997
 31
        0.000000
  0
LINE
  8
LVL0000
 62
  3
 10
       65.999878
 20
      -55.099968
 30
        0.000000
 11
       65.999878
 21
      -54.119987
 31
        0.000000
  0
LINE
  8
LVL0000
 62
  3
 10
       65.999878
 20
      -52.900017
 30
        0.000000
 11
       65.999878
 21
      -46.499992
 31
        0.000000
  0
LINE
  8
LVL0000
 62
  3
 10
       56.999756
 20
      -38.879997
 30
        0.000000
 11
       56.999756
 21
      -37.660027
 31
        0.000000
  0
LINE
  8
LVL0000
 62
  3
 10
       56.999756
 20
      -54.119987
 30
        0.000000
 11
       56.999756
 21
      -52.900017
 31
        0.000000
  0
LINE
  8
LVL0000
 62
  3
 10
       56.999756
 20
      -46.499992
 30
        0.000000
 11
       56.999756
 21
      -45.280022
 31
        0.000000
  0
LINE
  8
LVL0000
 62
  3
 10
       65.199951
 20
      -45.280022
 30
        0.000000
 11
       65.199951
 21
      -38.879997
 31
        0.000000
  0
LINE
  8
LVL0000
 62
  3
 10
       65.199951
 20
      -52.900017
 30
        0.000000
 11
       65.199951
 21
      -46.499992
 31
        0.000000
  0
ARC
  8
LVL0000
 62
  3
 10
       68.499878
 20
      -49.700005
 30
        0.000000
 40
        7.000127
 50
      163.742511
 51
      196.257048
  0
LINE
  8
LVL0000
 62
  3
 10
       63.499756
 20
      -46.950005
 30
        0.000000
 11
       62.652588
 21
      -47.024101
 31
        0.000000
  0
LINE
  8
LVL0000
 62
  3
 10
       63.499756
 20
      -52.450005
 30
        0.000000
 11
       62.652588
 21
      -52.375847
 31
        0.000000
  0
ARC
  8
LVL0000
 62
  3
 10
       62.739746
 20
      -48.020317
 30
        0.000000
 40
        1.000082
 50
       94.999726
 51
      163.742839
  0
ARC
  8
LVL0000
 62
  3
 10
       62.739746
 20
      -51.379692
 30
        0.000000
 40
        0.999937
 50
      196.255737
 51
      264.999567
  0
LINE
  8
LVL0000
 62
  3
 10
       63.499756
 20
      -46.700005
 30
        0.000000
 11
       63.499756
 21
      -52.700005
 31
        0.000000
  0
LINE
  8
LVL0000
 62
  3
 10
       64.199951
 20
      -46.700005
 30
        0.000000
 11
       64.199951
 21
      -52.700005
 31
        0.000000
  0
LINE
  8
LVL0000
 62
  3
 10
       65.199951
 20
      -46.700005
 30
        0.000000
 11
       65.199951
 21
      -52.700005
 31
        0.000000
  0
LINE
  8
LVL0000
 62
  3
 10
       65.199951
 20
      -46.700005
 30
        0.000000
 11
       63.499756
 21
      -46.700005
 31
        0.000000
  0
LINE
  8
LVL0000
 62
  3
 10
       65.199951
 20
      -52.700005
 30
        0.000000
 11
       63.499756
 21
      -52.700005
 31
        0.000000
  0
ARC
  8
LVL0000
 62
  3
 10
       68.499878
 20
      -42.080009
 30
        0.000000
 40
        7.000110
 50
      163.742989
 51
      196.256570
  0
LINE
  8
LVL0000
 62
  3
 10
       63.499756
 20
      -39.330009
 30
        0.000000
 11
       62.652588
 21
      -39.404106
 31
        0.000000
  0
LINE
  8
LVL0000
 62
  3
 10
       63.499756
 20
      -44.830009
 30
        0.000000
 11
       62.652588
 21
      -44.755852
 31
        0.000000
  0
ARC
  8
LVL0000
 62
  3
 10
       62.739746
 20
      -40.400322
 30
        0.000000
 40
        1.000082
 50
       94.999726
 51
      163.742839
  0
ARC
  8
LVL0000
 62
  3
 10
       62.739746
 20
      -43.759697
 30
        0.000000
 40
        0.999937
 50
      196.255737
 51
      264.999567
  0
LINE
  8
LVL0000
 62
  3
 10
       63.499756
 20
      -39.080009
 30
        0.000000
 11
       63.499756
 21
      -45.080009
 31
        0.000000
  0
LINE
  8
LVL0000
 62
  3
 10
       64.199951
 20
      -39.080009
 30
        0.000000
 11
       64.199951
 21
      -45.080009
 31
        0.000000
  0
LINE
  8
LVL0000
 62
  3
 10
       65.199951
 20
      -39.080009
 30
        0.000000
 11
       65.199951
 21
      -45.080009
 31
        0.000000
  0
LINE
  8
LVL0000
 62
  3
 10
       65.199951
 20
      -39.080009
 30
        0.000000
 11
       63.499756
 21
      -39.080009
 31
        0.000000
  0
LINE
  8
LVL0000
 62
  3
 10
       65.199951
 20
      -45.080009
 30
        0.000000
 11
       63.499756
 21
      -45.080009
 31
        0.000000
  0
LINE
  8
LVL0000
 62
  3
 10
       55.199829
 20
      -55.099968
 30
        0.000000
 11
       55.199829
 21
      -36.679985
 31
        0.000000
  0
LINE
  8
LVL0000
 62
  3
 10
       58.999878
 20
      -55.099968
 30
        0.000000
 11
       58.999878
 21
      -36.679985
 31
        0.000000
  0
LINE
  8
LVL0000
 62
  3
 10
       55.199829
 20
      -36.679985
 30
        0.000000
 11
       58.999878
 21
      -36.679985
 31
        0.000000
  0
LINE
  8
LVL0000
 62
  3
 10
       55.199829
 20
      -55.099968
 30
        0.000000
 11
       58.999878
 21
      -55.099968
 31
        0.000000
  0
LINE
  8
LVL0000
 62
  3
 10
       67.500000
 20
      -36.679985
 30
        0.000000
 11
       65.999878
 21
      -36.679985
 31
        0.000000
  0
LINE
  8
LVL0000
 62
  3
 10
       67.500000
 20
      -37.660027
 30
        0.000000
 11
       56.999756
 21
      -37.660027
 31
        0.000000
  0
LINE
  8
LVL0000
 62
  3
 10
       67.500000
 20
      -38.879997
 30
        0.000000
 11
       56.999756
 21
      -38.879997
 31
        0.000000
  0
LINE
  8
LVL0000
 62
  3
 10
       67.500000
 20
      -45.280022
 30
        0.000000
 11
       56.999756
 21
      -45.280022
 31
        0.000000
  0
LINE
  8
LVL0000
 62
  3
 10
       67.500000
 20
      -46.499992
 30
        0.000000
 11
       56.999756
 21
      -46.499992
 31
        0.000000
  0
LINE
  8
LVL0000
 62
  3
 10
       67.500000
 20
      -52.900017
 30
        0.000000
 11
       56.999756
 21
      -52.900017
 31
        0.000000
  0
LINE
  8
LVL0000
 62
  3
 10
       67.500000
 20
      -54.119987
 30
        0.000000
 11
       56.999756
 21
      -54.119987
 31
        0.000000
  0
LINE
  8
LVL0000
 62
  3
 10
       67.500000
 20
      -55.099968
 30
        0.000000
 11
       65.999878
 21
      -55.099968
 31
        0.000000
  0
LINE
  8
LVL0000
 62
  3
 10
      171.399902
 20
      -57.500008
 30
        0.000000
 11
      171.399902
 21
      -62.000008
 31
        0.000000
  0
LINE
  8
LVL0000
 62
  3
 10
      168.899902
 20
      -60.000008
 30
        0.000000
 11
      168.899902
 21
      -61.000008
 31
        0.000000
  0
LINE
  8
LVL0000
 62
  3
 10
      167.299927
 20
      -53.500008
 30
        0.000000
 11
      171.399902
 21
      -57.500008
 31
        0.000000
  0
LINE
  8
LVL0000
 62
  3
 10
      168.899902
 20
      -61.000008
 30
        0.000000
 11
      170.399902
 21
      -62.000008
 31
        0.000000
  0
LINE
  8
LVL0000
 62
  3
 10
      170.399902
 20
      -62.000008
 30
        0.000000
 11
      171.399902
 21
      -62.000008
 31
        0.000000
  0
LINE
  8
LVL0000
 62
  3
 10
      166.799927
 20
      -60.000008
 30
        0.000000
 11
      168.899902
 21
      -60.000008
 31
        0.000000
  0
LINE
  8
LVL0000
 62
  3
 10
      169.899902
 20
       56.400002
 30
        0.000000
 11
      174.899902
 21
       56.400002
 31
        0.000000
  0
LINE
  8
LVL0000
 62
  3
 10
      169.899902
 20
       60.400002
 30
        0.000000
 11
      174.899902
 21
       60.400002
 31
        0.000000
  0
ARC
  8
LVL0000
 62
  3
 10
      174.899902
 20
       58.400002
 30
        0.000000
 40
        2.000000
 50
      270.000000
 51
      450.000000
  0
ARC
  8
LVL0000
 62
  3
 10
      174.900452
 20
      101.499519
 30
        0.000000
 40
        2.000000
 50
      270.000000
 51
      450.000000
  0
LINE
  8
LVL0000
 62
  3
 10
      169.900452
 20
      103.499519
 30
        0.000000
 11
      174.900452
 21
      103.499519
 31
        0.000000
  0
LINE
  8
LVL0000
 62
  3
 10
      169.900452
 20
       99.499519
 30
        0.000000
 11
      174.900452
 21
       99.499519
 31
        0.000000
  0
LINE
  8
LVL0000
 62
  3
 10
      171.400452
 20
      124.400017
 30
        0.000000
 11
      169.900024
 21
      124.400017
 31
        0.000000
  0
LINE
  8
LVL0000
 62
  3
 10
      171.400452
 20
      124.400017
 30
        0.000000
 11
      171.400452
 21
      103.499519
 31
        0.000000
  0
LINE
  8
LVL0000
 62
  3
 10
        5.199951
 20
      -15.103386
 30
        0.000000
 11
        5.199951
 21
      -12.216606
 31
        0.000000
  0
LINE
  8
LVL0000
 62
  3
 10
        2.699951
 20
      -16.546745
 30
        0.000000
 11
        5.199951
 21
      -15.103386
 31
        0.000000
  0
LINE
  8
LVL0000
 62
  3
 10
        0.199951
 20
      -15.103386
 30
        0.000000
 11
        2.699951
 21
      -16.546745
 31
        0.000000
  0
LINE
  8
LVL0000
 62
  3
 10
        0.199951
 20
      -12.216606
 30
        0.000000
 11
        0.199951
 21
      -15.103386
 31
        0.000000
  0
LINE
  8
LVL0000
 62
  3
 10
        2.699951
 20
      -10.773247
 30
        0.000000
 11
        0.199951
 21
      -12.216606
 31
        0.000000
  0
LINE
  8
LVL0000
 62
  3
 10
        5.199951
 20
      -12.216606
 30
        0.000000
 11
        2.699951
 21
      -10.773247
 31
        0.000000
  0
LINE
  8
LVL0000
 62
  3
 10
        5.199951
 20
       18.216682
 30
        0.000000
 11
        5.199951
 21
       21.103401
 31
        0.000000
  0
LINE
  8
LVL0000
 62
  3
 10
        2.699951
 20
       16.773201
 30
        0.000000
 11
        5.199951
 21
       18.216682
 31
        0.000000
  0
LINE
  8
LVL0000
 62
  3
 10
        0.199951
 20
       18.216682
 30
        0.000000
 11
        2.699951
 21
       16.773201
 31
        0.000000
  0
LINE
  8
LVL0000
 62
  3
 10
        0.199951
 20
       21.103401
 30
        0.000000
 11
        0.199951
 21
       18.216682
 31
        0.000000
  0
LINE
  8
LVL0000
 62
  3
 10
        2.699951
 20
       22.546761
 30
        0.000000
 11
        0.199951
 21
       21.103401
 31
        0.000000
  0
LINE
  8
LVL0000
 62
  3
 10
        5.199951
 20
       21.103401
 30
        0.000000
 11
        2.699951
 21
       22.546761
 31
        0.000000
  0
CIRCLE
  8
LVL0000
 62
  3
 10
        2.699951
 20
      -13.660027
 30
        0.000000
 40
        1.300049
  0
CIRCLE
  8
LVL0000
 62
  3
 10
        2.699951
 20
       19.660042
 30
        0.000000
 40
        1.300049
  0
ARC
  8
LVL0000
 62
  3
 10
        5.009766
 20
       12.855721
 30
        0.000000
 40
        1.600098
 50
        0.000000
 51
       80.000938
  0
LINE
  8
LVL0000
 62
  3
 10
        0.389893
 20
       15.295052
 30
        0.000000
 11
        5.287598
 21
       14.431404
 31
        0.000000
  0
ARC
  8
LVL0000
 62
  3
 10
        0.389893
 20
       13.694954
 30
        0.000000
 40
        1.599976
 50
       90.000000
 51
      180.000010
  0
LINE
  8
LVL0000
 62
  3
 10
       -1.209961
 20
       13.694954
 30
        0.000000
 11
       -1.209961
 21
       -7.695000
 31
        0.000000
  0
ARC
  8
LVL0000
 62
  3
 10
        0.389893
 20
       -7.695000
 30
        0.000000
 40
        1.599854
 50
      180.000010
 51
      270.000000
  0
LINE
  8
LVL0000
 62
  3
 10
        0.389893
 20
       -9.295036
 30
        0.000000
 11
        5.287598
 21
       -8.431389
 31
        0.000000
  0
ARC
  8
LVL0000
 62
  3
 10
        5.009766
 20
       -6.855705
 30
        0.000000
 40
        1.599990
 50
      279.999892
 51
      360.000000
  0
LINE
  8
LVL0000
 62
  3
 10
        6.609863
 20
       12.855721
 30
        0.000000
 11
        6.609863
 21
       -6.855705
 31
        0.000000
  0
LINE
  8
LVL0000
 62
  3
 10
        9.000000
 20
      -16.549980
 30
        0.000000
 11
       -3.600098
 21
      -16.549980
 31
        0.000000
  0
LINE
  8
LVL0000
 62
  3
 10
        9.000000
 20
       22.550056
 30
        0.000000
 11
       -3.600098
 21
       22.550056
 31
        0.000000
  0
LINE
  8
LVL0000
 62
  3
 10
       -3.600098
 20
      -16.549980
 30
        0.000000
 11
       -3.600098
 21
       22.550056
 31
        0.000000
  0
LINE
  8
LVL0000
 62
  3
 10
        9.000000
 20
      -16.549980
 30
        0.000000
 11
        9.000000
 21
       22.550056
 31
        0.000000
  0
LINE
  8
LVL0000
 62
  3
 10
      -17.500000
 20
       57.000008
 30
        0.000000
 11
       17.500000
 21
       57.000008
 31
        0.000000
  0
LINE
  8
LVL0000
 62
  3
 10
      -16.100098
 20
       63.500008
 30
        0.000000
 11
       16.099854
 21
       63.500008
 31
        0.000000
  0
LINE
  8
LVL0000
 62
  3
 10
      -16.100098
 20
       58.000008
 30
        0.000000
 11
       16.099854
 21
       58.000008
 31
        0.000000
  0
LINE
  8
LVL0000
 62
  3
 10
      -16.100098
 20
       58.000008
 30
        0.000000
 11
      -16.100098
 21
       63.500008
 31
        0.000000
  0
LINE
  8
LVL0000
 62
  3
 10
       16.099854
 20
       58.000008
 30
        0.000000
 11
       16.099854
 21
       63.500008
 31
        0.000000
  0
ARC
  8
LVL0000
 62
  3
 10
      -17.000000
 20
       64.500008
 30
        0.000000
 40
        0.500000
 50
       90.000000
 51
      180.000010
  0
LINE
  8
LVL0000
 62
  3
 10
      -17.000000
 20
       65.000008
 30
        0.000000
 11
       17.000000
 21
       65.000008
 31
        0.000000
  0
ARC
  8
LVL0000
 62
  3
 10
       17.000000
 20
       64.500008
 30
        0.000000
 40
        0.500000
 50
        0.000000
 51
       90.000000
  0
LINE
  8
LVL0000
 62
  3
 10
       17.500000
 20
      -64.499992
 30
        0.000000
 11
       17.500000
 21
       64.500008
 31
        0.000000
  0
LINE
  8
LVL0000
 62
  3
 10
      -17.500000
 20
      -64.499992
 30
        0.000000
 11
      -17.500000
 21
       64.500008
 31
        0.000000
  0
LINE
  8
LVL0000
 62
  3
 10
      -17.500000
 20
       38.000008
 30
        0.000000
 11
       17.500000
 21
       38.000008
 31
        0.000000
  0
LINE
  8
LVL0000
 62
  3
 10
      -17.500000
 20
       38.000008
 30
        0.000000
 11
       17.500000
 21
       38.000008
 31
        0.000000
  0
CIRCLE
  8
LVL0000
 62
  3
 10
       10.500000
 20
       33.599983
 30
        0.000000
 40
        2.500000
  0
LINE
  8
LVL0000
 62
  3
 10
       -7.300049
 20
       24.500008
 30
        0.000000
 11
       12.699951
 21
       24.500008
 31
        0.000000
  0
LINE
  8
LVL0000
 62
  3
 10
       -7.300049
 20
      -18.499992
 30
        0.000000
 11
       -7.300049
 21
       24.500008
 31
        0.000000
  0
LINE
  8
LVL0000
 62
  3
 10
       12.699951
 20
      -18.499992
 30
        0.000000
 11
       12.699951
 21
       24.500008
 31
        0.000000
  0
LINE
  8
LVL0000
 62
  3
 10
       -6.300049
 20
      -18.499992
 30
        0.000000
 11
       -6.300049
 21
       24.500008
 31
        0.000000
  0
LINE
  8
LVL0000
 62
  3
 10
        9.000000
 20
      -16.549980
 30
        0.000000
 11
        9.000000
 21
       22.550056
 31
        0.000000
  0
LINE
  8
LVL0000
 62
  3
 10
       11.699951
 20
      -18.499992
 30
        0.000000
 11
       11.699951
 21
       24.500008
 31
        0.000000
  0
CIRCLE
  8
LVL0000
 62
  3
 10
       -5.100098
 20
       33.000008
 30
        0.000000
 40
        2.000000
  0
LINE
  8
LVL0000
 62
  3
 10
       -4.600098
 20
       33.499519
 30
        0.000000
 11
       -6.600098
 21
       33.499519
 31
        0.000000
  0
LINE
  8
LVL0000
 62
  3
 10
       -4.600098
 20
       32.499519
 30
        0.000000
 11
       -6.600098
 21
       32.499519
 31
        0.000000
  0
LINE
  8
LVL0000
 62
  3
 10
       -6.600098
 20
       33.499519
 30
        0.000000
 11
       -6.600098
 21
       32.499519
 31
        0.000000
  0
LINE
  8
LVL0000
 62
  3
 10
       -4.600098
 20
       33.999519
 30
        0.000000
 11
       -4.600098
 21
       33.499519
 31
        0.000000
  0
LINE
  8
LVL0000
 62
  3
 10
       -3.600098
 20
       32.999519
 30
        0.000000
 11
       -4.600098
 21
       33.999519
 31
        0.000000
  0
LINE
  8
LVL0000
 62
  3
 10
       -3.600098
 20
       32.999519
 30
        0.000000
 11
       -4.600098
 21
       31.999519
 31
        0.000000
  0
LINE
  8
LVL0000
 62
  3
 10
       -4.600098
 20
       32.499519
 30
        0.000000
 11
       -4.600098
 21
       31.999519
 31
        0.000000
  0
CIRCLE
  8
LVL0000
 62
  3
 10
       -5.100098
 20
       33.000008
 30
        0.000000
 40
        4.500000
  0
ARC
  8
LVL0000
 62
  3
 10
      -17.000000
 20
      -64.499992
 30
        0.000000
 40
        0.500000
 50
      180.000010
 51
      270.000000
  0
LINE
  8
LVL0000
 62
  3
 10
       17.000000
 20
      -64.999992
 30
        0.000000
 11
      -17.000000
 21
      -64.999992
 31
        0.000000
  0
ARC
  8
LVL0000
 62
  3
 10
       17.000000
 20
      -64.499992
 30
        0.000000
 40
        0.500000
 50
      270.000000
 51
      360.000000
  0
CIRCLE
  8
LVL0000
 62
  3
 10
       10.500000
 20
      -59.599998
 30
        0.000000
 40
        2.500000
  0
LINE
  8
LVL0000
 62
  3
 10
       -7.300049
 20
      -18.499992
 30
        0.000000
 11
       12.699951
 21
      -18.499992
 31
        0.000000
  0
LINE
  8
LVL0000
 62
  3
 10
        9.000000
 20
      -18.499992
 30
        0.000000
 11
        9.000000
 21
       24.500008
 31
        0.000000
  0
LINE
  8
LVL0000
 62
  3
 10
       10.599854
 20
      -18.499992
 30
        0.000000
 11
       10.599854
 21
       24.500008
 31
        0.000000
  0
LINE
  8
LVL0000
 62
  3
 10
      -17.500000
 20
       39.000008
 30
        0.000000
 11
       17.500000
 21
       39.000008
 31
        0.000000
  0
LINE
  8
LVL0000
 62
  3
 10
      -14.100098
 20
       38.000008
 30
        0.000000
 11
      -14.100098
 21
       39.000008
 31
        0.000000
  0
LINE
  8
LVL0000
 62
  3
 10
       -9.900146
 20
       38.000008
 30
        0.000000
 11
       -9.900146
 21
       39.000008
 31
        0.000000
  0
LINE
  8
LVL0000
 62
  3
 10
       14.099854
 20
       38.000008
 30
        0.000000
 11
       14.099854
 21
       39.000008
 31
        0.000000
  0
LINE
  8
LVL0000
 62
  3
 10
        9.899902
 20
       38.000008
 30
        0.000000
 11
        9.899902
 21
       39.000008
 31
        0.000000
  0
CIRCLE
  8
LVL0000
 62
  3
 10
        1.279785
 20
       -6.599968
 30
        0.000000
 40
        0.500000
  0
CIRCLE
  8
LVL0000
 62
  3
 10
        4.119873
 20
       -5.229973
 30
        0.000000
 40
        0.500000
  0
CIRCLE
  8
LVL0000
 62
  3
 10
        1.279785
 20
       -3.859978
 30
        0.000000
 40
        0.500000
  0
CIRCLE
  8
LVL0000
 62
  3
 10
        4.119873
 20
       -2.489983
 30
        0.000000
 40
        0.500000
  0
CIRCLE
  8
LVL0000
 62
  3
 10
        1.279785
 20
       -1.109978
 30
        0.000000
 40
        0.500000
  0
CIRCLE
  8
LVL0000
 62
  3
 10
        4.119873
 20
        0.260017
 30
        0.000000
 40
        0.500000
  0
CIRCLE
  8
LVL0000
 62
  3
 10
        4.119873
 20
        3.000008
 30
        0.000000
 40
        0.500000
  0
CIRCLE
  8
LVL0000
 62
  3
 10
        1.279785
 20
        1.630013
 30
        0.000000
 40
        0.500000
  0
CIRCLE
  8
LVL0000
 62
  3
 10
        1.279785
 20
        4.370003
 30
        0.000000
 40
        0.500000
  0
CIRCLE
  8
LVL0000
 62
  3
 10
        1.279785
 20
        7.109993
 30
        0.000000
 40
        0.500000
  0
CIRCLE
  8
LVL0000
 62
  3
 10
        1.279785
 20
        9.859993
 30
        0.000000
 40
        0.500000
  0
CIRCLE
  8
LVL0000
 62
  3
 10
        1.279785
 20
       12.599983
 30
        0.000000
 40
        0.500000
  0
CIRCLE
  8
LVL0000
 62
  3
 10
        4.119873
 20
       11.229988
 30
        0.000000
 40
        0.500000
  0
CIRCLE
  8
LVL0000
 62
  3
 10
        4.119873
 20
        5.739998
 30
        0.000000
 40
        0.500000
  0
CIRCLE
  8
LVL0000
 62
  3
 10
        4.119873
 20
        8.489998
 30
        0.000000
 40
        0.500000
  0
LINE
  8
LVL0000
 62
  3
 10
      -16.484619
 20
       29.635750
 30
        0.000000
 11
      -16.484619
 21
       36.635750
 31
        0.000000
  0
LINE
  8
LVL0000
 62
  3
 10
      -16.484619
 20
       29.635750
 30
        0.000000
 11
      -10.484619
 21
       29.635750
 31
        0.000000
  0
LINE
  8
LVL0000
 62
  3
 10
      -16.484619
 20
       36.635750
 30
        0.000000
 11
      -10.484619
 21
       36.635750
 31
        0.000000
  0
LINE
  8
LVL0000
 62
  3
 10
      -10.484619
 20
       29.635750
 30
        0.000000
 11
      -10.484619
 21
       36.635750
 31
        0.000000
  0
LINE
  8
LVL0000
 62
  3
 10
        9.000610
 20
      -37.180260
 30
        0.000000
 11
       -2.999390
 21
      -37.180260
 31
        0.000000
  0
LINE
  8
LVL0000
 62
  3
 10
        9.000610
 20
      -38.160240
 30
        0.000000
 11
       -2.999390
 21
      -38.160240
 31
        0.000000
  0
LINE
  8
LVL0000
 62
  3
 10
        9.000610
 20
      -39.380272
 30
        0.000000
 11
       -2.999390
 21
      -39.380272
 31
        0.000000
  0
LINE
  8
LVL0000
 62
  3
 10
        9.000610
 20
      -45.780296
 30
        0.000000
 11
       -2.999390
 21
      -45.780296
 31
        0.000000
  0
LINE
  8
LVL0000
 62
  3
 10
        9.000610
 20
      -47.000267
 30
        0.000000
 11
       -2.999390
 21
      -47.000267
 31
        0.000000
  0
LINE
  8
LVL0000
 62
  3
 10
       -2.999390
 20
      -55.600243
 30
        0.000000
 11
       -2.999390
 21
      -37.180260
 31
        0.000000
  0
CIRCLE
  8
LVL0000
 62
  3
 10
        3.500610
 20
      -50.200279
 30
        0.000000
 40
        2.750000
  0
CIRCLE
  8
LVL0000
 62
  3
 10
        3.500610
 20
      -42.580284
 30
        0.000000
 40
        2.750000
  0
LINE
  8
LVL0000
 62
  3
 10
        2.981567
 20
      -43.099266
 30
        0.000000
 11
        2.575317
 21
      -42.909813
 31
        0.000000
  0
LINE
  8
LVL0000
 62
  3
 10
        2.575317
 20
      -42.909813
 30
        0.000000
 11
        1.700684
 21
      -42.894554
 31
        0.000000
  0
LINE
  8
LVL0000
 62
  3
 10
        1.700684
 20
      -42.894554
 30
        0.000000
 11
        1.700684
 21
      -42.580284
 31
        0.000000
  0
LINE
  8
LVL0000
 62
  3
 10
        2.981567
 20
      -43.099266
 30
        0.000000
 11
        3.171021
 21
      -43.505516
 31
        0.000000
  0
LINE
  8
LVL0000
 62
  3
 10
        3.171021
 20
      -43.505516
 30
        0.000000
 11
        3.186401
 21
      -44.380272
 31
        0.000000
  0
LINE
  8
LVL0000
 62
  3
 10
        3.186401
 20
      -44.380272
 30
        0.000000
 11
        3.500610
 21
      -44.380272
 31
        0.000000
  0
LINE
  8
LVL0000
 62
  3
 10
        3.171021
 20
      -41.654991
 30
        0.000000
 11
        3.186401
 21
      -40.780296
 31
        0.000000
  0
LINE
  8
LVL0000
 62
  3
 10
        2.981567
 20
      -42.061241
 30
        0.000000
 11
        3.171021
 21
      -41.654991
 31
        0.000000
  0
LINE
  8
LVL0000
 62
  3
 10
        2.981567
 20
      -42.061241
 30
        0.000000
 11
        2.575317
 21
      -42.250694
 31
        0.000000
  0
LINE
  8
LVL0000
 62
  3
 10
        2.575317
 20
      -42.250694
 30
        0.000000
 11
        1.700684
 21
      -42.265953
 31
        0.000000
  0
LINE
  8
LVL0000
 62
  3
 10
        1.700684
 20
      -42.265953
 30
        0.000000
 11
        1.700684
 21
      -42.580284
 31
        0.000000
  0
LINE
  8
LVL0000
 62
  3
 10
        3.815063
 20
      -44.380272
 30
        0.000000
 11
        3.500610
 21
      -44.380272
 31
        0.000000
  0
LINE
  8
LVL0000
 62
  3
 10
        3.830200
 20
      -43.505516
 30
        0.000000
 11
        3.815063
 21
      -44.380272
 31
        0.000000
  0
LINE
  8
LVL0000
 62
  3
 10
        4.019653
 20
      -43.099266
 30
        0.000000
 11
        3.830200
 21
      -43.505516
 31
        0.000000
  0
LINE
  8
LVL0000
 62
  3
 10
        4.019653
 20
      -43.099266
 30
        0.000000
 11
        4.425903
 21
      -42.909813
 31
        0.000000
  0
LINE
  8
LVL0000
 62
  3
 10
        4.425903
 20
      -42.909813
 30
        0.000000
 11
        5.300659
 21
      -42.894554
 31
        0.000000
  0
LINE
  8
LVL0000
 62
  3
 10
        5.300659
 20
      -42.894554
 30
        0.000000
 11
        5.300659
 21
      -42.580284
 31
        0.000000
  0
LINE
  8
LVL0000
 62
  3
 10
        5.300659
 20
      -42.265953
 30
        0.000000
 11
        5.300659
 21
      -42.580284
 31
        0.000000
  0
LINE
  8
LVL0000
 62
  3
 10
        4.425903
 20
      -42.250694
 30
        0.000000
 11
        5.300659
 21
      -42.265953
 31
        0.000000
  0
LINE
  8
LVL0000
 62
  3
 10
        4.019653
 20
      -42.061241
 30
        0.000000
 11
        4.425903
 21
      -42.250694
 31
        0.000000
  0
LINE
  8
LVL0000
 62
  3
 10
        4.019653
 20
      -42.061241
 30
        0.000000
 11
        3.830200
 21
      -41.654991
 31
        0.000000
  0
LINE
  8
LVL0000
 62
  3
 10
        3.830200
 20
      -41.654991
 30
        0.000000
 11
        3.815063
 21
      -40.780296
 31
        0.000000
  0
LINE
  8
LVL0000
 62
  3
 10
        3.186401
 20
      -40.780296
 30
        0.000000
 11
        3.815063
 21
      -40.780296
 31
        0.000000
  0
LINE
  8
LVL0000
 62
  3
 10
       -1.499390
 20
      -53.400291
 30
        0.000000
 11
       -1.499390
 21
      -47.000267
 31
        0.000000
  0
LINE
  8
LVL0000
 62
  3
 10
        7.500610
 20
      -53.400291
 30
        0.000000
 11
        7.500610
 21
      -47.000267
 31
        0.000000
  0
LINE
  8
LVL0000
 62
  3
 10
       -1.499390
 20
      -45.780296
 30
        0.000000
 11
       -1.499390
 21
      -39.380272
 31
        0.000000
  0
LINE
  8
LVL0000
 62
  3
 10
       -1.499390
 20
      -38.160240
 30
        0.000000
 11
       -1.499390
 21
      -37.180260
 31
        0.000000
  0
LINE
  8
LVL0000
 62
  3
 10
        7.500610
 20
      -45.780296
 30
        0.000000
 11
        7.500610
 21
      -39.380272
 31
        0.000000
  0
LINE
  8
LVL0000
 62
  3
 10
        7.500610
 20
      -38.160240
 30
        0.000000
 11
        7.500610
 21
      -37.180260
 31
        0.000000
  0
LINE
  8
LVL0000
 62
  3
 10
        6.700684
 20
      -53.400291
 30
        0.000000
 11
        6.700684
 21
      -47.000267
 31
        0.000000
  0
LINE
  8
LVL0000
 62
  3
 10
        6.700684
 20
      -45.780296
 30
        0.000000
 11
        6.700684
 21
      -39.380272
 31
        0.000000
  0
LINE
  8
LVL0000
 62
  3
 10
        0.300659
 20
      -53.400291
 30
        0.000000
 11
        0.300659
 21
      -47.000267
 31
        0.000000
  0
LINE
  8
LVL0000
 62
  3
 10
        0.300659
 20
      -45.780296
 30
        0.000000
 11
        0.300659
 21
      -39.380272
 31
        0.000000
  0
CIRCLE
  8
LVL0000
 62
  3
 10
        3.000000
 20
      -29.000023
 30
        0.000000
 40
        5.949951
  0
CIRCLE
  8
LVL0000
 62
  3
 10
        3.000000
 20
      -29.000023
 30
        0.000000
 40
        7.000000
  0
CIRCLE
  8
LVL0000
 62
  3
 10
        5.549805
 20
      -28.000023
 30
        0.000000
 40
        0.500000
  0
CIRCLE
  8
LVL0000
 62
  3
 10
        5.549805
 20
      -30.000023
 30
        0.000000
 40
        0.500000
  0
CIRCLE
  8
LVL0000
 62
  3
 10
        4.000000
 20
      -29.000023
 30
        0.000000
 40
        0.500000
  0
CIRCLE
  8
LVL0000
 62
  3
 10
        4.000000
 20
      -26.500023
 30
        0.000000
 40
        0.500000
  0
CIRCLE
  8
LVL0000
 62
  3
 10
        2.000000
 20
      -26.500023
 30
        0.000000
 40
        0.500000
  0
CIRCLE
  8
LVL0000
 62
  3
 10
        2.000000
 20
      -29.000023
 30
        0.000000
 40
        0.500000
  0
CIRCLE
  8
LVL0000
 62
  3
 10
        2.000000
 20
      -31.500023
 30
        0.000000
 40
        0.500000
  0
CIRCLE
  8
LVL0000
 62
  3
 10
        4.000000
 20
      -31.500023
 30
        0.000000
 40
        0.500000
  0
CIRCLE
  8
LVL0000
 62
  3
 10
        0.449951
 20
      -30.000023
 30
        0.000000
 40
        0.500000
  0
CIRCLE
  8
LVL0000
 62
  3
 10
        0.449951
 20
      -28.000023
 30
        0.000000
 40
        0.500000
  0
CIRCLE
  8
LVL0000
 62
  3
 10
        3.000000
 20
      -29.000023
 30
        0.000000
 40
        4.800049
  0
CIRCLE
  8
LVL0000
 62
  3
 10
        3.000000
 20
      -29.000023
 30
        0.000000
 40
        3.800049
  0
ARC
  8
LVL0000
 62
  3
 10
        8.000000
 20
      -35.500023
 30
        0.000000
 40
        0.500000
 50
       90.000000
 51
      270.000000
  0
LINE
  8
LVL0000
 62
  3
 10
        8.000000
 20
      -36.000023
 30
        0.000000
 11
        9.000000
 21
      -36.000023
 31
        0.000000
  0
LINE
  8
LVL0000
 62
  3
 10
        9.000000
 20
      -38.000023
 30
        0.000000
 11
        9.000000
 21
      -35.000023
 31
        0.000000
  0
LINE
  8
LVL0000
 62
  3
 10
        8.000000
 20
      -36.000023
 30
        0.000000
 11
        8.000000
 21
      -35.000023
 31
        0.000000
  0
LINE
  8
LVL0000
 62
  3
 10
       -3.499390
 20
      -56.100243
 30
        0.000000
 11
       -3.499390
 21
      -32.742821
 31
        0.000000
  0
LINE
  8
LVL0000
 62
  3
 10
        9.500610
 20
      -56.100243
 30
        0.000000
 11
        9.500610
 21
      -32.740501
 31
        0.000000
  0
ARC
  8
LVL0000
 62
  3
 10
        3.000000
 20
      -29.000023
 30
        0.000000
 40
        8.000030
 50
      324.349620
 51
      575.667038
  0
ARC
  8
LVL0000
 62
  3
 10
        3.000000
 20
      -29.000023
 30
        0.000000
 40
        7.499941
 50
      330.083700
 51
      569.937206
  0
LINE
  8
LVL0000
 62
  3
 10
        8.000000
 20
      -35.000023
 30
        0.000000
 11
        9.500610
 21
      -35.000023
 31
        0.000000
  0
LINE
  8
LVL0000
 62
  3
 10
       -3.499390
 20
      -38.000023
 30
        0.000000
 11
       -2.999390
 21
      -38.000023
 31
        0.000000
  0
LINE
  8
LVL0000
 62
  3
 10
        9.000610
 20
      -56.100243
 30
        0.000000
 11
        9.000610
 21
      -37.180260
 31
        0.000000
  0
LINE
  8
LVL0000
 62
  3
 10
        9.000610
 20
      -53.400291
 30
        0.000000
 11
       -2.999390
 21
      -53.400291
 31
        0.000000
  0
LINE
  8
LVL0000
 62
  3
 10
        9.000610
 20
      -54.620262
 30
        0.000000
 11
       -2.999390
 21
      -54.620262
 31
        0.000000
  0
LINE
  8
LVL0000
 62
  3
 10
        9.000610
 20
      -55.600243
 30
        0.000000
 11
       -2.999390
 21
      -55.600243
 31
        0.000000
  0
LINE
  8
LVL0000
 62
  3
 10
        2.981567
 20
      -50.719261
 30
        0.000000
 11
        2.575317
 21
      -50.529808
 31
        0.000000
  0
LINE
  8
LVL0000
 62
  3
 10
        2.575317
 20
      -50.529808
 30
        0.000000
 11
        1.700684
 21
      -50.514549
 31
        0.000000
  0
LINE
  8
LVL0000
 62
  3
 10
        1.700684
 20
      -50.514549
 30
        0.000000
 11
        1.700684
 21
      -50.200279
 31
        0.000000
  0
LINE
  8
LVL0000
 62
  3
 10
        2.981567
 20
      -50.719261
 30
        0.000000
 11
        3.171021
 21
      -51.125511
 31
        0.000000
  0
LINE
  8
LVL0000
 62
  3
 10
        3.171021
 20
      -51.125511
 30
        0.000000
 11
        3.186401
 21
      -52.000267
 31
        0.000000
  0
LINE
  8
LVL0000
 62
  3
 10
        3.186401
 20
      -52.000267
 30
        0.000000
 11
        3.500610
 21
      -52.000267
 31
        0.000000
  0
LINE
  8
LVL0000
 62
  3
 10
        3.171021
 20
      -49.274986
 30
        0.000000
 11
        3.186401
 21
      -48.400291
 31
        0.000000
  0
LINE
  8
LVL0000
 62
  3
 10
        2.981567
 20
      -49.681236
 30
        0.000000
 11
        3.171021
 21
      -49.274986
 31
        0.000000
  0
LINE
  8
LVL0000
 62
  3
 10
        2.981567
 20
      -49.681236
 30
        0.000000
 11
        2.575317
 21
      -49.870689
 31
        0.000000
  0
LINE
  8
LVL0000
 62
  3
 10
        2.575317
 20
      -49.870689
 30
        0.000000
 11
        1.700684
 21
      -49.885948
 31
        0.000000
  0
LINE
  8
LVL0000
 62
  3
 10
        1.700684
 20
      -49.885948
 30
        0.000000
 11
        1.700684
 21
      -50.200279
 31
        0.000000
  0
LINE
  8
LVL0000
 62
  3
 10
        3.815063
 20
      -52.000267
 30
        0.000000
 11
        3.500610
 21
      -52.000267
 31
        0.000000
  0
LINE
  8
LVL0000
 62
  3
 10
        3.830200
 20
      -51.125511
 30
        0.000000
 11
        3.815063
 21
      -52.000267
 31
        0.000000
  0
LINE
  8
LVL0000
 62
  3
 10
        4.019653
 20
      -50.719261
 30
        0.000000
 11
        3.830200
 21
      -51.125511
 31
        0.000000
  0
LINE
  8
LVL0000
 62
  3
 10
        4.019653
 20
      -50.719261
 30
        0.000000
 11
        4.425903
 21
      -50.529808
 31
        0.000000
  0
LINE
  8
LVL0000
 62
  3
 10
        4.425903
 20
      -50.529808
 30
        0.000000
 11
        5.300659
 21
      -50.514549
 31
        0.000000
  0
LINE
  8
LVL0000
 62
  3
 10
        5.300659
 20
      -50.514549
 30
        0.000000
 11
        5.300659
 21
      -50.200279
 31
        0.000000
  0
LINE
  8
LVL0000
 62
  3
 10
        5.300659
 20
      -49.885948
 30
        0.000000
 11
        5.300659
 21
      -50.200279
 31
        0.000000
  0
LINE
  8
LVL0000
 62
  3
 10
        4.425903
 20
      -49.870689
 30
        0.000000
 11
        5.300659
 21
      -49.885948
 31
        0.000000
  0
LINE
  8
LVL0000
 62
  3
 10
        4.019653
 20
      -49.681236
 30
        0.000000
 11
        4.425903
 21
      -49.870689
 31
        0.000000
  0
LINE
  8
LVL0000
 62
  3
 10
        4.019653
 20
      -49.681236
 30
        0.000000
 11
        3.830200
 21
      -49.274986
 31
        0.000000
  0
LINE
  8
LVL0000
 62
  3
 10
        3.830200
 20
      -49.274986
 30
        0.000000
 11
        3.815063
 21
      -48.400291
 31
        0.000000
  0
LINE
  8
LVL0000
 62
  3
 10
        3.186401
 20
      -48.400291
 30
        0.000000
 11
        3.815063
 21
      -48.400291
 31
        0.000000
  0
LINE
  8
LVL0000
 62
  3
 10
        7.500610
 20
      -55.600243
 30
        0.000000
 11
        7.500610
 21
      -54.620262
 31
        0.000000
  0
LINE
  8
LVL0000
 62
  3
 10
       -1.499390
 20
      -55.600243
 30
        0.000000
 11
       -1.499390
 21
      -54.620262
 31
        0.000000
  0
LINE
  8
LVL0000
 62
  3
 10
        9.500610
 20
      -56.100243
 30
        0.000000
 11
       -3.499390
 21
      -56.100243
 31
        0.000000
  0
CIRCLE
  8
LVL0000
 62
  3
 10
        4.000000
 20
       49.500008
 30
        0.000000
 40
        4.750000
  0
CIRCLE
  8
LVL0000
 62
  3
 10
        4.000000
 20
       49.500008
 30
        0.000000
 40
        2.000000
  0
LINE
  8
LVL0000
 62
  3
 10
        4.500000
 20
       49.999519
 30
        0.000000
 11
        2.500000
 21
       49.999519
 31
        0.000000
  0
LINE
  8
LVL0000
 62
  3
 10
        4.500000
 20
       48.999519
 30
        0.000000
 11
        2.500000
 21
       48.999519
 31
        0.000000
  0
LINE
  8
LVL0000
 62
  3
 10
        2.500000
 20
       49.999519
 30
        0.000000
 11
        2.500000
 21
       48.999519
 31
        0.000000
  0
LINE
  8
LVL0000
 62
  3
 10
        4.500000
 20
       50.499519
 30
        0.000000
 11
        4.500000
 21
       49.999519
 31
        0.000000
  0
LINE
  8
LVL0000
 62
  3
 10
        5.500000
 20
       49.499519
 30
        0.000000
 11
        4.500000
 21
       50.499519
 31
        0.000000
  0
LINE
  8
LVL0000
 62
  3
 10
        5.500000
 20
       49.499519
 30
        0.000000
 11
        4.500000
 21
       48.499519
 31
        0.000000
  0
LINE
  8
LVL0000
 62
  3
 10
        4.500000
 20
       48.999519
 30
        0.000000
 11
        4.500000
 21
       48.499519
 31
        0.000000
  0
CIRCLE
  8
LVL0000
 62
  3
 10
      -13.000000
 20
       53.599983
 30
        0.000000
 40
        1.000000
  0
CIRCLE
  8
LVL0000
 62
  3
 10
       -9.500000
 20
       53.599983
 30
        0.000000
 40
        1.000000
  0
CIRCLE
  8
LVL0000
 62
  3
 10
       -6.000000
 20
       53.599983
 30
        0.000000
 40
        1.000000
  0
CIRCLE
  8
LVL0000
 62
  3
 10
       -2.500000
 20
       53.599983
 30
        0.000000
 40
        1.000000
  0
CIRCLE
  8
LVL0000
 62
  3
 10
       -2.500000
 20
       46.599983
 30
        0.000000
 40
        1.000000
  0
CIRCLE
  8
LVL0000
 62
  3
 10
       -6.000000
 20
       46.599983
 30
        0.000000
 40
        1.000000
  0
CIRCLE
  8
LVL0000
 62
  3
 10
       -9.500000
 20
       46.599983
 30
        0.000000
 40
        1.000000
  0
CIRCLE
  8
LVL0000
 62
  3
 10
      -13.000000
 20
       46.599983
 30
        0.000000
 40
        1.000000
  0
LINE
  8
LVL0000
 62
  3
 10
      169.900024
 20
      130.000008
 30
        0.000000
 11
      169.900024
 21
       95.000008
 31
        0.000000
  0
LINE
  8
LVL0000
  6
CENTER
 62
  3
 10
      -26.775342
 20
        0.000000
 30
        0.000000
 11
       25.692608
 21
        0.000000
 31
        0.000000
  0
LINE
  8
LVL0000
  6
CENTER
 62
  3
 10
        0.000000
 20
      -75.090590
 30
        0.000000
 11
        0.000000
 21
       72.289983
 31
        0.000000
  0
ENDSEC
  0
EOF
