  0
SECTION
  2
HEADER
  9
$ACADVER
  1
AC1006
  9
$INSBASE
 10
0.0
 20
0.0
 30
0.0
  9
$EXTMIN
 10
      -87.500000
 20
      -74.761803
  9
$EXTMAX
 10
      176.900208
 20
      120.000191
  9
$LIMMIN
 10
      -87.500000
 20
      -74.761803
  9
$LIMMAX
 10
      176.900208
 20
      120.000191
  9
$VIEWCTR
 10
       44.700104
 20
       44.700104
  9
$ORTHOMODE
 70
     0
  9
$ANGBASE
 50
0.0
  9
$ANGDIR
 70
     0
  9
$SPLINETYPE
 70
     6
  9
$SPLINESEGS
 70
     8
9
$DIMASZ
 40
        6.000000
9
$DIMEXE
 40
        0.500000
9
$DIMEXO
 40
        1.000000
9
$DIMTXT
 40
        4.000000
9
$DIMGAP
 40
        0.500000
9
$DIMTAD
 70
1
9
$DIMTIH
 70
0
9
$DIMTOH
 70
0
  0
ENDSEC
  0
SECTION
  2
TABLES
  0
TABLE
  2
LTYPE
 70
     5
  0
LTYPE
  2
CONTINUOUS
 70
    64
  3
SOLID LINE
 72
    65
 73
     0
 40
0.0
  0
LTYPE
  2
DASHED
 70
    64
  3
-- -- -- -- -- --
 72
    65
 73
     2
 40
  0.75  
 49
  0.50  
 49
 -0.25  
  0
LTYPE
  2
DOT
 70
    64
  3
....................
 72
    65
 73
     2
 40
  0.25  
 49
  0.02  
 49
 -0.23  
  0
LTYPE
  2
CENTER
 70
    64
  3
-- . -- . -- . -- .
 72
    65
 73
    4
 40
  2.00  
 49
  1.25  
 49
 -0.25  
 49
  0.25  
 49
 -0.25  
  0
LTYPE
  2
PHANTOM
 70
    64
  3
-- .. -- .. -- ..
 72
    65
 73
    6
 40
  2.50  
 49
  1.25  
 49
 -0.25  
 49
  0.25  
 49
 -0.25  
 49
  0.25  
 49
 -0.25  
  0
ENDTAB
  0
TABLE
  2
LAYER
 70
     1
  0
LAYER
  2
LVL0000
 70
    64
 62
     2
  6
CONTINUOUS
  0
ENDTAB
  0
TABLE
  2
STYLE
 70
     2
  0
STYLE
  2
STANDARD
 70
    64
 40
0.0
 41
1.0
 50
0.0
 71
     0
 42
5.0
  3
ROMANS
  4
BIGFONT
  0
STYLE
  2
BIGFONT
 70
    64
 40
0.0
 41
1.0
 50
0.0
 71
     0
 42
5.0
  3
ROMANS
  4
BIGFONT
  0
ENDTAB
  0
TABLE
  2
VIEW
 70
     0
  0
ENDTAB
  0
TABLE
  2
UCS
 70
     0
  0
ENDTAB
  0
TABLE
  2
DWGMGR
 70
     0
  0
ENDTAB
  0
ENDSEC
  0
SECTION
  2
BLOCKS
  0
BLOCK
  8
0
  2
BLK0001
 70
    64
 10
        0.000000
 20
        0.000000
  0
TEXT
  8
LVL0000
 10
       -3.999634
 20
      -83.333275
 30
        0.000000
 40
        4.000000
  1
３５
 50
        0.000000
 41
        0.835000
 51
        0.000000
  7
BIGFONT
  0
LINE
  8
LVL0000
 10
      -17.499634
 20
      -65.500313
 30
        0.000000
 11
      -17.499634
 21
      -84.333275
 31
        0.000000
  0
LINE
  8
LVL0000
 10
       17.500366
 20
      -65.500313
 30
        0.000000
 11
       17.500366
 21
      -84.333275
 31
        0.000000
  0
LINE
  8
LVL0000
 10
      -11.499634
 20
      -82.890800
 30
        0.000000
 11
      -17.499634
 21
      -83.833275
 31
        0.000000
  0
LINE
  8
LVL0000
 10
      -17.499634
 20
      -83.833275
 30
        0.000000
 11
      -11.499634
 21
      -84.775749
 31
        0.000000
  0
LINE
  8
LVL0000
 10
       11.500366
 20
      -84.775749
 30
        0.000000
 11
       17.500366
 21
      -83.833275
 31
        0.000000
  0
LINE
  8
LVL0000
 10
       17.500366
 20
      -83.833275
 30
        0.000000
 11
       11.500366
 21
      -82.890800
 31
        0.000000
  0
LINE
  8
LVL0000
 10
      -17.499634
 20
      -83.833275
 30
        0.000000
 11
       17.500366
 21
      -83.833275
 31
        0.000000
  0
ENDBLK
  0
BLOCK
  8
0
  2
BLK0002
 70
    64
 10
        0.000000
 20
        0.000000
  0
TEXT
  8
LVL0000
 10
      108.700226
 20
      -83.333275
 30
        0.000000
 40
        4.000000
  1
１０２．４
 50
        0.000000
 41
        0.835000
 51
        0.000000
  7
BIGFONT
  0
LINE
  8
LVL0000
 10
      169.900208
 20
       53.999702
 30
        0.000000
 11
      169.900208
 21
      -84.333275
 31
        0.000000
  0
LINE
  8
LVL0000
 10
       67.500244
 20
      -65.500313
 30
        0.000000
 11
       67.500244
 21
      -84.333275
 31
        0.000000
  0
LINE
  8
LVL0000
 10
      166.900208
 20
      -84.618675
 30
        0.000000
 11
      169.900208
 21
      -83.833275
 31
        0.000000
  0
LINE
  8
LVL0000
 10
      169.900208
 20
      -83.833275
 30
        0.000000
 11
      166.900208
 21
      -83.047874
 31
        0.000000
  0
LINE
  8
LVL0000
 10
       70.500244
 20
      -83.047874
 30
        0.000000
 11
       67.500244
 21
      -83.833275
 31
        0.000000
  0
LINE
  8
LVL0000
 10
       67.500244
 20
      -83.833275
 30
        0.000000
 11
       70.500244
 21
      -84.618675
 31
        0.000000
  0
LINE
  8
LVL0000
 10
      169.900208
 20
      -83.833275
 30
        0.000000
 11
       67.500244
 21
      -83.833275
 31
        0.000000
  0
ENDBLK
  0
BLOCK
  8
0
  2
BLK0003
 70
    64
 10
        0.000000
 20
        0.000000
  0
TEXT
  8
LVL0000
 10
       36.065552
 20
       -6.079231
 30
        0.000000
 40
        4.000000
  1
１３０
 50
       90.000000
 41
        0.835000
 51
        0.000000
  7
BIGFONT
  0
LINE
  8
LVL0000
 10
       18.000366
 20
       64.999702
 30
        0.000000
 11
       37.065552
 21
       64.999702
 31
        0.000000
  0
LINE
  8
LVL0000
 10
       18.000366
 20
      -65.000313
 30
        0.000000
 11
       37.065552
 21
      -65.000313
 31
        0.000000
  0
LINE
  8
LVL0000
 10
       37.508030
 20
       58.999702
 30
        0.000000
 11
       36.565552
 21
       64.999702
 31
        0.000000
  0
LINE
  8
LVL0000
 10
       36.565552
 20
       64.999702
 30
        0.000000
 11
       35.623074
 21
       58.999702
 31
        0.000000
  0
LINE
  8
LVL0000
 10
       35.623074
 20
      -59.000313
 30
        0.000000
 11
       36.565552
 21
      -65.000313
 31
        0.000000
  0
LINE
  8
LVL0000
 10
       36.565552
 20
      -65.000313
 30
        0.000000
 11
       37.508030
 21
      -59.000313
 31
        0.000000
  0
LINE
  8
LVL0000
 10
       36.565552
 20
       64.999702
 30
        0.000000
 11
       36.565552
 21
      -65.000313
 31
        0.000000
  0
ENDBLK
  0
ENDSEC
  0
SECTION
  2
ENTITIES
  0
TEXT
  8
LVL0000
 10
      -12.878655
 20
      113.678230
 30
        0.000000
 40
        5.000000
  1
ＪＷ３０１ＰＵ
 50
        0.000000
 41
        0.835000
 51
        0.000000
  7
BIGFONT
  0
TEXT
  8
LVL0000
 10
      -12.878655
 20
      106.678230
 30
        0.000000
 40
        5.000000
  1
ＪＷ３１ＰＵ
 50
        0.000000
 41
        0.835000
 51
        0.000000
  7
BIGFONT
  0
TEXT
  8
LVL0000
 10
      -12.878655
 20
       92.678230
 30
        0.000000
 40
        5.000000
  1
ＪＷ２１ＰＵ
 50
        0.000000
 41
        0.835000
 51
        0.000000
  7
BIGFONT
  0
LINE
  8
LVL0000
 62
  3
 10
      -55.150000
 20
      -61.549995
 30
        0.000000
 11
      -86.000000
 21
      -61.549995
 31
        0.000000
  0
LINE
  8
LVL0000
 62
  3
 10
      -73.500000
 20
      -62.800008
 30
        0.000000
 11
      -73.500000
 21
      -65.000008
 31
        0.000000
  0
LINE
  8
LVL0000
 62
  3
 10
      -57.500000
 20
       -0.549995
 30
        0.000000
 11
      -86.000000
 21
       -0.549995
 31
        0.000000
  0
LINE
  8
LVL0000
 62
  3
 10
      -57.500000
 20
        0.999992
 30
        0.000000
 11
      -57.500000
 21
      -59.500008
 31
        0.000000
  0
CIRCLE
  8
LVL0000
 62
  3
 10
      -63.800000
 20
       -7.300008
 30
        0.000000
 40
        3.500000
  0
LINE
  8
LVL0000
 62
  3
 10
      -67.850000
 20
      -22.250008
 30
        0.000000
 11
      -67.850000
 21
      -30.350008
 31
        0.000000
  0
LINE
  8
LVL0000
 62
  3
 10
      -59.750000
 20
      -22.250008
 30
        0.000000
 11
      -59.750000
 21
      -30.350008
 31
        0.000000
  0
LINE
  8
LVL0000
 62
  3
 10
      -67.850000
 20
      -12.750008
 30
        0.000000
 11
      -67.850000
 21
      -20.850008
 31
        0.000000
  0
LINE
  8
LVL0000
 62
  3
 10
      -59.750000
 20
      -12.750008
 30
        0.000000
 11
      -59.750000
 21
      -20.850008
 31
        0.000000
  0
LINE
  8
LVL0000
 62
  3
 10
      -59.750000
 20
       -3.250008
 30
        0.000000
 11
      -59.750000
 21
      -11.350008
 31
        0.000000
  0
LINE
  8
LVL0000
 62
  3
 10
      -67.850000
 20
       -3.250008
 30
        0.000000
 11
      -67.850000
 21
      -11.350008
 31
        0.000000
  0
CIRCLE
  8
LVL0000
 62
  3
 10
      -63.800000
 20
      -26.300008
 30
        0.000000
 40
        3.500000
  0
CIRCLE
  8
LVL0000
 62
  3
 10
      -63.800000
 20
      -16.800008
 30
        0.000000
 40
        3.500000
  0
LINE
  8
LVL0000
 62
  3
 10
      -72.300000
 20
      -20.850008
 30
        0.000000
 11
      -57.500000
 21
      -20.850008
 31
        0.000000
  0
LINE
  8
LVL0000
 62
  3
 10
      -72.300000
 20
      -22.250008
 30
        0.000000
 11
      -57.500000
 21
      -22.250008
 31
        0.000000
  0
LINE
  8
LVL0000
 62
  3
 10
      -72.300000
 20
       -3.250008
 30
        0.000000
 11
      -57.500000
 21
       -3.250008
 31
        0.000000
  0
LINE
  8
LVL0000
 62
  3
 10
      -72.300000
 20
      -11.350008
 30
        0.000000
 11
      -57.500000
 21
      -11.350008
 31
        0.000000
  0
LINE
  8
LVL0000
 62
  3
 10
      -72.300000
 20
      -12.750008
 30
        0.000000
 11
      -57.500000
 21
      -12.750008
 31
        0.000000
  0
LINE
  8
LVL0000
 62
  3
 10
      -72.300000
 20
       -0.550008
 30
        0.000000
 11
      -72.300000
 21
      -61.550008
 31
        0.000000
  0
LINE
  8
LVL0000
 62
  3
 10
      -60.513782
 20
       -6.095529
 30
        0.000000
 11
      -62.980385
 21
       -7.519623
 31
        0.000000
  0
LINE
  8
LVL0000
 62
  3
 10
      -62.980385
 20
       -7.519623
 30
        0.000000
 11
      -62.255385
 21
       -8.775359
 31
        0.000000
  0
LINE
  8
LVL0000
 62
  3
 10
      -63.294616
 20
       -9.375359
 30
        0.000000
 11
      -62.255385
 21
       -8.775359
 31
        0.000000
  0
LINE
  8
LVL0000
 62
  3
 10
      -64.019615
 20
       -8.119623
 30
        0.000000
 11
      -63.294616
 21
       -9.375359
 31
        0.000000
  0
LINE
  8
LVL0000
 62
  3
 10
      -64.019615
 20
       -8.119623
 30
        0.000000
 11
      -66.486218
 21
       -9.543717
 31
        0.000000
  0
LINE
  8
LVL0000
 62
  3
 10
      -64.619615
 20
       -7.080392
 30
        0.000000
 11
      -67.086218
 21
       -8.504486
 31
        0.000000
  0
LINE
  8
LVL0000
 62
  3
 10
      -65.344615
 20
       -5.824656
 30
        0.000000
 11
      -64.619615
 21
       -7.080392
 31
        0.000000
  0
LINE
  8
LVL0000
 62
  3
 10
      -65.344615
 20
       -5.824656
 30
        0.000000
 11
      -64.305384
 21
       -5.224656
 31
        0.000000
  0
LINE
  8
LVL0000
 62
  3
 10
      -64.305384
 20
       -5.224656
 30
        0.000000
 11
      -63.580385
 21
       -6.480392
 31
        0.000000
  0
LINE
  8
LVL0000
 62
  3
 10
      -61.113782
 20
       -5.056298
 30
        0.000000
 11
      -63.580385
 21
       -6.480392
 31
        0.000000
  0
LINE
  8
LVL0000
 62
  3
 10
      -63.294616
 20
      -18.875359
 30
        0.000000
 11
      -62.255385
 21
      -18.275359
 31
        0.000000
  0
LINE
  8
LVL0000
 62
  3
 10
      -62.980385
 20
      -17.019623
 30
        0.000000
 11
      -62.255385
 21
      -18.275359
 31
        0.000000
  0
LINE
  8
LVL0000
 62
  3
 10
      -60.513782
 20
      -15.595529
 30
        0.000000
 11
      -62.980385
 21
      -17.019623
 31
        0.000000
  0
LINE
  8
LVL0000
 62
  3
 10
      -61.113782
 20
      -14.556298
 30
        0.000000
 11
      -63.580385
 21
      -15.980392
 31
        0.000000
  0
LINE
  8
LVL0000
 62
  3
 10
      -64.305384
 20
      -14.724656
 30
        0.000000
 11
      -63.580385
 21
      -15.980392
 31
        0.000000
  0
LINE
  8
LVL0000
 62
  3
 10
      -65.344615
 20
      -15.324656
 30
        0.000000
 11
      -64.305384
 21
      -14.724656
 31
        0.000000
  0
LINE
  8
LVL0000
 62
  3
 10
      -65.344615
 20
      -15.324656
 30
        0.000000
 11
      -64.619615
 21
      -16.580392
 31
        0.000000
  0
LINE
  8
LVL0000
 62
  3
 10
      -64.619615
 20
      -16.580392
 30
        0.000000
 11
      -67.086218
 21
      -18.004486
 31
        0.000000
  0
LINE
  8
LVL0000
 62
  3
 10
      -64.019615
 20
      -17.619623
 30
        0.000000
 11
      -66.486218
 21
      -19.043717
 31
        0.000000
  0
LINE
  8
LVL0000
 62
  3
 10
      -64.019615
 20
      -17.619623
 30
        0.000000
 11
      -63.294616
 21
      -18.875359
 31
        0.000000
  0
LINE
  8
LVL0000
 62
  3
 10
      -72.300000
 20
       -0.950008
 30
        0.000000
 11
      -57.500000
 21
       -0.950008
 31
        0.000000
  0
LINE
  8
LVL0000
 62
  3
 10
      -57.500000
 20
       -1.850008
 30
        0.000000
 11
      -72.300000
 21
       -1.850008
 31
        0.000000
  0
ARC
  8
LVL0000
 62
  3
 10
      -73.200000
 20
      -62.800008
 30
        0.000000
 40
        0.300000
 50
       90.000000
 51
      179.999995
  0
LINE
  8
LVL0000
 62
  3
 10
      -55.150000
 20
      -62.500008
 30
        0.000000
 11
      -73.200000
 21
      -62.500008
 31
        0.000000
  0
LINE
  8
LVL0000
 62
  3
 10
      -58.000000
 20
      -63.700008
 30
        0.000000
 11
      -58.000000
 21
      -65.000008
 31
        0.000000
  0
LINE
  8
LVL0000
 62
  3
 10
      -58.000000
 20
      -63.700008
 30
        0.000000
 11
      -68.000000
 21
      -63.700008
 31
        0.000000
  0
LINE
  8
LVL0000
 62
  3
 10
      -68.000000
 20
      -63.700008
 30
        0.000000
 11
      -68.000000
 21
      -65.000008
 31
        0.000000
  0
LINE
  8
LVL0000
 62
  3
 10
      -55.500000
 20
      -62.900008
 30
        0.000000
 11
      -59.000000
 21
      -62.900008
 31
        0.000000
  0
LINE
  8
LVL0000
 62
  3
 10
      -68.500000
 20
      -62.500008
 30
        0.000000
 11
      -68.500000
 21
      -62.900008
 31
        0.000000
  0
LINE
  8
LVL0000
 62
  3
 10
      -55.500000
 20
      -62.500008
 30
        0.000000
 11
      -55.500000
 21
      -62.900008
 31
        0.000000
  0
LINE
  8
LVL0000
 62
  3
 10
      -59.000000
 20
      -62.500008
 30
        0.000000
 11
      -59.000000
 21
      -62.900008
 31
        0.000000
  0
LINE
  8
LVL0000
 62
  3
 10
      -68.500000
 20
      -62.900008
 30
        0.000000
 11
      -72.000000
 21
      -62.900008
 31
        0.000000
  0
LINE
  8
LVL0000
 62
  3
 10
      -72.000000
 20
      -62.500008
 30
        0.000000
 11
      -72.000000
 21
      -62.900008
 31
        0.000000
  0
LINE
  8
LVL0000
 62
  3
 10
      -67.850000
 20
      -50.750008
 30
        0.000000
 11
      -67.850000
 21
      -58.850008
 31
        0.000000
  0
LINE
  8
LVL0000
 62
  3
 10
      -67.850000
 20
      -41.250008
 30
        0.000000
 11
      -67.850000
 21
      -49.350008
 31
        0.000000
  0
LINE
  8
LVL0000
 62
  3
 10
      -59.750000
 20
      -50.750008
 30
        0.000000
 11
      -59.750000
 21
      -58.850008
 31
        0.000000
  0
LINE
  8
LVL0000
 62
  3
 10
      -59.750000
 20
      -41.250008
 30
        0.000000
 11
      -59.750000
 21
      -49.350008
 31
        0.000000
  0
LINE
  8
LVL0000
 62
  3
 10
      -67.850000
 20
      -31.750008
 30
        0.000000
 11
      -67.850000
 21
      -39.850008
 31
        0.000000
  0
LINE
  8
LVL0000
 62
  3
 10
      -59.750000
 20
      -31.750008
 30
        0.000000
 11
      -59.750000
 21
      -39.850008
 31
        0.000000
  0
CIRCLE
  8
LVL0000
 62
  3
 10
      -63.800000
 20
      -54.800008
 30
        0.000000
 40
        3.500000
  0
CIRCLE
  8
LVL0000
 62
  3
 10
      -63.800000
 20
      -45.300008
 30
        0.000000
 40
        3.500000
  0
CIRCLE
  8
LVL0000
 62
  3
 10
      -63.800000
 20
      -35.800008
 30
        0.000000
 40
        3.500000
  0
LINE
  8
LVL0000
 62
  3
 10
      -72.300000
 20
      -58.850008
 30
        0.000000
 11
      -57.500000
 21
      -58.850008
 31
        0.000000
  0
LINE
  8
LVL0000
 62
  3
 10
      -72.300000
 20
      -30.350008
 30
        0.000000
 11
      -57.500000
 21
      -30.350008
 31
        0.000000
  0
LINE
  8
LVL0000
 62
  3
 10
      -72.300000
 20
      -31.750008
 30
        0.000000
 11
      -57.500000
 21
      -31.750008
 31
        0.000000
  0
LINE
  8
LVL0000
 62
  3
 10
      -72.300000
 20
      -39.850008
 30
        0.000000
 11
      -57.500000
 21
      -39.850008
 31
        0.000000
  0
LINE
  8
LVL0000
 62
  3
 10
      -72.300000
 20
      -41.250008
 30
        0.000000
 11
      -57.500000
 21
      -41.250008
 31
        0.000000
  0
LINE
  8
LVL0000
 62
  3
 10
      -72.300000
 20
      -49.350008
 30
        0.000000
 11
      -57.500000
 21
      -49.350008
 31
        0.000000
  0
LINE
  8
LVL0000
 62
  3
 10
      -72.300000
 20
      -50.750008
 30
        0.000000
 11
      -57.500000
 21
      -50.750008
 31
        0.000000
  0
LINE
  8
LVL0000
 62
  3
 10
      -57.161438
 20
      -60.250008
 30
        0.000000
 11
      -72.300000
 21
      -60.250008
 31
        0.000000
  0
LINE
  8
LVL0000
 62
  3
 10
      -55.300000
 20
      -60.500008
 30
        0.000000
 11
      -55.300000
 21
      -61.150008
 31
        0.000000
  0
LINE
  8
LVL0000
 62
  3
 10
      -55.150000
 20
      -60.500008
 30
        0.000000
 11
      -55.150000
 21
      -62.500008
 31
        0.000000
  0
LINE
  8
LVL0000
 62
  3
 10
      -52.500000
 20
      -60.500008
 30
        0.000000
 11
      -56.500000
 21
      -60.500008
 31
        0.000000
  0
ARC
  8
LVL0000
 62
  3
 10
      -56.500000
 20
      -59.500008
 30
        0.000000
 40
        1.000000
 50
      179.999995
 51
      270.000000
  0
LINE
  8
LVL0000
 62
  3
 10
      -63.294616
 20
      -28.375359
 30
        0.000000
 11
      -62.255385
 21
      -27.775359
 31
        0.000000
  0
LINE
  8
LVL0000
 62
  3
 10
      -63.294616
 20
      -37.875359
 30
        0.000000
 11
      -62.255385
 21
      -37.275359
 31
        0.000000
  0
LINE
  8
LVL0000
 62
  3
 10
      -63.294616
 20
      -47.375359
 30
        0.000000
 11
      -62.255385
 21
      -46.775359
 31
        0.000000
  0
LINE
  8
LVL0000
 62
  3
 10
      -63.294616
 20
      -56.875359
 30
        0.000000
 11
      -62.255385
 21
      -56.275359
 31
        0.000000
  0
LINE
  8
LVL0000
 62
  3
 10
      -62.980385
 20
      -26.519623
 30
        0.000000
 11
      -62.255385
 21
      -27.775359
 31
        0.000000
  0
LINE
  8
LVL0000
 62
  3
 10
      -62.980385
 20
      -36.019623
 30
        0.000000
 11
      -62.255385
 21
      -37.275359
 31
        0.000000
  0
LINE
  8
LVL0000
 62
  3
 10
      -62.980385
 20
      -45.519623
 30
        0.000000
 11
      -62.255385
 21
      -46.775359
 31
        0.000000
  0
LINE
  8
LVL0000
 62
  3
 10
      -62.980385
 20
      -55.019623
 30
        0.000000
 11
      -62.255385
 21
      -56.275359
 31
        0.000000
  0
LINE
  8
LVL0000
 62
  3
 10
      -60.513782
 20
      -25.095529
 30
        0.000000
 11
      -62.980385
 21
      -26.519623
 31
        0.000000
  0
LINE
  8
LVL0000
 62
  3
 10
      -60.513782
 20
      -34.595529
 30
        0.000000
 11
      -62.980385
 21
      -36.019623
 31
        0.000000
  0
LINE
  8
LVL0000
 62
  3
 10
      -60.513782
 20
      -44.095529
 30
        0.000000
 11
      -62.980385
 21
      -45.519623
 31
        0.000000
  0
LINE
  8
LVL0000
 62
  3
 10
      -60.513782
 20
      -53.595529
 30
        0.000000
 11
      -62.980385
 21
      -55.019623
 31
        0.000000
  0
LINE
  8
LVL0000
 62
  3
 10
      -61.113782
 20
      -24.056298
 30
        0.000000
 11
      -63.580385
 21
      -25.480392
 31
        0.000000
  0
LINE
  8
LVL0000
 62
  3
 10
      -61.113782
 20
      -33.556298
 30
        0.000000
 11
      -63.580385
 21
      -34.980392
 31
        0.000000
  0
LINE
  8
LVL0000
 62
  3
 10
      -61.113782
 20
      -43.056298
 30
        0.000000
 11
      -63.580385
 21
      -44.480392
 31
        0.000000
  0
LINE
  8
LVL0000
 62
  3
 10
      -61.113782
 20
      -52.556298
 30
        0.000000
 11
      -63.580385
 21
      -53.980392
 31
        0.000000
  0
LINE
  8
LVL0000
 62
  3
 10
      -64.305384
 20
      -24.224656
 30
        0.000000
 11
      -63.580385
 21
      -25.480392
 31
        0.000000
  0
LINE
  8
LVL0000
 62
  3
 10
      -64.305384
 20
      -33.724656
 30
        0.000000
 11
      -63.580385
 21
      -34.980392
 31
        0.000000
  0
LINE
  8
LVL0000
 62
  3
 10
      -64.305384
 20
      -43.224656
 30
        0.000000
 11
      -63.580385
 21
      -44.480392
 31
        0.000000
  0
LINE
  8
LVL0000
 62
  3
 10
      -64.305384
 20
      -52.724656
 30
        0.000000
 11
      -63.580385
 21
      -53.980392
 31
        0.000000
  0
LINE
  8
LVL0000
 62
  3
 10
      -65.344615
 20
      -24.824656
 30
        0.000000
 11
      -64.305384
 21
      -24.224656
 31
        0.000000
  0
LINE
  8
LVL0000
 62
  3
 10
      -65.344615
 20
      -34.324656
 30
        0.000000
 11
      -64.305384
 21
      -33.724656
 31
        0.000000
  0
LINE
  8
LVL0000
 62
  3
 10
      -65.344615
 20
      -43.824656
 30
        0.000000
 11
      -64.305384
 21
      -43.224656
 31
        0.000000
  0
LINE
  8
LVL0000
 62
  3
 10
      -65.344615
 20
      -53.324656
 30
        0.000000
 11
      -64.305384
 21
      -52.724656
 31
        0.000000
  0
LINE
  8
LVL0000
 62
  3
 10
      -65.344615
 20
      -24.824656
 30
        0.000000
 11
      -64.619615
 21
      -26.080392
 31
        0.000000
  0
LINE
  8
LVL0000
 62
  3
 10
      -65.344615
 20
      -34.324656
 30
        0.000000
 11
      -64.619615
 21
      -35.580392
 31
        0.000000
  0
LINE
  8
LVL0000
 62
  3
 10
      -65.344615
 20
      -43.824656
 30
        0.000000
 11
      -64.619615
 21
      -45.080392
 31
        0.000000
  0
LINE
  8
LVL0000
 62
  3
 10
      -65.344615
 20
      -53.324656
 30
        0.000000
 11
      -64.619615
 21
      -54.580392
 31
        0.000000
  0
LINE
  8
LVL0000
 62
  3
 10
      -64.619615
 20
      -26.080392
 30
        0.000000
 11
      -67.086218
 21
      -27.504486
 31
        0.000000
  0
LINE
  8
LVL0000
 62
  3
 10
      -64.619615
 20
      -35.580392
 30
        0.000000
 11
      -67.086218
 21
      -37.004486
 31
        0.000000
  0
LINE
  8
LVL0000
 62
  3
 10
      -64.619615
 20
      -45.080392
 30
        0.000000
 11
      -67.086218
 21
      -46.504486
 31
        0.000000
  0
LINE
  8
LVL0000
 62
  3
 10
      -64.619615
 20
      -54.580392
 30
        0.000000
 11
      -67.086218
 21
      -56.004486
 31
        0.000000
  0
LINE
  8
LVL0000
 62
  3
 10
      -64.019615
 20
      -27.119623
 30
        0.000000
 11
      -66.486218
 21
      -28.543717
 31
        0.000000
  0
LINE
  8
LVL0000
 62
  3
 10
      -64.019615
 20
      -36.619623
 30
        0.000000
 11
      -66.486218
 21
      -38.043717
 31
        0.000000
  0
LINE
  8
LVL0000
 62
  3
 10
      -64.019615
 20
      -46.119623
 30
        0.000000
 11
      -66.486218
 21
      -47.543717
 31
        0.000000
  0
LINE
  8
LVL0000
 62
  3
 10
      -64.019615
 20
      -55.619623
 30
        0.000000
 11
      -66.486218
 21
      -57.043717
 31
        0.000000
  0
LINE
  8
LVL0000
 62
  3
 10
      -64.019615
 20
      -27.119623
 30
        0.000000
 11
      -63.294616
 21
      -28.375359
 31
        0.000000
  0
LINE
  8
LVL0000
 62
  3
 10
      -64.019615
 20
      -36.619623
 30
        0.000000
 11
      -63.294616
 21
      -37.875359
 31
        0.000000
  0
LINE
  8
LVL0000
 62
  3
 10
      -64.019615
 20
      -46.119623
 30
        0.000000
 11
      -63.294616
 21
      -47.375359
 31
        0.000000
  0
LINE
  8
LVL0000
 62
  3
 10
      -64.019615
 20
      -55.619623
 30
        0.000000
 11
      -63.294616
 21
      -56.875359
 31
        0.000000
  0
LINE
  8
LVL0000
 62
  3
 10
      -68.000000
 20
      -61.550008
 30
        0.000000
 11
      -68.000000
 21
      -62.500008
 31
        0.000000
  0
LINE
  8
LVL0000
 62
  3
 10
      -67.000000
 20
      -61.550008
 30
        0.000000
 11
      -67.000000
 21
      -62.500008
 31
        0.000000
  0
LINE
  8
LVL0000
 62
  3
 10
      -72.300000
 20
      -61.150008
 30
        0.000000
 11
      -55.300000
 21
      -61.150008
 31
        0.000000
  0
LINE
  8
LVL0000
  6
CENTER
 62
  3
 10
      -70.000000
 20
       71.462942
 30
        0.000000
 11
      -70.000000
 21
      -74.761801
 31
        0.000000
  0
LINE
  8
LVL0000
  6
CENTER
 62
  3
 10
      -95.359355
 20
        0.000000
 30
        0.000000
 11
      -42.695571
 21
        0.000000
 31
        0.000000
  0
CIRCLE
  8
LVL0000
 62
  3
 10
      -61.500000
 20
       49.499982
 30
        0.000000
 40
        1.500000
  0
CIRCLE
  8
LVL0000
 62
  3
 10
      -61.500000
 20
       53.999982
 30
        0.000000
 40
        1.500000
  0
LINE
  8
LVL0000
 62
  3
 10
      -52.500000
 20
       40.499702
 30
        0.000000
 11
      -87.500000
 21
       40.499702
 31
        0.000000
  0
CIRCLE
  8
LVL0000
 62
  3
 10
      -82.500000
 20
       34.000008
 30
        0.000000
 40
        1.000000
  0
CIRCLE
  8
LVL0000
 62
  3
 10
      -82.500000
 20
       34.000008
 30
        0.000000
 40
        1.500000
  0
LINE
  8
LVL0000
 62
  3
 10
      -87.500000
 20
        3.999992
 30
        0.000000
 11
      -52.500000
 21
        3.999992
 31
        0.000000
  0
LINE
  8
LVL0000
 62
  3
 10
      -86.000000
 20
       -0.549995
 30
        0.000000
 11
      -86.000000
 21
      -61.549995
 31
        0.000000
  0
LINE
  8
LVL0000
 62
  3
 10
      -86.099976
 20
       63.500008
 30
        0.000000
 11
      -53.900024
 21
       63.500008
 31
        0.000000
  0
LINE
  8
LVL0000
 62
  3
 10
      -86.099976
 20
       58.000008
 30
        0.000000
 11
      -53.900024
 21
       58.000008
 31
        0.000000
  0
LINE
  8
LVL0000
 62
  3
 10
      -86.099976
 20
       63.500008
 30
        0.000000
 11
      -86.099976
 21
       58.000008
 31
        0.000000
  0
LINE
  8
LVL0000
 62
  3
 10
      -53.900024
 20
       63.500008
 30
        0.000000
 11
      -53.900024
 21
       58.000008
 31
        0.000000
  0
ARC
  8
LVL0000
 62
  3
 10
      -87.000000
 20
      -64.500008
 30
        0.000000
 40
        0.500000
 50
      180.000010
 51
      270.000000
  0
ARC
  8
LVL0000
 62
  3
 10
      -53.000000
 20
      -64.500008
 30
        0.000000
 40
        0.500000
 50
      270.000000
 51
      360.000000
  0
ARC
  8
LVL0000
 62
  3
 10
      -53.000000
 20
       64.500008
 30
        0.000000
 40
        0.500000
 50
        0.000000
 51
       90.000000
  0
ARC
  8
LVL0000
 62
  3
 10
      -87.000000
 20
       64.500008
 30
        0.000000
 40
        0.500000
 50
       90.000000
 51
      180.000010
  0
LINE
  8
LVL0000
 62
  3
 10
      -52.500000
 20
       64.500008
 30
        0.000000
 11
      -52.500000
 21
      -64.500008
 31
        0.000000
  0
LINE
  8
LVL0000
 62
  3
 10
      -87.500000
 20
       64.500008
 30
        0.000000
 11
      -87.500000
 21
      -64.500008
 31
        0.000000
  0
CIRCLE
  8
LVL0000
 62
  3
 10
      -82.500000
 20
       34.000008
 30
        0.000000
 40
        2.250000
  0
LINE
  8
LVL0000
 62
  3
 10
      -53.000000
 20
       65.000008
 30
        0.000000
 11
      -87.000000
 21
       65.000008
 31
        0.000000
  0
LINE
  8
LVL0000
 62
  3
 10
      -53.000000
 20
      -65.000008
 30
        0.000000
 11
      -87.000000
 21
      -65.000008
 31
        0.000000
  0
LINE
  8
LVL0000
 62
  3
 10
      -52.500000
 20
        0.999992
 30
        0.000000
 11
      -87.500000
 21
        0.999992
 31
        0.000000
  0
LINE
  8
LVL0000
 62
  3
 10
      -87.500000
 20
       38.000008
 30
        0.000000
 11
      -52.500000
 21
       38.000008
 31
        0.000000
  0
LINE
  8
LVL0000
 62
  3
 10
      -52.500000
 20
       57.000008
 30
        0.000000
 11
      -87.500000
 21
       57.000008
 31
        0.000000
  0
LINE
  8
LVL0000
 62
  3
 10
      -87.500000
 20
       39.000008
 30
        0.000000
 11
      -52.500000
 21
       39.000008
 31
        0.000000
  0
LINE
  8
LVL0000
 62
  3
 10
       99.500244
 20
       64.999702
 30
        0.000000
 11
       99.500244
 21
      -65.000313
 31
        0.000000
  0
LINE
  8
LVL0000
 62
  3
 10
      108.650208
 20
       12.649681
 30
        0.000000
 11
      108.650208
 21
      -12.650307
 31
        0.000000
  0
LINE
  8
LVL0000
 62
  3
 10
      108.650208
 20
      -12.650307
 30
        0.000000
 11
      158.950256
 21
      -12.650307
 31
        0.000000
  0
LINE
  8
LVL0000
 62
  3
 10
      100.500244
 20
       36.999702
 30
        0.000000
 11
      100.500244
 21
       24.999702
 31
        0.000000
  0
LINE
  8
LVL0000
 62
  3
 10
      103.800232
 20
       40.249702
 30
        0.000000
 11
      103.800232
 21
       21.749687
 31
        0.000000
  0
LINE
  8
LVL0000
 62
  3
 10
       99.500244
 20
       24.999702
 30
        0.000000
 11
      100.500244
 21
       24.999702
 31
        0.000000
  0
LINE
  8
LVL0000
 62
  3
 10
       99.500244
 20
       36.999702
 30
        0.000000
 11
      100.500244
 21
       36.999702
 31
        0.000000
  0
LINE
  8
LVL0000
 62
  3
 10
      106.300232
 20
       40.249702
 30
        0.000000
 11
      106.300232
 21
       21.749687
 31
        0.000000
  0
LINE
  8
LVL0000
 62
  3
 10
      103.800232
 20
       40.249702
 30
        0.000000
 11
      106.300232
 21
       40.249702
 31
        0.000000
  0
LINE
  8
LVL0000
 62
  3
 10
      103.800232
 20
       21.749687
 30
        0.000000
 11
      106.300232
 21
       21.749687
 31
        0.000000
  0
LINE
  8
LVL0000
 62
  3
 10
       67.500244
 20
       56.999702
 30
        0.000000
 11
       70.500244
 21
       56.999702
 31
        0.000000
  0
LINE
  8
LVL0000
 62
  3
 10
       67.500244
 20
       40.499702
 30
        0.000000
 11
       69.000244
 21
       38.999702
 31
        0.000000
  0
LINE
  8
LVL0000
 62
  3
 10
      100.500244
 20
      -36.000313
 30
        0.000000
 11
      100.500244
 21
      -48.000313
 31
        0.000000
  0
LINE
  8
LVL0000
 62
  3
 10
      103.800232
 20
      -32.750313
 30
        0.000000
 11
      103.800232
 21
      -51.250313
 31
        0.000000
  0
LINE
  8
LVL0000
 62
  3
 10
       99.500244
 20
      -48.000313
 30
        0.000000
 11
      100.500244
 21
      -48.000313
 31
        0.000000
  0
LINE
  8
LVL0000
 62
  3
 10
      106.300232
 20
      -32.750313
 30
        0.000000
 11
      106.300232
 21
      -51.250313
 31
        0.000000
  0
LINE
  8
LVL0000
 62
  3
 10
      103.800232
 20
      -51.250313
 30
        0.000000
 11
      106.300232
 21
      -51.250313
 31
        0.000000
  0
LINE
  8
LVL0000
 62
  3
 10
       99.500244
 20
      -36.000313
 30
        0.000000
 11
      100.500244
 21
      -36.000313
 31
        0.000000
  0
LINE
  8
LVL0000
 62
  3
 10
      103.800232
 20
      -32.750313
 30
        0.000000
 11
      106.300232
 21
      -32.750313
 31
        0.000000
  0
LINE
  8
LVL0000
 62
  3
 10
      169.900208
 20
       64.999702
 30
        0.000000
 11
      169.900208
 21
       54.999702
 31
        0.000000
  0
LINE
  8
LVL0000
 62
  3
 10
      167.300232
 20
       54.999702
 30
        0.000000
 11
      169.900208
 21
       54.999702
 31
        0.000000
  0
LINE
  8
LVL0000
 62
  3
 10
      108.650208
 20
       12.649681
 30
        0.000000
 11
      158.950256
 21
       12.649681
 31
        0.000000
  0
LINE
  8
LVL0000
 62
  3
 10
      158.950256
 20
       12.649681
 30
        0.000000
 11
      158.950256
 21
      -12.650307
 31
        0.000000
  0
LINE
  8
LVL0000
 62
  3
 10
      166.800232
 20
      -60.000313
 30
        0.000000
 11
      168.900208
 21
      -60.000313
 31
        0.000000
  0
LINE
  8
LVL0000
 62
  3
 10
      166.800232
 20
      -60.000313
 30
        0.000000
 11
      164.800232
 21
      -65.000313
 31
        0.000000
  0
LINE
  8
LVL0000
 62
  3
 10
      170.400208
 20
      -62.000313
 30
        0.000000
 11
      171.400208
 21
      -62.000313
 31
        0.000000
  0
LINE
  8
LVL0000
 62
  3
 10
      168.900208
 20
      -61.000313
 30
        0.000000
 11
      170.400208
 21
      -62.000313
 31
        0.000000
  0
LINE
  8
LVL0000
 62
  3
 10
      167.300232
 20
      -53.500313
 30
        0.000000
 11
      171.400208
 21
      -57.500313
 31
        0.000000
  0
LINE
  8
LVL0000
 62
  3
 10
      167.300232
 20
      -53.500313
 30
        0.000000
 11
      166.800232
 21
      -60.000313
 31
        0.000000
  0
LINE
  8
LVL0000
 62
  3
 10
      167.300232
 20
       54.999702
 30
        0.000000
 11
      167.300232
 21
      -53.500313
 31
        0.000000
  0
LINE
  8
LVL0000
 62
  3
 10
      168.900208
 20
      -60.000313
 30
        0.000000
 11
      168.900208
 21
      -61.000313
 31
        0.000000
  0
LINE
  8
LVL0000
 62
  3
 10
      171.400208
 20
      -57.500313
 30
        0.000000
 11
      171.400208
 21
      -62.000313
 31
        0.000000
  0
ARC
  8
LVL0000
 62
  3
 10
      174.900208
 20
       58.399696
 30
        0.000000
 40
        2.000000
 50
      270.000000
 51
      450.000000
  0
LINE
  8
LVL0000
 62
  3
 10
      169.900208
 20
       60.399696
 30
        0.000000
 11
      174.900208
 21
       60.399696
 31
        0.000000
  0
LINE
  8
LVL0000
 62
  3
 10
      169.900208
 20
       56.399696
 30
        0.000000
 11
      174.900208
 21
       56.399696
 31
        0.000000
  0
LINE
  8
LVL0000
 62
  3
 10
      -17.500000
 20
       39.000008
 30
        0.000000
 11
       17.500000
 21
       39.000008
 31
        0.000000
  0
LINE
  8
LVL0000
 62
  3
 10
       17.500000
 20
       57.000008
 30
        0.000000
 11
      -17.500000
 21
       57.000008
 31
        0.000000
  0
LINE
  8
LVL0000
 62
  3
 10
      -17.500000
 20
       38.000008
 30
        0.000000
 11
       17.500000
 21
       38.000008
 31
        0.000000
  0
LINE
  8
LVL0000
 62
  3
 10
       17.500000
 20
        0.999992
 30
        0.000000
 11
      -17.500000
 21
        0.999992
 31
        0.000000
  0
LINE
  8
LVL0000
 62
  3
 10
       -3.500000
 20
        0.999992
 30
        0.000000
 11
       -3.500000
 21
      -65.000008
 31
        0.000000
  0
LINE
  8
LVL0000
 62
  3
 10
       17.000000
 20
      -65.000008
 30
        0.000000
 11
      -17.000000
 21
      -65.000008
 31
        0.000000
  0
LINE
  8
LVL0000
 62
  3
 10
       17.000000
 20
       65.000008
 30
        0.000000
 11
      -17.000000
 21
       65.000008
 31
        0.000000
  0
CIRCLE
  8
LVL0000
 62
  3
 10
      -12.500000
 20
       34.000008
 30
        0.000000
 40
        2.250000
  0
LINE
  8
LVL0000
 62
  3
 10
      -17.500000
 20
       64.500008
 30
        0.000000
 11
      -17.500000
 21
      -64.500008
 31
        0.000000
  0
LINE
  8
LVL0000
 62
  3
 10
       17.500000
 20
       64.500008
 30
        0.000000
 11
       17.500000
 21
      -64.500008
 31
        0.000000
  0
ARC
  8
LVL0000
 62
  3
 10
      -17.000000
 20
       64.500008
 30
        0.000000
 40
        0.500000
 50
       90.000000
 51
      180.000010
  0
ARC
  8
LVL0000
 62
  3
 10
       17.000000
 20
       64.500008
 30
        0.000000
 40
        0.500000
 50
        0.000000
 51
       90.000000
  0
ARC
  8
LVL0000
 62
  3
 10
       17.000000
 20
      -64.500008
 30
        0.000000
 40
        0.500000
 50
      270.000000
 51
      360.000000
  0
ARC
  8
LVL0000
 62
  3
 10
      -17.000000
 20
      -64.500008
 30
        0.000000
 40
        0.500000
 50
      180.000010
 51
      270.000000
  0
LINE
  8
LVL0000
 62
  3
 10
       16.099976
 20
       63.500008
 30
        0.000000
 11
       16.099976
 21
       58.000008
 31
        0.000000
  0
LINE
  8
LVL0000
 62
  3
 10
      -16.099976
 20
       63.500008
 30
        0.000000
 11
      -16.099976
 21
       58.000008
 31
        0.000000
  0
LINE
  8
LVL0000
 62
  3
 10
      -16.099976
 20
       58.000008
 30
        0.000000
 11
       16.099976
 21
       58.000008
 31
        0.000000
  0
LINE
  8
LVL0000
 62
  3
 10
      -16.099976
 20
       63.500008
 30
        0.000000
 11
       16.099976
 21
       63.500008
 31
        0.000000
  0
LINE
  8
LVL0000
 62
  3
 10
       67.500244
 20
       37.999702
 30
        0.000000
 11
       70.500244
 21
       37.999702
 31
        0.000000
  0
LINE
  8
LVL0000
 62
  3
 10
       68.800232
 20
        0.999992
 30
        0.000000
 11
       67.500244
 21
        0.999992
 31
        0.000000
  0
LINE
  8
LVL0000
 62
  3
 10
       68.800232
 20
        0.999992
 30
        0.000000
 11
       68.800232
 21
      -65.000313
 31
        0.000000
  0
LINE
  8
LVL0000
 62
  3
 10
       67.500244
 20
       37.999702
 30
        0.000000
 11
       67.500244
 21
      -64.500313
 31
        0.000000
  0
LINE
  8
LVL0000
 62
  3
 10
       68.000244
 20
      -65.000313
 30
        0.000000
 11
      164.800232
 21
      -65.000313
 31
        0.000000
  0
ARC
  8
LVL0000
 62
  3
 10
       68.000244
 20
      -64.500313
 30
        0.000000
 40
        0.500000
 50
      180.000010
 51
      270.000000
  0
LINE
  8
LVL0000
 62
  3
 10
       -3.500000
 20
       -0.549995
 30
        0.000000
 11
      -16.000000
 21
       -0.549995
 31
        0.000000
  0
LINE
  8
LVL0000
 62
  3
 10
       -3.500000
 20
      -61.549995
 30
        0.000000
 11
      -16.000000
 21
      -61.549995
 31
        0.000000
  0
LINE
  8
LVL0000
 62
  3
 10
      -16.000000
 20
       -0.549995
 30
        0.000000
 11
      -16.000000
 21
      -61.549995
 31
        0.000000
  0
LINE
  8
LVL0000
 62
  3
 10
       70.500244
 20
       37.999702
 30
        0.000000
 11
       70.500244
 21
       38.999702
 31
        0.000000
  0
LINE
  8
LVL0000
 62
  3
 10
       70.500244
 20
       38.999702
 30
        0.000000
 11
       70.500244
 21
       56.999702
 31
        0.000000
  0
LINE
  8
LVL0000
 62
  3
 10
      -17.500000
 20
        3.999992
 30
        0.000000
 11
       17.500000
 21
        3.999992
 31
        0.000000
  0
CIRCLE
  8
LVL0000
 62
  3
 10
      -12.500000
 20
       34.000008
 30
        0.000000
 40
        1.500000
  0
CIRCLE
  8
LVL0000
 62
  3
 10
      -12.500000
 20
       34.000008
 30
        0.000000
 40
        1.000000
  0
LINE
  8
LVL0000
 62
  3
 10
       17.500000
 20
       40.499702
 30
        0.000000
 11
      -17.500000
 21
       40.499702
 31
        0.000000
  0
LINE
  8
LVL0000
 62
  3
 10
       69.000244
 20
       38.999702
 30
        0.000000
 11
       70.500244
 21
       38.999702
 31
        0.000000
  0
CIRCLE
  8
LVL0000
 62
  3
 10
        8.500000
 20
       53.999982
 30
        0.000000
 40
        1.500000
  0
CIRCLE
  8
LVL0000
 62
  3
 10
        8.500000
 20
       49.499982
 30
        0.000000
 40
        1.500000
  0
LINE
  8
LVL0000
  6
CENTER
 62
  3
 10
      -25.359355
 20
        0.000000
 30
        0.000000
 11
       27.304429
 21
        0.000000
 31
        0.000000
  0
LINE
  8
LVL0000
  6
CENTER
 62
  3
 10
        0.000000
 20
       71.462942
 30
        0.000000
 11
        0.000000
 21
      -74.761801
 31
        0.000000
  0
LINE
  8
LVL0000
 62
  3
 10
      169.899780
 20
       85.000175
 30
        0.000000
 11
       67.999756
 21
       85.000191
 31
        0.000000
  0
ARC
  8
LVL0000
 62
  3
 10
       67.999756
 20
       85.500175
 30
        0.000000
 40
        0.500000
 50
      179.999995
 51
      270.000000
  0
LINE
  8
LVL0000
 62
  3
 10
       83.499756
 20
       85.000191
 30
        0.000000
 11
       83.499756
 21
      120.000191
 31
        0.000000
  0
LINE
  8
LVL0000
 62
  3
 10
       81.499756
 20
       85.000191
 30
        0.000000
 11
       81.499756
 21
      120.000191
 31
        0.000000
  0
LINE
  8
LVL0000
 62
  3
 10
       83.499756
 20
       86.600197
 30
        0.000000
 11
       81.499756
 21
       86.600197
 31
        0.000000
  0
LINE
  8
LVL0000
 62
  3
 10
       83.499756
 20
      118.000191
 30
        0.000000
 11
       81.499756
 21
      118.000191
 31
        0.000000
  0
LINE
  8
LVL0000
 62
  3
 10
       87.499756
 20
       85.000191
 30
        0.000000
 11
       87.499756
 21
      120.000191
 31
        0.000000
  0
LINE
  8
LVL0000
 62
  3
 10
       85.499756
 20
       85.000191
 30
        0.000000
 11
       85.499756
 21
      120.000191
 31
        0.000000
  0
LINE
  8
LVL0000
 62
  3
 10
       87.499756
 20
       86.600197
 30
        0.000000
 11
       85.499756
 21
       86.600197
 31
        0.000000
  0
LINE
  8
LVL0000
 62
  3
 10
       87.499756
 20
      118.000191
 30
        0.000000
 11
       85.499756
 21
      118.000191
 31
        0.000000
  0
LINE
  8
LVL0000
 62
  3
 10
       91.499756
 20
       85.000191
 30
        0.000000
 11
       91.499756
 21
      120.000191
 31
        0.000000
  0
LINE
  8
LVL0000
 62
  3
 10
       89.499756
 20
       85.000191
 30
        0.000000
 11
       89.499756
 21
      120.000191
 31
        0.000000
  0
LINE
  8
LVL0000
 62
  3
 10
       91.499756
 20
       86.600197
 30
        0.000000
 11
       89.499756
 21
       86.600197
 31
        0.000000
  0
LINE
  8
LVL0000
 62
  3
 10
       91.499756
 20
      118.000191
 30
        0.000000
 11
       89.499756
 21
      118.000191
 31
        0.000000
  0
LINE
  8
LVL0000
 62
  3
 10
       95.499756
 20
       85.000191
 30
        0.000000
 11
       95.499756
 21
      120.000191
 31
        0.000000
  0
LINE
  8
LVL0000
 62
  3
 10
       93.499756
 20
       85.000191
 30
        0.000000
 11
       93.499756
 21
      120.000191
 31
        0.000000
  0
LINE
  8
LVL0000
 62
  3
 10
       95.499756
 20
       86.600197
 30
        0.000000
 11
       93.499756
 21
       86.600197
 31
        0.000000
  0
LINE
  8
LVL0000
 62
  3
 10
       95.499756
 20
      118.000191
 30
        0.000000
 11
       93.499756
 21
      118.000191
 31
        0.000000
  0
LINE
  8
LVL0000
 62
  3
 10
      171.400208
 20
      114.400185
 30
        0.000000
 11
      171.400208
 21
       93.499687
 31
        0.000000
  0
LINE
  8
LVL0000
 62
  3
 10
      171.400208
 20
      114.400185
 30
        0.000000
 11
      169.899780
 21
      114.400185
 31
        0.000000
  0
LINE
  8
LVL0000
 62
  3
 10
      169.900208
 20
       89.499687
 30
        0.000000
 11
      174.900208
 21
       89.499687
 31
        0.000000
  0
LINE
  8
LVL0000
 62
  3
 10
      169.900208
 20
       93.499687
 30
        0.000000
 11
      174.900208
 21
       93.499687
 31
        0.000000
  0
ARC
  8
LVL0000
 62
  3
 10
      174.900208
 20
       91.499687
 30
        0.000000
 40
        2.000000
 50
      270.000000
 51
      450.000000
  0
LINE
  8
LVL0000
 62
  3
 10
      108.499756
 20
      100.450188
 30
        0.000000
 11
      110.499756
 21
      100.000175
 31
        0.000000
  0
LINE
  8
LVL0000
 62
  3
 10
      108.499756
 20
      104.550163
 30
        0.000000
 11
      110.499756
 21
      105.000175
 31
        0.000000
  0
LINE
  8
LVL0000
 62
  3
 10
      118.499756
 20
       99.000175
 30
        0.000000
 11
      116.499756
 21
       99.100151
 31
        0.000000
  0
LINE
  8
LVL0000
 62
  3
 10
      116.499756
 20
      105.900200
 30
        0.000000
 11
      118.499756
 21
      106.000175
 31
        0.000000
  0
LINE
  8
LVL0000
 62
  3
 10
      112.499756
 20
      105.400200
 30
        0.000000
 11
      114.499756
 21
      105.700188
 31
        0.000000
  0
LINE
  8
LVL0000
 62
  3
 10
      114.499756
 20
       99.300163
 30
        0.000000
 11
      112.499756
 21
       99.600151
 31
        0.000000
  0
LINE
  8
LVL0000
 62
  3
 10
      105.999756
 20
      101.085991
 30
        0.000000
 11
      106.499756
 21
      100.900200
 31
        0.000000
  0
LINE
  8
LVL0000
 62
  3
 10
      106.499756
 20
      104.100151
 30
        0.000000
 11
      105.999756
 21
      103.914360
 31
        0.000000
  0
ARC
  8
LVL0000
 62
  3
 10
      106.499756
 20
      102.500175
 30
        0.000000
 40
        1.499973
 50
      109.471585
 51
      250.528418
  0
LINE
  8
LVL0000
 62
  3
 10
      122.499756
 20
       98.900200
 30
        0.000000
 11
      120.499756
 21
       98.900200
 31
        0.000000
  0
LINE
  8
LVL0000
 62
  3
 10
      122.499756
 20
      106.100151
 30
        0.000000
 11
      120.499756
 21
      106.100151
 31
        0.000000
  0
LINE
  8
LVL0000
 62
  3
 10
      126.499756
 20
       98.900200
 30
        0.000000
 11
      124.499756
 21
       98.900200
 31
        0.000000
  0
LINE
  8
LVL0000
 62
  3
 10
      126.499756
 20
      106.100151
 30
        0.000000
 11
      124.499756
 21
      106.100151
 31
        0.000000
  0
LINE
  8
LVL0000
 62
  3
 10
      130.499756
 20
       98.900200
 30
        0.000000
 11
      128.499756
 21
       98.900200
 31
        0.000000
  0
LINE
  8
LVL0000
 62
  3
 10
      130.499756
 20
      106.100151
 30
        0.000000
 11
      128.499756
 21
      106.100151
 31
        0.000000
  0
LINE
  8
LVL0000
 62
  3
 10
      134.499756
 20
       98.900200
 30
        0.000000
 11
      132.499756
 21
       98.900200
 31
        0.000000
  0
LINE
  8
LVL0000
 62
  3
 10
      134.499756
 20
      106.100151
 30
        0.000000
 11
      132.499756
 21
      106.100151
 31
        0.000000
  0
LINE
  8
LVL0000
 62
  3
 10
      138.499756
 20
       98.900200
 30
        0.000000
 11
      136.499756
 21
       98.900200
 31
        0.000000
  0
LINE
  8
LVL0000
 62
  3
 10
      138.499756
 20
      106.100151
 30
        0.000000
 11
      136.499756
 21
      106.100151
 31
        0.000000
  0
LINE
  8
LVL0000
 62
  3
 10
      142.499756
 20
       98.900200
 30
        0.000000
 11
      140.499756
 21
       98.900200
 31
        0.000000
  0
LINE
  8
LVL0000
 62
  3
 10
      142.499756
 20
      106.100151
 30
        0.000000
 11
      140.499756
 21
      106.100151
 31
        0.000000
  0
LINE
  8
LVL0000
 62
  3
 10
      146.499756
 20
       98.900200
 30
        0.000000
 11
      144.499756
 21
       98.900200
 31
        0.000000
  0
LINE
  8
LVL0000
 62
  3
 10
      146.499756
 20
      106.100151
 30
        0.000000
 11
      144.499756
 21
      106.100151
 31
        0.000000
  0
LINE
  8
LVL0000
 62
  3
 10
      150.499756
 20
       98.900200
 30
        0.000000
 11
      148.499756
 21
       98.900200
 31
        0.000000
  0
LINE
  8
LVL0000
 62
  3
 10
      150.499756
 20
      106.100151
 30
        0.000000
 11
      148.499756
 21
      106.100151
 31
        0.000000
  0
LINE
  8
LVL0000
 62
  3
 10
      154.499756
 20
       98.900200
 30
        0.000000
 11
      152.499756
 21
       98.900200
 31
        0.000000
  0
LINE
  8
LVL0000
 62
  3
 10
      154.499756
 20
      106.100151
 30
        0.000000
 11
      152.499756
 21
      106.100151
 31
        0.000000
  0
LINE
  8
LVL0000
 62
  3
 10
      158.499756
 20
       98.900200
 30
        0.000000
 11
      156.499756
 21
       98.900200
 31
        0.000000
  0
LINE
  8
LVL0000
 62
  3
 10
      158.499756
 20
      106.100151
 30
        0.000000
 11
      156.499756
 21
      106.100151
 31
        0.000000
  0
LINE
  8
LVL0000
 62
  3
 10
      158.499756
 20
       85.000175
 30
        0.000000
 11
      158.499756
 21
       99.231316
 31
        0.000000
  0
LINE
  8
LVL0000
 62
  3
 10
      158.499756
 20
      105.769035
 30
        0.000000
 11
      158.499756
 21
      120.000175
 31
        0.000000
  0
LINE
  8
LVL0000
 62
  3
 10
      160.499756
 20
       88.000175
 30
        0.000000
 11
      158.499756
 21
       88.000175
 31
        0.000000
  0
LINE
  8
LVL0000
 62
  3
 10
      160.499756
 20
      117.000175
 30
        0.000000
 11
      158.499756
 21
      117.000175
 31
        0.000000
  0
LINE
  8
LVL0000
 62
  3
 10
      156.499756
 20
       88.000175
 30
        0.000000
 11
      154.499756
 21
       88.000175
 31
        0.000000
  0
LINE
  8
LVL0000
 62
  3
 10
      156.499756
 20
      117.000175
 30
        0.000000
 11
      154.499756
 21
      117.000175
 31
        0.000000
  0
LINE
  8
LVL0000
 62
  3
 10
      156.499756
 20
       85.000175
 30
        0.000000
 11
      156.499756
 21
      120.000175
 31
        0.000000
  0
LINE
  8
LVL0000
 62
  3
 10
      154.499756
 20
       85.000175
 30
        0.000000
 11
      154.499756
 21
      120.000175
 31
        0.000000
  0
LINE
  8
LVL0000
 62
  3
 10
      152.499756
 20
       88.000175
 30
        0.000000
 11
      150.499756
 21
       88.000175
 31
        0.000000
  0
LINE
  8
LVL0000
 62
  3
 10
      152.499756
 20
      117.000175
 30
        0.000000
 11
      150.499756
 21
      117.000175
 31
        0.000000
  0
LINE
  8
LVL0000
 62
  3
 10
      152.499756
 20
       85.000175
 30
        0.000000
 11
      152.499756
 21
      120.000175
 31
        0.000000
  0
LINE
  8
LVL0000
 62
  3
 10
      150.499756
 20
       85.000175
 30
        0.000000
 11
      150.499756
 21
      120.000175
 31
        0.000000
  0
LINE
  8
LVL0000
 62
  3
 10
      148.499756
 20
       88.000175
 30
        0.000000
 11
      146.499756
 21
       88.000175
 31
        0.000000
  0
LINE
  8
LVL0000
 62
  3
 10
      148.499756
 20
      117.000175
 30
        0.000000
 11
      146.499756
 21
      117.000175
 31
        0.000000
  0
LINE
  8
LVL0000
 62
  3
 10
      148.499756
 20
       85.000175
 30
        0.000000
 11
      148.499756
 21
      120.000175
 31
        0.000000
  0
LINE
  8
LVL0000
 62
  3
 10
      146.499756
 20
       85.000175
 30
        0.000000
 11
      146.499756
 21
      120.000175
 31
        0.000000
  0
LINE
  8
LVL0000
 62
  3
 10
      144.499756
 20
       88.000175
 30
        0.000000
 11
      142.499756
 21
       88.000175
 31
        0.000000
  0
LINE
  8
LVL0000
 62
  3
 10
      144.499756
 20
      117.000175
 30
        0.000000
 11
      142.499756
 21
      117.000175
 31
        0.000000
  0
LINE
  8
LVL0000
 62
  3
 10
      144.499756
 20
       85.000175
 30
        0.000000
 11
      144.499756
 21
      120.000175
 31
        0.000000
  0
LINE
  8
LVL0000
 62
  3
 10
      142.499756
 20
       85.000175
 30
        0.000000
 11
      142.499756
 21
      120.000175
 31
        0.000000
  0
LINE
  8
LVL0000
 62
  3
 10
      140.499756
 20
       88.000175
 30
        0.000000
 11
      138.499756
 21
       88.000175
 31
        0.000000
  0
LINE
  8
LVL0000
 62
  3
 10
      140.499756
 20
      117.000175
 30
        0.000000
 11
      138.499756
 21
      117.000175
 31
        0.000000
  0
LINE
  8
LVL0000
 62
  3
 10
      140.499756
 20
       85.000175
 30
        0.000000
 11
      140.499756
 21
      120.000175
 31
        0.000000
  0
LINE
  8
LVL0000
 62
  3
 10
      138.499756
 20
       85.000175
 30
        0.000000
 11
      138.499756
 21
      120.000175
 31
        0.000000
  0
LINE
  8
LVL0000
 62
  3
 10
      136.499756
 20
       88.000175
 30
        0.000000
 11
      134.499756
 21
       88.000175
 31
        0.000000
  0
LINE
  8
LVL0000
 62
  3
 10
      136.499756
 20
      117.000175
 30
        0.000000
 11
      134.499756
 21
      117.000175
 31
        0.000000
  0
LINE
  8
LVL0000
 62
  3
 10
      136.499756
 20
       85.000175
 30
        0.000000
 11
      136.499756
 21
      120.000175
 31
        0.000000
  0
LINE
  8
LVL0000
 62
  3
 10
      134.499756
 20
       85.000175
 30
        0.000000
 11
      134.499756
 21
      120.000175
 31
        0.000000
  0
LINE
  8
LVL0000
 62
  3
 10
      132.499756
 20
       88.000175
 30
        0.000000
 11
      130.499756
 21
       88.000175
 31
        0.000000
  0
LINE
  8
LVL0000
 62
  3
 10
      132.499756
 20
      117.000175
 30
        0.000000
 11
      130.499756
 21
      117.000175
 31
        0.000000
  0
LINE
  8
LVL0000
 62
  3
 10
      132.499756
 20
       85.000175
 30
        0.000000
 11
      132.499756
 21
      120.000175
 31
        0.000000
  0
LINE
  8
LVL0000
 62
  3
 10
      130.499756
 20
       85.000175
 30
        0.000000
 11
      130.499756
 21
      120.000175
 31
        0.000000
  0
LINE
  8
LVL0000
 62
  3
 10
      128.499756
 20
       88.000175
 30
        0.000000
 11
      126.499756
 21
       88.000175
 31
        0.000000
  0
LINE
  8
LVL0000
 62
  3
 10
      128.499756
 20
      117.000175
 30
        0.000000
 11
      126.499756
 21
      117.000175
 31
        0.000000
  0
LINE
  8
LVL0000
 62
  3
 10
      128.499756
 20
       85.000175
 30
        0.000000
 11
      128.499756
 21
      120.000175
 31
        0.000000
  0
LINE
  8
LVL0000
 62
  3
 10
      126.499756
 20
       85.000175
 30
        0.000000
 11
      126.499756
 21
      120.000175
 31
        0.000000
  0
LINE
  8
LVL0000
 62
  3
 10
      124.499756
 20
       88.000175
 30
        0.000000
 11
      122.499756
 21
       88.000175
 31
        0.000000
  0
LINE
  8
LVL0000
 62
  3
 10
      124.499756
 20
      117.000175
 30
        0.000000
 11
      122.499756
 21
      117.000175
 31
        0.000000
  0
LINE
  8
LVL0000
 62
  3
 10
      124.499756
 20
       85.000175
 30
        0.000000
 11
      124.499756
 21
      120.000175
 31
        0.000000
  0
LINE
  8
LVL0000
 62
  3
 10
      122.499756
 20
       85.000175
 30
        0.000000
 11
      122.499756
 21
      120.000175
 31
        0.000000
  0
LINE
  8
LVL0000
 62
  3
 10
      120.499756
 20
       88.000175
 30
        0.000000
 11
      118.499756
 21
       88.000175
 31
        0.000000
  0
LINE
  8
LVL0000
 62
  3
 10
      120.499756
 20
      117.000175
 30
        0.000000
 11
      118.499756
 21
      117.000175
 31
        0.000000
  0
LINE
  8
LVL0000
 62
  3
 10
      120.499756
 20
       85.000175
 30
        0.000000
 11
      120.499756
 21
      120.000175
 31
        0.000000
  0
LINE
  8
LVL0000
 62
  3
 10
      118.499756
 20
       85.000175
 30
        0.000000
 11
      118.499756
 21
      120.000175
 31
        0.000000
  0
LINE
  8
LVL0000
 62
  3
 10
      116.499756
 20
       88.000175
 30
        0.000000
 11
      114.499756
 21
       88.000175
 31
        0.000000
  0
LINE
  8
LVL0000
 62
  3
 10
      116.499756
 20
      117.000175
 30
        0.000000
 11
      114.499756
 21
      117.000175
 31
        0.000000
  0
LINE
  8
LVL0000
 62
  3
 10
      116.499756
 20
       85.000175
 30
        0.000000
 11
      116.499756
 21
      120.000175
 31
        0.000000
  0
LINE
  8
LVL0000
 62
  3
 10
      114.499756
 20
       85.000175
 30
        0.000000
 11
      114.499756
 21
      120.000175
 31
        0.000000
  0
LINE
  8
LVL0000
 62
  3
 10
      112.499756
 20
       88.000175
 30
        0.000000
 11
      110.499756
 21
       88.000175
 31
        0.000000
  0
LINE
  8
LVL0000
 62
  3
 10
      112.499756
 20
      117.000175
 30
        0.000000
 11
      110.499756
 21
      117.000175
 31
        0.000000
  0
LINE
  8
LVL0000
 62
  3
 10
      112.499756
 20
       85.000175
 30
        0.000000
 11
      112.499756
 21
      120.000175
 31
        0.000000
  0
LINE
  8
LVL0000
 62
  3
 10
      110.499756
 20
       85.000175
 30
        0.000000
 11
      110.499756
 21
      120.000175
 31
        0.000000
  0
LINE
  8
LVL0000
 62
  3
 10
      157.799744
 20
      104.500175
 30
        0.000000
 11
      157.799744
 21
      100.500175
 31
        0.000000
  0
LINE
  8
LVL0000
 62
  3
 10
      160.499756
 20
       99.000175
 30
        0.000000
 11
      159.299744
 21
       99.000175
 31
        0.000000
  0
ARC
  8
LVL0000
 62
  3
 10
      159.299744
 20
      100.500175
 30
        0.000000
 40
        1.500000
 50
      180.000010
 51
      270.000000
  0
ARC
  8
LVL0000
 62
  3
 10
      159.299744
 20
      104.500175
 30
        0.000000
 40
        1.500000
 50
       90.000000
 51
      180.000010
  0
LINE
  8
LVL0000
 62
  3
 10
      160.499756
 20
      106.000175
 30
        0.000000
 11
      159.299744
 21
      106.000175
 31
        0.000000
  0
LINE
  8
LVL0000
 62
  3
 10
      160.499756
 20
      120.000175
 30
        0.000000
 11
      160.499756
 21
       85.000175
 31
        0.000000
  0
LINE
  8
LVL0000
 62
  3
 10
      108.499756
 20
       88.000175
 30
        0.000000
 11
      106.499756
 21
       88.000175
 31
        0.000000
  0
LINE
  8
LVL0000
 62
  3
 10
      108.499756
 20
      117.000175
 30
        0.000000
 11
      106.499756
 21
      117.000175
 31
        0.000000
  0
LINE
  8
LVL0000
 62
  3
 10
      108.499756
 20
       85.000175
 30
        0.000000
 11
      108.499756
 21
      120.000175
 31
        0.000000
  0
LINE
  8
LVL0000
 62
  3
 10
      106.499756
 20
       85.000175
 30
        0.000000
 11
      106.499756
 21
      120.000175
 31
        0.000000
  0
LINE
  8
LVL0000
 62
  3
 10
       99.499756
 20
       85.000175
 30
        0.000000
 11
       99.499756
 21
      120.000175
 31
        0.000000
  0
LINE
  8
LVL0000
 62
  3
 10
      169.899780
 20
      120.000175
 30
        0.000000
 11
      169.899780
 21
       85.000175
 31
        0.000000
  0
LINE
  8
LVL0000
 62
  3
 10
      169.899780
 20
      120.000175
 30
        0.000000
 11
       67.999756
 21
      120.000191
 31
        0.000000
  0
ARC
  8
LVL0000
 62
  3
 10
       67.999756
 20
      119.500175
 30
        0.000000
 40
        0.500015
 50
       90.000000
 51
      179.999995
  0
DIMENSION
  8
LVL0000
 62
  5
  2
BLK0001
 10
      -17.499634
 20
      -83.833275
 11
       -3.999634
 21
      -83.333275
 13
      -17.499634
 23
      -64.500313
 14
       17.500366
 24
      -64.500313
 50
        0.0
 70
  0
  0
DIMENSION
  8
LVL0000
 62
  5
  2
BLK0002
 10
      169.900208
 20
      -83.833275
 11
      108.700226
 21
      -83.333275
 13
      169.900208
 23
       54.999702
 14
       67.500244
 24
      -64.500313
 50
        0.0
 70
  0
  0
DIMENSION
  8
LVL0000
 62
  5
  2
BLK0003
 10
       36.565552
 20
       64.999702
 11
       36.065552
 21
       -6.079231
 13
       17.000366
 23
       64.999702
 14
       17.000366
 24
      -65.000313
 50
       90.0
 70
  0
  0
LINE
  8
LVL0000
 62
  3
 10
       67.499756
 20
       85.500175
 30
        0.000000
 11
       67.499756
 21
      119.500175
 31
        0.000000
  0
ARC
  8
LVL0000
 62
  3
 10
       68.000244
 20
       64.499702
 30
        0.000000
 40
        0.500000
 50
       90.000000
 51
      179.999995
  0
LINE
  8
LVL0000
 62
  3
 10
       67.500244
 20
       40.499702
 30
        0.000000
 11
       67.500244
 21
       64.499702
 31
        0.000000
  0
LINE
  8
LVL0000
 62
  3
 10
       68.000244
 20
       64.999702
 30
        0.000000
 11
      169.900208
 21
       64.999702
 31
        0.000000
  0
TEXT
  8
LVL0000
 10
      -12.878655
 20
       99.678230
 30
        0.000000
 40
        5.000000
  1
ＪＷ２２ＰＵ
 50
        0.000000
 41
        0.835000
 51
        0.000000
  7
BIGFONT
  0
ENDSEC
  0
EOF
