  0
SECTION
  2
HEADER
  9
$ACADVER
  1
AC1006
  9
$INSBASE
 10
0.0
 20
0.0
 30
0.0
  9
$EXTMIN
 10
      -98.438309
 20
      -73.021751
  9
$EXTMAX
 10
      166.900208
 20
      120.000191
  9
$LIMMIN
 10
      -98.438309
 20
      -73.021751
  9
$LIMMAX
 10
      166.900208
 20
      120.000191
  9
$VIEWCTR
 10
       34.230949
 20
       34.230949
  9
$ORTHOMODE
 70
     0
  9
$ANGBASE
 50
0.0
  9
$ANGDIR
 70
     0
  9
$SPLINETYPE
 70
     6
  9
$SPLINESEGS
 70
     8
9
$DIMASZ
 40
        6.000000
9
$DIMEXE
 40
        0.500000
9
$DIMEXO
 40
        1.000000
9
$DIMTXT
 40
        4.000000
9
$DIMGAP
 40
        0.500000
9
$DIMTAD
 70
1
9
$DIMTIH
 70
0
9
$DIMTOH
 70
0
  0
ENDSEC
  0
SECTION
  2
TABLES
  0
TABLE
  2
LTYPE
 70
     5
  0
LTYPE
  2
CONTINUOUS
 70
    64
  3
SOLID LINE
 72
    65
 73
     0
 40
0.0
  0
LTYPE
  2
DASHED
 70
    64
  3
-- -- -- -- -- --
 72
    65
 73
     2
 40
  0.75  
 49
  0.50  
 49
 -0.25  
  0
LTYPE
  2
DOT
 70
    64
  3
....................
 72
    65
 73
     2
 40
  0.25  
 49
  0.02  
 49
 -0.23  
  0
LTYPE
  2
CENTER
 70
    64
  3
-- . -- . -- . -- .
 72
    65
 73
    4
 40
  2.00  
 49
  1.25  
 49
 -0.25  
 49
  0.25  
 49
 -0.25  
  0
LTYPE
  2
PHANTOM
 70
    64
  3
-- .. -- .. -- ..
 72
    65
 73
    6
 40
  2.50  
 49
  1.25  
 49
 -0.25  
 49
  0.25  
 49
 -0.25  
 49
  0.25  
 49
 -0.25  
  0
ENDTAB
  0
TABLE
  2
LAYER
 70
     1
  0
LAYER
  2
LVL0000
 70
    64
 62
     3
  6
CONTINUOUS
  0
ENDTAB
  0
TABLE
  2
STYLE
 70
     2
  0
STYLE
  2
STANDARD
 70
    64
 40
0.0
 41
1.0
 50
0.0
 71
     0
 42
5.0
  3
ROMANS
  4
BIGFONT
  0
STYLE
  2
BIGFONT
 70
    64
 40
0.0
 41
1.0
 50
0.0
 71
     0
 42
5.0
  3
ROMANS
  4
BIGFONT
  0
ENDTAB
  0
TABLE
  2
VIEW
 70
     0
  0
ENDTAB
  0
TABLE
  2
UCS
 70
     0
  0
ENDTAB
  0
TABLE
  2
DWGMGR
 70
     0
  0
ENDTAB
  0
ENDSEC
  0
SECTION
  2
BLOCKS
  0
BLOCK
  8
0
  2
BLK0001
 70
    64
 10
        0.000000
 20
        0.000000
  0
TEXT
  8
LVL0000
 62
  2
 10
       -3.999634
 20
      -83.333275
 30
        0.000000
 40
        4.000000
  1
３５
 50
        0.000000
 41
        0.835000
 51
        0.000000
  7
BIGFONT
  0
LINE
  8
LVL0000
 62
  2
 10
      -17.499634
 20
      -65.500313
 30
        0.000000
 11
      -17.499634
 21
      -84.333275
 31
        0.000000
  0
LINE
  8
LVL0000
 62
  2
 10
       17.500366
 20
      -65.500313
 30
        0.000000
 11
       17.500366
 21
      -84.333275
 31
        0.000000
  0
LINE
  8
LVL0000
 62
  2
 10
      -11.499634
 20
      -82.890800
 30
        0.000000
 11
      -17.499634
 21
      -83.833275
 31
        0.000000
  0
LINE
  8
LVL0000
 62
  2
 10
      -17.499634
 20
      -83.833275
 30
        0.000000
 11
      -11.499634
 21
      -84.775749
 31
        0.000000
  0
LINE
  8
LVL0000
 62
  2
 10
       11.500366
 20
      -84.775749
 30
        0.000000
 11
       17.500366
 21
      -83.833275
 31
        0.000000
  0
LINE
  8
LVL0000
 62
  2
 10
       17.500366
 20
      -83.833275
 30
        0.000000
 11
       11.500366
 21
      -82.890800
 31
        0.000000
  0
LINE
  8
LVL0000
 62
  2
 10
      -17.499634
 20
      -83.833275
 30
        0.000000
 11
       17.500366
 21
      -83.833275
 31
        0.000000
  0
ENDBLK
  0
BLOCK
  8
0
  2
BLK0002
 70
    64
 10
        0.000000
 20
        0.000000
  0
TEXT
  8
LVL0000
 62
  2
 10
       36.065552
 20
       -6.079231
 30
        0.000000
 40
        4.000000
  1
１３０
 50
       90.000000
 41
        0.835000
 51
        0.000000
  7
BIGFONT
  0
LINE
  8
LVL0000
 62
  2
 10
       18.000366
 20
       64.999702
 30
        0.000000
 11
       37.065552
 21
       64.999702
 31
        0.000000
  0
LINE
  8
LVL0000
 62
  2
 10
       18.000366
 20
      -65.000313
 30
        0.000000
 11
       37.065552
 21
      -65.000313
 31
        0.000000
  0
LINE
  8
LVL0000
 62
  2
 10
       37.508030
 20
       58.999702
 30
        0.000000
 11
       36.565552
 21
       64.999702
 31
        0.000000
  0
LINE
  8
LVL0000
 62
  2
 10
       36.565552
 20
       64.999702
 30
        0.000000
 11
       35.623074
 21
       58.999702
 31
        0.000000
  0
LINE
  8
LVL0000
 62
  2
 10
       35.623074
 20
      -59.000313
 30
        0.000000
 11
       36.565552
 21
      -65.000313
 31
        0.000000
  0
LINE
  8
LVL0000
 62
  2
 10
       36.565552
 20
      -65.000313
 30
        0.000000
 11
       37.508030
 21
      -59.000313
 31
        0.000000
  0
LINE
  8
LVL0000
 62
  2
 10
       36.565552
 20
       64.999702
 30
        0.000000
 11
       36.565552
 21
      -65.000313
 31
        0.000000
  0
ENDBLK
  0
BLOCK
  8
0
  2
BLK0003
 70
    64
 10
        0.000000
 20
        0.000000
  0
TEXT
  8
LVL0000
 62
  2
 10
       98.700226
 20
      -83.333275
 30
        0.000000
 40
        4.000000
  1
１０２．４
 50
        0.000000
 41
        0.835000
 51
        0.000000
  7
BIGFONT
  0
LINE
  8
LVL0000
 62
  2
 10
      159.900208
 20
       53.999702
 30
        0.000000
 11
      159.900208
 21
      -84.333275
 31
        0.000000
  0
LINE
  8
LVL0000
 62
  2
 10
       57.500244
 20
      -65.500313
 30
        0.000000
 11
       57.500244
 21
      -84.333275
 31
        0.000000
  0
LINE
  8
LVL0000
 62
  2
 10
      156.900208
 20
      -84.618675
 30
        0.000000
 11
      159.900208
 21
      -83.833275
 31
        0.000000
  0
LINE
  8
LVL0000
 62
  2
 10
      159.900208
 20
      -83.833275
 30
        0.000000
 11
      156.900208
 21
      -83.047874
 31
        0.000000
  0
LINE
  8
LVL0000
 62
  2
 10
       60.500244
 20
      -83.047874
 30
        0.000000
 11
       57.500244
 21
      -83.833275
 31
        0.000000
  0
LINE
  8
LVL0000
 62
  2
 10
       57.500244
 20
      -83.833275
 30
        0.000000
 11
       60.500244
 21
      -84.618675
 31
        0.000000
  0
LINE
  8
LVL0000
 62
  2
 10
      159.900208
 20
      -83.833275
 30
        0.000000
 11
       57.500244
 21
      -83.833275
 31
        0.000000
  0
ENDBLK
  0
ENDSEC
  0
SECTION
  2
ENTITIES
  0
LINE
  8
LVL0000
 10
      -55.150000
 20
      -61.549995
 30
        0.000000
 11
      -86.000000
 21
      -61.549995
 31
        0.000000
  0
LINE
  8
LVL0000
 10
      -73.500000
 20
      -62.800008
 30
        0.000000
 11
      -73.500000
 21
      -65.000008
 31
        0.000000
  0
LINE
  8
LVL0000
 10
      -57.500000
 20
       -0.549995
 30
        0.000000
 11
      -86.000000
 21
       -0.549995
 31
        0.000000
  0
LINE
  8
LVL0000
 10
      -57.500000
 20
        0.999992
 30
        0.000000
 11
      -57.500000
 21
      -59.500008
 31
        0.000000
  0
CIRCLE
  8
LVL0000
 10
      -63.800000
 20
       -7.300008
 30
        0.000000
 40
        3.500000
  0
LINE
  8
LVL0000
 10
      -67.850000
 20
      -22.250008
 30
        0.000000
 11
      -67.850000
 21
      -30.350008
 31
        0.000000
  0
LINE
  8
LVL0000
 10
      -59.750000
 20
      -22.250008
 30
        0.000000
 11
      -59.750000
 21
      -30.350008
 31
        0.000000
  0
LINE
  8
LVL0000
 10
      -67.850000
 20
      -12.750008
 30
        0.000000
 11
      -67.850000
 21
      -20.850008
 31
        0.000000
  0
LINE
  8
LVL0000
 10
      -59.750000
 20
      -12.750008
 30
        0.000000
 11
      -59.750000
 21
      -20.850008
 31
        0.000000
  0
LINE
  8
LVL0000
 10
      -59.750000
 20
       -3.250008
 30
        0.000000
 11
      -59.750000
 21
      -11.350008
 31
        0.000000
  0
LINE
  8
LVL0000
 10
      -67.850000
 20
       -3.250008
 30
        0.000000
 11
      -67.850000
 21
      -11.350008
 31
        0.000000
  0
CIRCLE
  8
LVL0000
 10
      -63.800000
 20
      -26.300008
 30
        0.000000
 40
        3.500000
  0
CIRCLE
  8
LVL0000
 10
      -63.800000
 20
      -16.800008
 30
        0.000000
 40
        3.500000
  0
LINE
  8
LVL0000
 10
      -72.300000
 20
      -20.850008
 30
        0.000000
 11
      -57.500000
 21
      -20.850008
 31
        0.000000
  0
LINE
  8
LVL0000
 10
      -72.300000
 20
      -22.250008
 30
        0.000000
 11
      -57.500000
 21
      -22.250008
 31
        0.000000
  0
LINE
  8
LVL0000
 10
      -72.300000
 20
       -3.250008
 30
        0.000000
 11
      -57.500000
 21
       -3.250008
 31
        0.000000
  0
LINE
  8
LVL0000
 10
      -72.300000
 20
      -11.350008
 30
        0.000000
 11
      -57.500000
 21
      -11.350008
 31
        0.000000
  0
LINE
  8
LVL0000
 10
      -72.300000
 20
      -12.750008
 30
        0.000000
 11
      -57.500000
 21
      -12.750008
 31
        0.000000
  0
LINE
  8
LVL0000
 10
      -72.300000
 20
       -0.550008
 30
        0.000000
 11
      -72.300000
 21
      -61.550008
 31
        0.000000
  0
LINE
  8
LVL0000
 10
      -60.513782
 20
       -6.095529
 30
        0.000000
 11
      -62.980385
 21
       -7.519623
 31
        0.000000
  0
LINE
  8
LVL0000
 10
      -62.980385
 20
       -7.519623
 30
        0.000000
 11
      -62.255385
 21
       -8.775359
 31
        0.000000
  0
LINE
  8
LVL0000
 10
      -63.294616
 20
       -9.375359
 30
        0.000000
 11
      -62.255385
 21
       -8.775359
 31
        0.000000
  0
LINE
  8
LVL0000
 10
      -64.019615
 20
       -8.119623
 30
        0.000000
 11
      -63.294616
 21
       -9.375359
 31
        0.000000
  0
LINE
  8
LVL0000
 10
      -64.019615
 20
       -8.119623
 30
        0.000000
 11
      -66.486218
 21
       -9.543717
 31
        0.000000
  0
LINE
  8
LVL0000
 10
      -64.619615
 20
       -7.080392
 30
        0.000000
 11
      -67.086218
 21
       -8.504486
 31
        0.000000
  0
LINE
  8
LVL0000
 10
      -65.344615
 20
       -5.824656
 30
        0.000000
 11
      -64.619615
 21
       -7.080392
 31
        0.000000
  0
LINE
  8
LVL0000
 10
      -65.344615
 20
       -5.824656
 30
        0.000000
 11
      -64.305384
 21
       -5.224656
 31
        0.000000
  0
LINE
  8
LVL0000
 10
      -64.305384
 20
       -5.224656
 30
        0.000000
 11
      -63.580385
 21
       -6.480392
 31
        0.000000
  0
LINE
  8
LVL0000
 10
      -61.113782
 20
       -5.056298
 30
        0.000000
 11
      -63.580385
 21
       -6.480392
 31
        0.000000
  0
LINE
  8
LVL0000
 10
      -63.294616
 20
      -18.875359
 30
        0.000000
 11
      -62.255385
 21
      -18.275359
 31
        0.000000
  0
LINE
  8
LVL0000
 10
      -62.980385
 20
      -17.019623
 30
        0.000000
 11
      -62.255385
 21
      -18.275359
 31
        0.000000
  0
LINE
  8
LVL0000
 10
      -60.513782
 20
      -15.595529
 30
        0.000000
 11
      -62.980385
 21
      -17.019623
 31
        0.000000
  0
LINE
  8
LVL0000
 10
      -61.113782
 20
      -14.556298
 30
        0.000000
 11
      -63.580385
 21
      -15.980392
 31
        0.000000
  0
LINE
  8
LVL0000
 10
      -64.305384
 20
      -14.724656
 30
        0.000000
 11
      -63.580385
 21
      -15.980392
 31
        0.000000
  0
LINE
  8
LVL0000
 10
      -65.344615
 20
      -15.324656
 30
        0.000000
 11
      -64.305384
 21
      -14.724656
 31
        0.000000
  0
LINE
  8
LVL0000
 10
      -65.344615
 20
      -15.324656
 30
        0.000000
 11
      -64.619615
 21
      -16.580392
 31
        0.000000
  0
LINE
  8
LVL0000
 10
      -64.619615
 20
      -16.580392
 30
        0.000000
 11
      -67.086218
 21
      -18.004486
 31
        0.000000
  0
LINE
  8
LVL0000
 10
      -64.019615
 20
      -17.619623
 30
        0.000000
 11
      -66.486218
 21
      -19.043717
 31
        0.000000
  0
LINE
  8
LVL0000
 10
      -64.019615
 20
      -17.619623
 30
        0.000000
 11
      -63.294616
 21
      -18.875359
 31
        0.000000
  0
LINE
  8
LVL0000
 10
      -72.300000
 20
       -0.950008
 30
        0.000000
 11
      -57.500000
 21
       -0.950008
 31
        0.000000
  0
LINE
  8
LVL0000
 10
      -57.500000
 20
       -1.850008
 30
        0.000000
 11
      -72.300000
 21
       -1.850008
 31
        0.000000
  0
ARC
  8
LVL0000
 10
      -73.200000
 20
      -62.800008
 30
        0.000000
 40
        0.300000
 50
       90.000000
 51
      179.999995
  0
LINE
  8
LVL0000
 10
      -55.150000
 20
      -62.500008
 30
        0.000000
 11
      -73.200000
 21
      -62.500008
 31
        0.000000
  0
LINE
  8
LVL0000
 10
      -58.000000
 20
      -63.700008
 30
        0.000000
 11
      -58.000000
 21
      -65.000008
 31
        0.000000
  0
LINE
  8
LVL0000
 10
      -58.000000
 20
      -63.700008
 30
        0.000000
 11
      -68.000000
 21
      -63.700008
 31
        0.000000
  0
LINE
  8
LVL0000
 10
      -68.000000
 20
      -63.700008
 30
        0.000000
 11
      -68.000000
 21
      -65.000008
 31
        0.000000
  0
LINE
  8
LVL0000
 10
      -55.500000
 20
      -62.900008
 30
        0.000000
 11
      -59.000000
 21
      -62.900008
 31
        0.000000
  0
LINE
  8
LVL0000
 10
      -68.500000
 20
      -62.500008
 30
        0.000000
 11
      -68.500000
 21
      -62.900008
 31
        0.000000
  0
LINE
  8
LVL0000
 10
      -55.500000
 20
      -62.500008
 30
        0.000000
 11
      -55.500000
 21
      -62.900008
 31
        0.000000
  0
LINE
  8
LVL0000
 10
      -59.000000
 20
      -62.500008
 30
        0.000000
 11
      -59.000000
 21
      -62.900008
 31
        0.000000
  0
LINE
  8
LVL0000
 10
      -68.500000
 20
      -62.900008
 30
        0.000000
 11
      -72.000000
 21
      -62.900008
 31
        0.000000
  0
LINE
  8
LVL0000
 10
      -72.000000
 20
      -62.500008
 30
        0.000000
 11
      -72.000000
 21
      -62.900008
 31
        0.000000
  0
LINE
  8
LVL0000
 10
      -67.850000
 20
      -50.750008
 30
        0.000000
 11
      -67.850000
 21
      -58.850008
 31
        0.000000
  0
LINE
  8
LVL0000
 10
      -67.850000
 20
      -41.250008
 30
        0.000000
 11
      -67.850000
 21
      -49.350008
 31
        0.000000
  0
LINE
  8
LVL0000
 10
      -59.750000
 20
      -50.750008
 30
        0.000000
 11
      -59.750000
 21
      -58.850008
 31
        0.000000
  0
LINE
  8
LVL0000
 10
      -59.750000
 20
      -41.250008
 30
        0.000000
 11
      -59.750000
 21
      -49.350008
 31
        0.000000
  0
LINE
  8
LVL0000
 10
      -67.850000
 20
      -31.750008
 30
        0.000000
 11
      -67.850000
 21
      -39.850008
 31
        0.000000
  0
LINE
  8
LVL0000
 10
      -59.750000
 20
      -31.750008
 30
        0.000000
 11
      -59.750000
 21
      -39.850008
 31
        0.000000
  0
CIRCLE
  8
LVL0000
 10
      -63.800000
 20
      -54.800008
 30
        0.000000
 40
        3.500000
  0
CIRCLE
  8
LVL0000
 10
      -63.800000
 20
      -45.300008
 30
        0.000000
 40
        3.500000
  0
CIRCLE
  8
LVL0000
 10
      -63.800000
 20
      -35.800008
 30
        0.000000
 40
        3.500000
  0
LINE
  8
LVL0000
 10
      -72.300000
 20
      -58.850008
 30
        0.000000
 11
      -57.500000
 21
      -58.850008
 31
        0.000000
  0
LINE
  8
LVL0000
 10
      -72.300000
 20
      -30.350008
 30
        0.000000
 11
      -57.500000
 21
      -30.350008
 31
        0.000000
  0
LINE
  8
LVL0000
 10
      -72.300000
 20
      -31.750008
 30
        0.000000
 11
      -57.500000
 21
      -31.750008
 31
        0.000000
  0
LINE
  8
LVL0000
 10
      -72.300000
 20
      -39.850008
 30
        0.000000
 11
      -57.500000
 21
      -39.850008
 31
        0.000000
  0
LINE
  8
LVL0000
 10
      -72.300000
 20
      -41.250008
 30
        0.000000
 11
      -57.500000
 21
      -41.250008
 31
        0.000000
  0
LINE
  8
LVL0000
 10
      -72.300000
 20
      -49.350008
 30
        0.000000
 11
      -57.500000
 21
      -49.350008
 31
        0.000000
  0
LINE
  8
LVL0000
 10
      -72.300000
 20
      -50.750008
 30
        0.000000
 11
      -57.500000
 21
      -50.750008
 31
        0.000000
  0
LINE
  8
LVL0000
 10
      -57.161438
 20
      -60.250008
 30
        0.000000
 11
      -72.300000
 21
      -60.250008
 31
        0.000000
  0
LINE
  8
LVL0000
 10
      -55.300000
 20
      -60.500008
 30
        0.000000
 11
      -55.300000
 21
      -61.150008
 31
        0.000000
  0
LINE
  8
LVL0000
 10
      -55.150000
 20
      -60.500008
 30
        0.000000
 11
      -55.150000
 21
      -62.500008
 31
        0.000000
  0
LINE
  8
LVL0000
 10
      -52.500000
 20
      -60.500008
 30
        0.000000
 11
      -56.500000
 21
      -60.500008
 31
        0.000000
  0
ARC
  8
LVL0000
 10
      -56.500000
 20
      -59.500008
 30
        0.000000
 40
        1.000000
 50
      179.999995
 51
      270.000000
  0
LINE
  8
LVL0000
 10
      -63.294616
 20
      -28.375359
 30
        0.000000
 11
      -62.255385
 21
      -27.775359
 31
        0.000000
  0
LINE
  8
LVL0000
 10
      -63.294616
 20
      -37.875359
 30
        0.000000
 11
      -62.255385
 21
      -37.275359
 31
        0.000000
  0
LINE
  8
LVL0000
 10
      -63.294616
 20
      -47.375359
 30
        0.000000
 11
      -62.255385
 21
      -46.775359
 31
        0.000000
  0
LINE
  8
LVL0000
 10
      -63.294616
 20
      -56.875359
 30
        0.000000
 11
      -62.255385
 21
      -56.275359
 31
        0.000000
  0
LINE
  8
LVL0000
 10
      -62.980385
 20
      -26.519623
 30
        0.000000
 11
      -62.255385
 21
      -27.775359
 31
        0.000000
  0
LINE
  8
LVL0000
 10
      -62.980385
 20
      -36.019623
 30
        0.000000
 11
      -62.255385
 21
      -37.275359
 31
        0.000000
  0
LINE
  8
LVL0000
 10
      -62.980385
 20
      -45.519623
 30
        0.000000
 11
      -62.255385
 21
      -46.775359
 31
        0.000000
  0
LINE
  8
LVL0000
 10
      -62.980385
 20
      -55.019623
 30
        0.000000
 11
      -62.255385
 21
      -56.275359
 31
        0.000000
  0
LINE
  8
LVL0000
 10
      -60.513782
 20
      -25.095529
 30
        0.000000
 11
      -62.980385
 21
      -26.519623
 31
        0.000000
  0
LINE
  8
LVL0000
 10
      -60.513782
 20
      -34.595529
 30
        0.000000
 11
      -62.980385
 21
      -36.019623
 31
        0.000000
  0
LINE
  8
LVL0000
 10
      -60.513782
 20
      -44.095529
 30
        0.000000
 11
      -62.980385
 21
      -45.519623
 31
        0.000000
  0
LINE
  8
LVL0000
 10
      -60.513782
 20
      -53.595529
 30
        0.000000
 11
      -62.980385
 21
      -55.019623
 31
        0.000000
  0
LINE
  8
LVL0000
 10
      -61.113782
 20
      -24.056298
 30
        0.000000
 11
      -63.580385
 21
      -25.480392
 31
        0.000000
  0
LINE
  8
LVL0000
 10
      -61.113782
 20
      -33.556298
 30
        0.000000
 11
      -63.580385
 21
      -34.980392
 31
        0.000000
  0
LINE
  8
LVL0000
 10
      -61.113782
 20
      -43.056298
 30
        0.000000
 11
      -63.580385
 21
      -44.480392
 31
        0.000000
  0
LINE
  8
LVL0000
 10
      -61.113782
 20
      -52.556298
 30
        0.000000
 11
      -63.580385
 21
      -53.980392
 31
        0.000000
  0
LINE
  8
LVL0000
 10
      -64.305384
 20
      -24.224656
 30
        0.000000
 11
      -63.580385
 21
      -25.480392
 31
        0.000000
  0
LINE
  8
LVL0000
 10
      -64.305384
 20
      -33.724656
 30
        0.000000
 11
      -63.580385
 21
      -34.980392
 31
        0.000000
  0
LINE
  8
LVL0000
 10
      -64.305384
 20
      -43.224656
 30
        0.000000
 11
      -63.580385
 21
      -44.480392
 31
        0.000000
  0
LINE
  8
LVL0000
 10
      -64.305384
 20
      -52.724656
 30
        0.000000
 11
      -63.580385
 21
      -53.980392
 31
        0.000000
  0
LINE
  8
LVL0000
 10
      -65.344615
 20
      -24.824656
 30
        0.000000
 11
      -64.305384
 21
      -24.224656
 31
        0.000000
  0
LINE
  8
LVL0000
 10
      -65.344615
 20
      -34.324656
 30
        0.000000
 11
      -64.305384
 21
      -33.724656
 31
        0.000000
  0
LINE
  8
LVL0000
 10
      -65.344615
 20
      -43.824656
 30
        0.000000
 11
      -64.305384
 21
      -43.224656
 31
        0.000000
  0
LINE
  8
LVL0000
 10
      -65.344615
 20
      -53.324656
 30
        0.000000
 11
      -64.305384
 21
      -52.724656
 31
        0.000000
  0
LINE
  8
LVL0000
 10
      -65.344615
 20
      -24.824656
 30
        0.000000
 11
      -64.619615
 21
      -26.080392
 31
        0.000000
  0
LINE
  8
LVL0000
 10
      -65.344615
 20
      -34.324656
 30
        0.000000
 11
      -64.619615
 21
      -35.580392
 31
        0.000000
  0
LINE
  8
LVL0000
 10
      -65.344615
 20
      -43.824656
 30
        0.000000
 11
      -64.619615
 21
      -45.080392
 31
        0.000000
  0
LINE
  8
LVL0000
 10
      -65.344615
 20
      -53.324656
 30
        0.000000
 11
      -64.619615
 21
      -54.580392
 31
        0.000000
  0
LINE
  8
LVL0000
 10
      -64.619615
 20
      -26.080392
 30
        0.000000
 11
      -67.086218
 21
      -27.504486
 31
        0.000000
  0
LINE
  8
LVL0000
 10
      -64.619615
 20
      -35.580392
 30
        0.000000
 11
      -67.086218
 21
      -37.004486
 31
        0.000000
  0
LINE
  8
LVL0000
 10
      -64.619615
 20
      -45.080392
 30
        0.000000
 11
      -67.086218
 21
      -46.504486
 31
        0.000000
  0
LINE
  8
LVL0000
 10
      -64.619615
 20
      -54.580392
 30
        0.000000
 11
      -67.086218
 21
      -56.004486
 31
        0.000000
  0
LINE
  8
LVL0000
 10
      -64.019615
 20
      -27.119623
 30
        0.000000
 11
      -66.486218
 21
      -28.543717
 31
        0.000000
  0
LINE
  8
LVL0000
 10
      -64.019615
 20
      -36.619623
 30
        0.000000
 11
      -66.486218
 21
      -38.043717
 31
        0.000000
  0
LINE
  8
LVL0000
 10
      -64.019615
 20
      -46.119623
 30
        0.000000
 11
      -66.486218
 21
      -47.543717
 31
        0.000000
  0
LINE
  8
LVL0000
 10
      -64.019615
 20
      -55.619623
 30
        0.000000
 11
      -66.486218
 21
      -57.043717
 31
        0.000000
  0
LINE
  8
LVL0000
 10
      -64.019615
 20
      -27.119623
 30
        0.000000
 11
      -63.294616
 21
      -28.375359
 31
        0.000000
  0
LINE
  8
LVL0000
 10
      -64.019615
 20
      -36.619623
 30
        0.000000
 11
      -63.294616
 21
      -37.875359
 31
        0.000000
  0
LINE
  8
LVL0000
 10
      -64.019615
 20
      -46.119623
 30
        0.000000
 11
      -63.294616
 21
      -47.375359
 31
        0.000000
  0
LINE
  8
LVL0000
 10
      -64.019615
 20
      -55.619623
 30
        0.000000
 11
      -63.294616
 21
      -56.875359
 31
        0.000000
  0
LINE
  8
LVL0000
 10
      -68.000000
 20
      -61.550008
 30
        0.000000
 11
      -68.000000
 21
      -62.500008
 31
        0.000000
  0
LINE
  8
LVL0000
 10
      -67.000000
 20
      -61.550008
 30
        0.000000
 11
      -67.000000
 21
      -62.500008
 31
        0.000000
  0
LINE
  8
LVL0000
 10
      -72.300000
 20
      -61.150008
 30
        0.000000
 11
      -55.300000
 21
      -61.150008
 31
        0.000000
  0
LINE
  8
LVL0000
  6
CENTER
 10
      -45.662344
 20
        0.000000
 30
        0.000000
 11
      -98.438308
 21
        0.000000
 31
        0.000000
  0
LINE
  8
LVL0000
 10
      -76.899658
 20
       21.999168
 30
        0.000000
 11
      -76.899658
 21
       21.499168
 31
        0.000000
  0
LINE
  8
LVL0000
 10
      -75.899658
 20
       22.499168
 30
        0.000000
 11
      -76.899658
 21
       21.499168
 31
        0.000000
  0
LINE
  8
LVL0000
 10
      -75.899658
 20
       22.499168
 30
        0.000000
 11
      -76.899658
 21
       23.499168
 31
        0.000000
  0
LINE
  8
LVL0000
 10
      -76.899658
 20
       23.499168
 30
        0.000000
 11
      -76.899658
 21
       22.999168
 31
        0.000000
  0
LINE
  8
LVL0000
 10
      -78.899658
 20
       22.999168
 30
        0.000000
 11
      -78.899658
 21
       21.999168
 31
        0.000000
  0
LINE
  8
LVL0000
 10
      -76.899658
 20
       21.999168
 30
        0.000000
 11
      -78.899658
 21
       21.999168
 31
        0.000000
  0
LINE
  8
LVL0000
 10
      -76.899658
 20
       22.999168
 30
        0.000000
 11
      -78.899658
 21
       22.999168
 31
        0.000000
  0
CIRCLE
  8
LVL0000
 10
      -77.399658
 20
       22.499657
 30
        0.000000
 40
        2.000000
  0
LINE
  8
LVL0000
  6
CENTER
 10
      -70.000000
 20
       70.586835
 30
        0.000000
 11
      -70.000000
 21
      -73.021754
 31
        0.000000
  0
LINE
  8
LVL0000
 10
      -52.500000
 20
       40.499702
 30
        0.000000
 11
      -87.500000
 21
       40.499702
 31
        0.000000
  0
ARC
  8
LVL0000
 10
      -75.323529
 20
       14.704196
 30
        0.000000
 40
        0.500000
 50
        0.000000
 51
       90.000000
  0
LINE
  8
LVL0000
 10
      -75.323529
 20
       15.204196
 30
        0.000000
 11
      -80.323529
 21
       15.204196
 31
        0.000000
  0
LINE
  8
LVL0000
 10
      -74.823529
 20
       14.704196
 30
        0.000000
 11
      -74.823529
 21
        8.704196
 31
        0.000000
  0
ARC
  8
LVL0000
 10
      -80.323529
 20
       14.704196
 30
        0.000000
 40
        0.500000
 50
       90.000000
 51
      179.999995
  0
LINE
  8
LVL0000
 10
      -80.823529
 20
       14.704196
 30
        0.000000
 11
      -80.823529
 21
        8.704196
 31
        0.000000
  0
ARC
  8
LVL0000
 10
      -80.323529
 20
        8.704196
 30
        0.000000
 40
        0.500000
 50
      179.999995
 51
      270.000000
  0
LINE
  8
LVL0000
 10
      -75.323529
 20
        8.204196
 30
        0.000000
 11
      -80.323529
 21
        8.204196
 31
        0.000000
  0
ARC
  8
LVL0000
 10
      -75.323529
 20
        8.704196
 30
        0.000000
 40
        0.500000
 50
      270.000000
 51
      360.000000
  0
LINE
  8
LVL0000
 10
      -73.000000
 20
       30.000008
 30
        0.000000
 11
      -73.000000
 21
       28.500008
 31
        0.000000
  0
LINE
  8
LVL0000
 10
      -67.000000
 20
       30.000008
 30
        0.000000
 11
      -67.000000
 21
       28.500008
 31
        0.000000
  0
LINE
  8
LVL0000
 10
      -73.000000
 20
       28.500008
 30
        0.000000
 11
      -67.000000
 21
       28.500008
 31
        0.000000
  0
LINE
  8
LVL0000
 10
      -87.500000
 20
        3.999992
 30
        0.000000
 11
      -52.500000
 21
        3.999992
 31
        0.000000
  0
CIRCLE
  8
LVL0000
 10
      -77.399658
 20
       22.499657
 30
        0.000000
 40
        5.000000
  0
LINE
  8
LVL0000
 10
      -81.500427
 20
       47.700447
 30
        0.000000
 11
      -81.500427
 21
       44.500496
 31
        0.000000
  0
LINE
  8
LVL0000
 10
      -81.500427
 20
       54.400398
 30
        0.000000
 11
      -81.500427
 21
       51.200447
 31
        0.000000
  0
LINE
  8
LVL0000
 10
      -79.900452
 20
       47.700447
 30
        0.000000
 11
      -79.900452
 21
       44.500496
 31
        0.000000
  0
LINE
  8
LVL0000
 10
      -79.900452
 20
       54.400398
 30
        0.000000
 11
      -79.900452
 21
       51.200447
 31
        0.000000
  0
LINE
  8
LVL0000
 10
      -81.500427
 20
       51.200447
 30
        0.000000
 11
      -79.900452
 21
       51.200447
 31
        0.000000
  0
LINE
  8
LVL0000
 10
      -81.500427
 20
       47.700447
 30
        0.000000
 11
      -79.900452
 21
       47.700447
 31
        0.000000
  0
LINE
  8
LVL0000
 10
      -81.500427
 20
       44.500496
 30
        0.000000
 11
      -79.900452
 21
       44.500496
 31
        0.000000
  0
LINE
  8
LVL0000
 10
      -81.500427
 20
       54.400398
 30
        0.000000
 11
      -79.900452
 21
       54.400398
 31
        0.000000
  0
LINE
  8
LVL0000
 10
      -78.800354
 20
       47.700447
 30
        0.000000
 11
      -78.800354
 21
       44.500496
 31
        0.000000
  0
LINE
  8
LVL0000
 10
      -78.800354
 20
       54.400398
 30
        0.000000
 11
      -78.800354
 21
       51.200447
 31
        0.000000
  0
LINE
  8
LVL0000
 10
      -77.200500
 20
       47.700447
 30
        0.000000
 11
      -77.200500
 21
       44.500496
 31
        0.000000
  0
LINE
  8
LVL0000
 10
      -77.200500
 20
       54.400398
 30
        0.000000
 11
      -77.200500
 21
       51.200447
 31
        0.000000
  0
LINE
  8
LVL0000
 10
      -78.800354
 20
       51.200447
 30
        0.000000
 11
      -77.200500
 21
       51.200447
 31
        0.000000
  0
LINE
  8
LVL0000
 10
      -78.800354
 20
       47.700447
 30
        0.000000
 11
      -77.200500
 21
       47.700447
 31
        0.000000
  0
LINE
  8
LVL0000
 10
      -78.800354
 20
       44.500496
 30
        0.000000
 11
      -77.200500
 21
       44.500496
 31
        0.000000
  0
LINE
  8
LVL0000
 10
      -78.800354
 20
       54.400398
 30
        0.000000
 11
      -77.200500
 21
       54.400398
 31
        0.000000
  0
LINE
  8
LVL0000
 10
      -76.100403
 20
       47.700447
 30
        0.000000
 11
      -76.100403
 21
       44.500496
 31
        0.000000
  0
LINE
  8
LVL0000
 10
      -76.100403
 20
       54.400398
 30
        0.000000
 11
      -76.100403
 21
       51.200447
 31
        0.000000
  0
LINE
  8
LVL0000
 10
      -74.500427
 20
       47.700447
 30
        0.000000
 11
      -74.500427
 21
       44.500496
 31
        0.000000
  0
LINE
  8
LVL0000
 10
      -74.500427
 20
       54.400398
 30
        0.000000
 11
      -74.500427
 21
       51.200447
 31
        0.000000
  0
LINE
  8
LVL0000
 10
      -76.100403
 20
       51.200447
 30
        0.000000
 11
      -74.500427
 21
       51.200447
 31
        0.000000
  0
LINE
  8
LVL0000
 10
      -76.100403
 20
       47.700447
 30
        0.000000
 11
      -74.500427
 21
       47.700447
 31
        0.000000
  0
LINE
  8
LVL0000
 10
      -76.100403
 20
       44.500496
 30
        0.000000
 11
      -74.500427
 21
       44.500496
 31
        0.000000
  0
LINE
  8
LVL0000
 10
      -76.100403
 20
       54.400398
 30
        0.000000
 11
      -74.500427
 21
       54.400398
 31
        0.000000
  0
LINE
  8
LVL0000
 10
      -73.400452
 20
       47.700447
 30
        0.000000
 11
      -73.400452
 21
       44.500496
 31
        0.000000
  0
LINE
  8
LVL0000
 10
      -73.400452
 20
       54.400398
 30
        0.000000
 11
      -73.400452
 21
       51.200447
 31
        0.000000
  0
LINE
  8
LVL0000
 10
      -71.800354
 20
       47.700447
 30
        0.000000
 11
      -71.800354
 21
       44.500496
 31
        0.000000
  0
LINE
  8
LVL0000
 10
      -71.800354
 20
       54.400398
 30
        0.000000
 11
      -71.800354
 21
       51.200447
 31
        0.000000
  0
LINE
  8
LVL0000
 10
      -73.400452
 20
       51.200447
 30
        0.000000
 11
      -71.800354
 21
       51.200447
 31
        0.000000
  0
LINE
  8
LVL0000
 10
      -73.400452
 20
       47.700447
 30
        0.000000
 11
      -71.800354
 21
       47.700447
 31
        0.000000
  0
LINE
  8
LVL0000
 10
      -73.400452
 20
       44.500496
 30
        0.000000
 11
      -71.800354
 21
       44.500496
 31
        0.000000
  0
LINE
  8
LVL0000
 10
      -73.400452
 20
       54.400398
 30
        0.000000
 11
      -71.800354
 21
       54.400398
 31
        0.000000
  0
LINE
  8
LVL0000
 10
      -70.700378
 20
       47.700447
 30
        0.000000
 11
      -70.700378
 21
       44.500496
 31
        0.000000
  0
LINE
  8
LVL0000
 10
      -70.700378
 20
       54.400398
 30
        0.000000
 11
      -70.700378
 21
       51.200447
 31
        0.000000
  0
LINE
  8
LVL0000
 10
      -69.100403
 20
       47.700447
 30
        0.000000
 11
      -69.100403
 21
       44.500496
 31
        0.000000
  0
LINE
  8
LVL0000
 10
      -69.100403
 20
       54.400398
 30
        0.000000
 11
      -69.100403
 21
       51.200447
 31
        0.000000
  0
LINE
  8
LVL0000
 10
      -70.700378
 20
       51.200447
 30
        0.000000
 11
      -69.100403
 21
       51.200447
 31
        0.000000
  0
LINE
  8
LVL0000
 10
      -70.700378
 20
       47.700447
 30
        0.000000
 11
      -69.100403
 21
       47.700447
 31
        0.000000
  0
LINE
  8
LVL0000
 10
      -70.700378
 20
       44.500496
 30
        0.000000
 11
      -69.100403
 21
       44.500496
 31
        0.000000
  0
LINE
  8
LVL0000
 10
      -70.700378
 20
       54.400398
 30
        0.000000
 11
      -69.100403
 21
       54.400398
 31
        0.000000
  0
LINE
  8
LVL0000
 10
      -68.000427
 20
       47.700447
 30
        0.000000
 11
      -68.000427
 21
       44.500496
 31
        0.000000
  0
LINE
  8
LVL0000
 10
      -68.000427
 20
       54.400398
 30
        0.000000
 11
      -68.000427
 21
       51.200447
 31
        0.000000
  0
LINE
  8
LVL0000
 10
      -66.400452
 20
       47.700447
 30
        0.000000
 11
      -66.400452
 21
       44.500496
 31
        0.000000
  0
LINE
  8
LVL0000
 10
      -66.400452
 20
       54.400398
 30
        0.000000
 11
      -66.400452
 21
       51.200447
 31
        0.000000
  0
LINE
  8
LVL0000
 10
      -68.000427
 20
       51.200447
 30
        0.000000
 11
      -66.400452
 21
       51.200447
 31
        0.000000
  0
LINE
  8
LVL0000
 10
      -68.000427
 20
       47.700447
 30
        0.000000
 11
      -66.400452
 21
       47.700447
 31
        0.000000
  0
LINE
  8
LVL0000
 10
      -68.000427
 20
       44.500496
 30
        0.000000
 11
      -66.400452
 21
       44.500496
 31
        0.000000
  0
LINE
  8
LVL0000
 10
      -68.000427
 20
       54.400398
 30
        0.000000
 11
      -66.400452
 21
       54.400398
 31
        0.000000
  0
LINE
  8
LVL0000
 10
      -65.300354
 20
       47.700447
 30
        0.000000
 11
      -65.300354
 21
       44.500496
 31
        0.000000
  0
LINE
  8
LVL0000
 10
      -65.300354
 20
       54.400398
 30
        0.000000
 11
      -65.300354
 21
       51.200447
 31
        0.000000
  0
LINE
  8
LVL0000
 10
      -63.700500
 20
       47.700447
 30
        0.000000
 11
      -63.700500
 21
       44.500496
 31
        0.000000
  0
LINE
  8
LVL0000
 10
      -63.700500
 20
       54.400398
 30
        0.000000
 11
      -63.700500
 21
       51.200447
 31
        0.000000
  0
LINE
  8
LVL0000
 10
      -65.300354
 20
       51.200447
 30
        0.000000
 11
      -63.700500
 21
       51.200447
 31
        0.000000
  0
LINE
  8
LVL0000
 10
      -65.300354
 20
       47.700447
 30
        0.000000
 11
      -63.700500
 21
       47.700447
 31
        0.000000
  0
LINE
  8
LVL0000
 10
      -65.300354
 20
       44.500496
 30
        0.000000
 11
      -63.700500
 21
       44.500496
 31
        0.000000
  0
LINE
  8
LVL0000
 10
      -65.300354
 20
       54.400398
 30
        0.000000
 11
      -63.700500
 21
       54.400398
 31
        0.000000
  0
LINE
  8
LVL0000
 10
      -62.600403
 20
       47.700447
 30
        0.000000
 11
      -62.600403
 21
       44.500496
 31
        0.000000
  0
LINE
  8
LVL0000
 10
      -62.600403
 20
       54.400398
 30
        0.000000
 11
      -62.600403
 21
       51.200447
 31
        0.000000
  0
LINE
  8
LVL0000
 10
      -61.000427
 20
       47.700447
 30
        0.000000
 11
      -61.000427
 21
       44.500496
 31
        0.000000
  0
LINE
  8
LVL0000
 10
      -61.000427
 20
       54.400398
 30
        0.000000
 11
      -61.000427
 21
       51.200447
 31
        0.000000
  0
LINE
  8
LVL0000
 10
      -62.600403
 20
       51.200447
 30
        0.000000
 11
      -61.000427
 21
       51.200447
 31
        0.000000
  0
LINE
  8
LVL0000
 10
      -62.600403
 20
       47.700447
 30
        0.000000
 11
      -61.000427
 21
       47.700447
 31
        0.000000
  0
LINE
  8
LVL0000
 10
      -62.600403
 20
       44.500496
 30
        0.000000
 11
      -61.000427
 21
       44.500496
 31
        0.000000
  0
LINE
  8
LVL0000
 10
      -62.600403
 20
       54.400398
 30
        0.000000
 11
      -61.000427
 21
       54.400398
 31
        0.000000
  0
LINE
  8
LVL0000
 10
      -86.000000
 20
       -0.549995
 30
        0.000000
 11
      -86.000000
 21
      -61.549995
 31
        0.000000
  0
LINE
  8
LVL0000
 10
      -86.099976
 20
       63.500008
 30
        0.000000
 11
      -53.900024
 21
       63.500008
 31
        0.000000
  0
LINE
  8
LVL0000
 10
      -86.099976
 20
       58.000008
 30
        0.000000
 11
      -53.900024
 21
       58.000008
 31
        0.000000
  0
LINE
  8
LVL0000
 10
      -86.099976
 20
       63.500008
 30
        0.000000
 11
      -86.099976
 21
       58.000008
 31
        0.000000
  0
LINE
  8
LVL0000
 10
      -53.900024
 20
       63.500008
 30
        0.000000
 11
      -53.900024
 21
       58.000008
 31
        0.000000
  0
ARC
  8
LVL0000
 10
      -87.000000
 20
      -64.500008
 30
        0.000000
 40
        0.500000
 50
      180.000010
 51
      270.000000
  0
ARC
  8
LVL0000
 10
      -53.000000
 20
      -64.500008
 30
        0.000000
 40
        0.500000
 50
      270.000000
 51
      360.000000
  0
ARC
  8
LVL0000
 10
      -53.000000
 20
       64.500008
 30
        0.000000
 40
        0.500000
 50
        0.000000
 51
       90.000000
  0
ARC
  8
LVL0000
 10
      -87.000000
 20
       64.500008
 30
        0.000000
 40
        0.500000
 50
       90.000000
 51
      180.000010
  0
LINE
  8
LVL0000
 10
      -52.500000
 20
       64.500008
 30
        0.000000
 11
      -52.500000
 21
      -64.500008
 31
        0.000000
  0
LINE
  8
LVL0000
 10
      -87.500000
 20
       64.500008
 30
        0.000000
 11
      -87.500000
 21
      -64.500008
 31
        0.000000
  0
CIRCLE
  8
LVL0000
 10
      -82.500000
 20
       34.000008
 30
        0.000000
 40
        2.250000
  0
LINE
  8
LVL0000
 10
      -53.000000
 20
       65.000008
 30
        0.000000
 11
      -87.000000
 21
       65.000008
 31
        0.000000
  0
LINE
  8
LVL0000
 10
      -53.000000
 20
      -65.000008
 30
        0.000000
 11
      -87.000000
 21
      -65.000008
 31
        0.000000
  0
LINE
  8
LVL0000
 10
      -52.500000
 20
        0.999992
 30
        0.000000
 11
      -87.500000
 21
        0.999992
 31
        0.000000
  0
LINE
  8
LVL0000
 10
      -87.500000
 20
       30.000008
 30
        0.000000
 11
      -52.500000
 21
       30.000008
 31
        0.000000
  0
LINE
  8
LVL0000
 10
      -87.500000
 20
       38.000008
 30
        0.000000
 11
      -52.500000
 21
       38.000008
 31
        0.000000
  0
LINE
  8
LVL0000
 10
      -52.500000
 20
       57.000008
 30
        0.000000
 11
      -87.500000
 21
       57.000008
 31
        0.000000
  0
LINE
  8
LVL0000
 10
      -87.500000
 20
       39.000008
 30
        0.000000
 11
      -52.500000
 21
       39.000008
 31
        0.000000
  0
LINE
  8
LVL0000
 10
       59.000244
 20
       30.000008
 30
        0.000000
 11
       59.000244
 21
        3.999992
 31
        0.000000
  0
LINE
  8
LVL0000
 10
       57.500244
 20
        3.999992
 30
        0.000000
 11
       59.000244
 21
        3.999992
 31
        0.000000
  0
LINE
  8
LVL0000
 10
       57.500244
 20
       30.000008
 30
        0.000000
 11
       59.000244
 21
       30.000008
 31
        0.000000
  0
LINE
  8
LVL0000
 10
       60.500244
 20
       38.999702
 30
        0.000000
 11
       60.500244
 21
       56.999702
 31
        0.000000
  0
LINE
  8
LVL0000
 10
       60.500244
 20
       37.999702
 30
        0.000000
 11
       60.500244
 21
       38.999702
 31
        0.000000
  0
ARC
  8
LVL0000
 10
       58.000244
 20
      -64.500313
 30
        0.000000
 40
        0.500000
 50
      180.000010
 51
      270.000000
  0
LINE
  8
LVL0000
 10
       58.000244
 20
      -65.000313
 30
        0.000000
 11
      154.800232
 21
      -65.000313
 31
        0.000000
  0
LINE
  8
LVL0000
 10
       57.500244
 20
       37.999702
 30
        0.000000
 11
       57.500244
 21
      -64.500313
 31
        0.000000
  0
LINE
  8
LVL0000
 10
       58.800232
 20
        0.999992
 30
        0.000000
 11
       58.800232
 21
      -65.000313
 31
        0.000000
  0
LINE
  8
LVL0000
 10
       58.800232
 20
        0.999992
 30
        0.000000
 11
       57.500244
 21
        0.999992
 31
        0.000000
  0
LINE
  8
LVL0000
 10
       57.500244
 20
       37.999702
 30
        0.000000
 11
       60.500244
 21
       37.999702
 31
        0.000000
  0
LINE
  8
LVL0000
 10
      159.900208
 20
       56.399696
 30
        0.000000
 11
      164.900208
 21
       56.399696
 31
        0.000000
  0
LINE
  8
LVL0000
 10
      159.900208
 20
       60.399696
 30
        0.000000
 11
      164.900208
 21
       60.399696
 31
        0.000000
  0
ARC
  8
LVL0000
 10
      164.900208
 20
       58.399696
 30
        0.000000
 40
        2.000000
 50
      270.000000
 51
      450.000000
  0
LINE
  8
LVL0000
 10
      161.400208
 20
      -57.500313
 30
        0.000000
 11
      161.400208
 21
      -62.000313
 31
        0.000000
  0
LINE
  8
LVL0000
 10
      158.900208
 20
      -60.000313
 30
        0.000000
 11
      158.900208
 21
      -61.000313
 31
        0.000000
  0
LINE
  8
LVL0000
 10
      157.300232
 20
       54.999702
 30
        0.000000
 11
      157.300232
 21
      -53.500313
 31
        0.000000
  0
LINE
  8
LVL0000
 10
      157.300232
 20
      -53.500313
 30
        0.000000
 11
      156.800232
 21
      -60.000313
 31
        0.000000
  0
LINE
  8
LVL0000
 10
      157.300232
 20
      -53.500313
 30
        0.000000
 11
      161.400208
 21
      -57.500313
 31
        0.000000
  0
LINE
  8
LVL0000
 10
      158.900208
 20
      -61.000313
 30
        0.000000
 11
      160.400208
 21
      -62.000313
 31
        0.000000
  0
LINE
  8
LVL0000
 10
      160.400208
 20
      -62.000313
 30
        0.000000
 11
      161.400208
 21
      -62.000313
 31
        0.000000
  0
LINE
  8
LVL0000
 10
      156.800232
 20
      -60.000313
 30
        0.000000
 11
      154.800232
 21
      -65.000313
 31
        0.000000
  0
LINE
  8
LVL0000
 10
      156.800232
 20
      -60.000313
 30
        0.000000
 11
      158.900208
 21
      -60.000313
 31
        0.000000
  0
LINE
  8
LVL0000
 10
      148.950256
 20
       12.649681
 30
        0.000000
 11
      148.950256
 21
      -12.650307
 31
        0.000000
  0
LINE
  8
LVL0000
 10
       98.650208
 20
       12.649681
 30
        0.000000
 11
      148.950256
 21
       12.649681
 31
        0.000000
  0
LINE
  8
LVL0000
 10
      157.300232
 20
       54.999702
 30
        0.000000
 11
      159.900208
 21
       54.999702
 31
        0.000000
  0
LINE
  8
LVL0000
 10
      159.900208
 20
       64.999702
 30
        0.000000
 11
      159.900208
 21
       54.999702
 31
        0.000000
  0
LINE
  8
LVL0000
 10
       93.800232
 20
      -32.750313
 30
        0.000000
 11
       96.300232
 21
      -32.750313
 31
        0.000000
  0
LINE
  8
LVL0000
 10
       89.500244
 20
      -36.000313
 30
        0.000000
 11
       90.500244
 21
      -36.000313
 31
        0.000000
  0
LINE
  8
LVL0000
 10
       93.800232
 20
      -51.250313
 30
        0.000000
 11
       96.300232
 21
      -51.250313
 31
        0.000000
  0
LINE
  8
LVL0000
 10
       96.300232
 20
      -32.750313
 30
        0.000000
 11
       96.300232
 21
      -51.250313
 31
        0.000000
  0
LINE
  8
LVL0000
 10
       89.500244
 20
      -48.000313
 30
        0.000000
 11
       90.500244
 21
      -48.000313
 31
        0.000000
  0
LINE
  8
LVL0000
 10
       93.800232
 20
      -32.750313
 30
        0.000000
 11
       93.800232
 21
      -51.250313
 31
        0.000000
  0
LINE
  8
LVL0000
 10
       90.500244
 20
      -36.000313
 30
        0.000000
 11
       90.500244
 21
      -48.000313
 31
        0.000000
  0
LINE
  8
LVL0000
 10
       57.500244
 20
       40.499702
 30
        0.000000
 11
       59.000244
 21
       38.999702
 31
        0.000000
  0
LINE
  8
LVL0000
 10
       57.500244
 20
       56.999702
 30
        0.000000
 11
       60.500244
 21
       56.999702
 31
        0.000000
  0
LINE
  8
LVL0000
 10
       93.800232
 20
       21.749687
 30
        0.000000
 11
       96.300232
 21
       21.749687
 31
        0.000000
  0
LINE
  8
LVL0000
 10
       93.800232
 20
       40.249702
 30
        0.000000
 11
       96.300232
 21
       40.249702
 31
        0.000000
  0
LINE
  8
LVL0000
 10
       96.300232
 20
       40.249702
 30
        0.000000
 11
       96.300232
 21
       21.749687
 31
        0.000000
  0
LINE
  8
LVL0000
 10
       89.500244
 20
       36.999702
 30
        0.000000
 11
       90.500244
 21
       36.999702
 31
        0.000000
  0
LINE
  8
LVL0000
 10
       89.500244
 20
       24.999702
 30
        0.000000
 11
       90.500244
 21
       24.999702
 31
        0.000000
  0
LINE
  8
LVL0000
 10
       93.800232
 20
       40.249702
 30
        0.000000
 11
       93.800232
 21
       21.749687
 31
        0.000000
  0
LINE
  8
LVL0000
 10
       90.500244
 20
       36.999702
 30
        0.000000
 11
       90.500244
 21
       24.999702
 31
        0.000000
  0
LINE
  8
LVL0000
 10
       98.650208
 20
      -12.650307
 30
        0.000000
 11
      148.950256
 21
      -12.650307
 31
        0.000000
  0
LINE
  8
LVL0000
 10
       98.650208
 20
       12.649681
 30
        0.000000
 11
       98.650208
 21
      -12.650307
 31
        0.000000
  0
LINE
  8
LVL0000
 10
       89.500244
 20
       64.999702
 30
        0.000000
 11
       89.500244
 21
      -65.000313
 31
        0.000000
  0
LINE
  8
LVL0000
 10
       58.000244
 20
       64.999702
 30
        0.000000
 11
      159.900208
 21
       64.999702
 31
        0.000000
  0
LINE
  8
LVL0000
 10
       57.500244
 20
       40.499702
 30
        0.000000
 11
       57.500244
 21
       64.499702
 31
        0.000000
  0
ARC
  8
LVL0000
 10
       58.000244
 20
       64.499702
 30
        0.000000
 40
        0.500000
 50
       90.000000
 51
      179.999995
  0
LINE
  8
LVL0000
 10
      159.899780
 20
       85.000175
 30
        0.000000
 11
       57.999756
 21
       85.000191
 31
        0.000000
  0
LINE
  8
LVL0000
 10
       57.499756
 20
       85.500175
 30
        0.000000
 11
       57.499756
 21
      119.500175
 31
        0.000000
  0
ARC
  8
LVL0000
 10
       57.999756
 20
      119.500175
 30
        0.000000
 40
        0.500015
 50
       90.000000
 51
      179.999995
  0
LINE
  8
LVL0000
 10
      159.899780
 20
      120.000175
 30
        0.000000
 11
       57.999756
 21
      120.000191
 31
        0.000000
  0
LINE
  8
LVL0000
 10
      159.899780
 20
      120.000175
 30
        0.000000
 11
      159.899780
 21
       85.000175
 31
        0.000000
  0
LINE
  8
LVL0000
 10
       89.499756
 20
       85.000175
 30
        0.000000
 11
       89.499756
 21
      120.000175
 31
        0.000000
  0
LINE
  8
LVL0000
 10
       96.499756
 20
       85.000175
 30
        0.000000
 11
       96.499756
 21
      120.000175
 31
        0.000000
  0
LINE
  8
LVL0000
 10
       98.499756
 20
       85.000175
 30
        0.000000
 11
       98.499756
 21
      120.000175
 31
        0.000000
  0
LINE
  8
LVL0000
 10
       98.499756
 20
      117.000175
 30
        0.000000
 11
       96.499756
 21
      117.000175
 31
        0.000000
  0
LINE
  8
LVL0000
 10
       98.499756
 20
       88.000175
 30
        0.000000
 11
       96.499756
 21
       88.000175
 31
        0.000000
  0
LINE
  8
LVL0000
 10
      150.499756
 20
      120.000175
 30
        0.000000
 11
      150.499756
 21
       85.000175
 31
        0.000000
  0
LINE
  8
LVL0000
 10
      150.499756
 20
      106.000175
 30
        0.000000
 11
      149.299744
 21
      106.000175
 31
        0.000000
  0
ARC
  8
LVL0000
 10
      149.299744
 20
      104.500175
 30
        0.000000
 40
        1.500000
 50
       90.000000
 51
      180.000010
  0
ARC
  8
LVL0000
 10
      149.299744
 20
      100.500175
 30
        0.000000
 40
        1.500000
 50
      180.000010
 51
      270.000000
  0
LINE
  8
LVL0000
 10
      150.499756
 20
       99.000175
 30
        0.000000
 11
      149.299744
 21
       99.000175
 31
        0.000000
  0
LINE
  8
LVL0000
 10
      147.799744
 20
      104.500175
 30
        0.000000
 11
      147.799744
 21
      100.500175
 31
        0.000000
  0
LINE
  8
LVL0000
 10
      100.499756
 20
       85.000175
 30
        0.000000
 11
      100.499756
 21
      120.000175
 31
        0.000000
  0
LINE
  8
LVL0000
 10
      102.499756
 20
       85.000175
 30
        0.000000
 11
      102.499756
 21
      120.000175
 31
        0.000000
  0
LINE
  8
LVL0000
 10
      102.499756
 20
      117.000175
 30
        0.000000
 11
      100.499756
 21
      117.000175
 31
        0.000000
  0
LINE
  8
LVL0000
 10
      102.499756
 20
       88.000175
 30
        0.000000
 11
      100.499756
 21
       88.000175
 31
        0.000000
  0
LINE
  8
LVL0000
 10
      104.499756
 20
       85.000175
 30
        0.000000
 11
      104.499756
 21
      120.000175
 31
        0.000000
  0
LINE
  8
LVL0000
 10
      106.499756
 20
       85.000175
 30
        0.000000
 11
      106.499756
 21
      120.000175
 31
        0.000000
  0
LINE
  8
LVL0000
 10
      106.499756
 20
      117.000175
 30
        0.000000
 11
      104.499756
 21
      117.000175
 31
        0.000000
  0
LINE
  8
LVL0000
 10
      106.499756
 20
       88.000175
 30
        0.000000
 11
      104.499756
 21
       88.000175
 31
        0.000000
  0
LINE
  8
LVL0000
 10
      108.499756
 20
       85.000175
 30
        0.000000
 11
      108.499756
 21
      120.000175
 31
        0.000000
  0
LINE
  8
LVL0000
 10
      110.499756
 20
       85.000175
 30
        0.000000
 11
      110.499756
 21
      120.000175
 31
        0.000000
  0
LINE
  8
LVL0000
 10
      110.499756
 20
      117.000175
 30
        0.000000
 11
      108.499756
 21
      117.000175
 31
        0.000000
  0
LINE
  8
LVL0000
 10
      110.499756
 20
       88.000175
 30
        0.000000
 11
      108.499756
 21
       88.000175
 31
        0.000000
  0
LINE
  8
LVL0000
 10
      112.499756
 20
       85.000175
 30
        0.000000
 11
      112.499756
 21
      120.000175
 31
        0.000000
  0
LINE
  8
LVL0000
 10
      114.499756
 20
       85.000175
 30
        0.000000
 11
      114.499756
 21
      120.000175
 31
        0.000000
  0
LINE
  8
LVL0000
 10
      114.499756
 20
      117.000175
 30
        0.000000
 11
      112.499756
 21
      117.000175
 31
        0.000000
  0
LINE
  8
LVL0000
 10
      114.499756
 20
       88.000175
 30
        0.000000
 11
      112.499756
 21
       88.000175
 31
        0.000000
  0
LINE
  8
LVL0000
 10
      116.499756
 20
       85.000175
 30
        0.000000
 11
      116.499756
 21
      120.000175
 31
        0.000000
  0
LINE
  8
LVL0000
 10
      118.499756
 20
       85.000175
 30
        0.000000
 11
      118.499756
 21
      120.000175
 31
        0.000000
  0
LINE
  8
LVL0000
 10
      118.499756
 20
      117.000175
 30
        0.000000
 11
      116.499756
 21
      117.000175
 31
        0.000000
  0
LINE
  8
LVL0000
 10
      118.499756
 20
       88.000175
 30
        0.000000
 11
      116.499756
 21
       88.000175
 31
        0.000000
  0
LINE
  8
LVL0000
 10
      120.499756
 20
       85.000175
 30
        0.000000
 11
      120.499756
 21
      120.000175
 31
        0.000000
  0
LINE
  8
LVL0000
 10
      122.499756
 20
       85.000175
 30
        0.000000
 11
      122.499756
 21
      120.000175
 31
        0.000000
  0
LINE
  8
LVL0000
 10
      122.499756
 20
      117.000175
 30
        0.000000
 11
      120.499756
 21
      117.000175
 31
        0.000000
  0
LINE
  8
LVL0000
 10
      122.499756
 20
       88.000175
 30
        0.000000
 11
      120.499756
 21
       88.000175
 31
        0.000000
  0
LINE
  8
LVL0000
 10
      124.499756
 20
       85.000175
 30
        0.000000
 11
      124.499756
 21
      120.000175
 31
        0.000000
  0
LINE
  8
LVL0000
 10
      126.499756
 20
       85.000175
 30
        0.000000
 11
      126.499756
 21
      120.000175
 31
        0.000000
  0
LINE
  8
LVL0000
 10
      126.499756
 20
      117.000175
 30
        0.000000
 11
      124.499756
 21
      117.000175
 31
        0.000000
  0
LINE
  8
LVL0000
 10
      126.499756
 20
       88.000175
 30
        0.000000
 11
      124.499756
 21
       88.000175
 31
        0.000000
  0
LINE
  8
LVL0000
 10
      128.499756
 20
       85.000175
 30
        0.000000
 11
      128.499756
 21
      120.000175
 31
        0.000000
  0
LINE
  8
LVL0000
 10
      130.499756
 20
       85.000175
 30
        0.000000
 11
      130.499756
 21
      120.000175
 31
        0.000000
  0
LINE
  8
LVL0000
 10
      130.499756
 20
      117.000175
 30
        0.000000
 11
      128.499756
 21
      117.000175
 31
        0.000000
  0
LINE
  8
LVL0000
 10
      130.499756
 20
       88.000175
 30
        0.000000
 11
      128.499756
 21
       88.000175
 31
        0.000000
  0
LINE
  8
LVL0000
 10
      132.499756
 20
       85.000175
 30
        0.000000
 11
      132.499756
 21
      120.000175
 31
        0.000000
  0
LINE
  8
LVL0000
 10
      134.499756
 20
       85.000175
 30
        0.000000
 11
      134.499756
 21
      120.000175
 31
        0.000000
  0
LINE
  8
LVL0000
 10
      134.499756
 20
      117.000175
 30
        0.000000
 11
      132.499756
 21
      117.000175
 31
        0.000000
  0
LINE
  8
LVL0000
 10
      134.499756
 20
       88.000175
 30
        0.000000
 11
      132.499756
 21
       88.000175
 31
        0.000000
  0
LINE
  8
LVL0000
 10
      136.499756
 20
       85.000175
 30
        0.000000
 11
      136.499756
 21
      120.000175
 31
        0.000000
  0
LINE
  8
LVL0000
 10
      138.499756
 20
       85.000175
 30
        0.000000
 11
      138.499756
 21
      120.000175
 31
        0.000000
  0
LINE
  8
LVL0000
 10
      138.499756
 20
      117.000175
 30
        0.000000
 11
      136.499756
 21
      117.000175
 31
        0.000000
  0
LINE
  8
LVL0000
 10
      138.499756
 20
       88.000175
 30
        0.000000
 11
      136.499756
 21
       88.000175
 31
        0.000000
  0
LINE
  8
LVL0000
 10
      140.499756
 20
       85.000175
 30
        0.000000
 11
      140.499756
 21
      120.000175
 31
        0.000000
  0
LINE
  8
LVL0000
 10
      142.499756
 20
       85.000175
 30
        0.000000
 11
      142.499756
 21
      120.000175
 31
        0.000000
  0
LINE
  8
LVL0000
 10
      142.499756
 20
      117.000175
 30
        0.000000
 11
      140.499756
 21
      117.000175
 31
        0.000000
  0
LINE
  8
LVL0000
 10
      142.499756
 20
       88.000175
 30
        0.000000
 11
      140.499756
 21
       88.000175
 31
        0.000000
  0
LINE
  8
LVL0000
 10
      144.499756
 20
       85.000175
 30
        0.000000
 11
      144.499756
 21
      120.000175
 31
        0.000000
  0
LINE
  8
LVL0000
 10
      146.499756
 20
       85.000175
 30
        0.000000
 11
      146.499756
 21
      120.000175
 31
        0.000000
  0
LINE
  8
LVL0000
 10
      146.499756
 20
      117.000175
 30
        0.000000
 11
      144.499756
 21
      117.000175
 31
        0.000000
  0
LINE
  8
LVL0000
 10
      146.499756
 20
       88.000175
 30
        0.000000
 11
      144.499756
 21
       88.000175
 31
        0.000000
  0
LINE
  8
LVL0000
 10
      150.499756
 20
      117.000175
 30
        0.000000
 11
      148.499756
 21
      117.000175
 31
        0.000000
  0
LINE
  8
LVL0000
 10
      150.499756
 20
       88.000175
 30
        0.000000
 11
      148.499756
 21
       88.000175
 31
        0.000000
  0
LINE
  8
LVL0000
 10
      148.499756
 20
      105.769035
 30
        0.000000
 11
      148.499756
 21
      120.000175
 31
        0.000000
  0
LINE
  8
LVL0000
 10
      148.499756
 20
       85.000175
 30
        0.000000
 11
      148.499756
 21
       99.231316
 31
        0.000000
  0
LINE
  8
LVL0000
 10
      148.499756
 20
      106.100151
 30
        0.000000
 11
      146.499756
 21
      106.100151
 31
        0.000000
  0
LINE
  8
LVL0000
 10
      148.499756
 20
       98.900200
 30
        0.000000
 11
      146.499756
 21
       98.900200
 31
        0.000000
  0
LINE
  8
LVL0000
 10
      144.499756
 20
      106.100151
 30
        0.000000
 11
      142.499756
 21
      106.100151
 31
        0.000000
  0
LINE
  8
LVL0000
 10
      144.499756
 20
       98.900200
 30
        0.000000
 11
      142.499756
 21
       98.900200
 31
        0.000000
  0
LINE
  8
LVL0000
 10
      140.499756
 20
      106.100151
 30
        0.000000
 11
      138.499756
 21
      106.100151
 31
        0.000000
  0
LINE
  8
LVL0000
 10
      140.499756
 20
       98.900200
 30
        0.000000
 11
      138.499756
 21
       98.900200
 31
        0.000000
  0
LINE
  8
LVL0000
 10
      136.499756
 20
      106.100151
 30
        0.000000
 11
      134.499756
 21
      106.100151
 31
        0.000000
  0
LINE
  8
LVL0000
 10
      136.499756
 20
       98.900200
 30
        0.000000
 11
      134.499756
 21
       98.900200
 31
        0.000000
  0
LINE
  8
LVL0000
 10
      132.499756
 20
      106.100151
 30
        0.000000
 11
      130.499756
 21
      106.100151
 31
        0.000000
  0
LINE
  8
LVL0000
 10
      132.499756
 20
       98.900200
 30
        0.000000
 11
      130.499756
 21
       98.900200
 31
        0.000000
  0
LINE
  8
LVL0000
 10
      128.499756
 20
      106.100151
 30
        0.000000
 11
      126.499756
 21
      106.100151
 31
        0.000000
  0
LINE
  8
LVL0000
 10
      128.499756
 20
       98.900200
 30
        0.000000
 11
      126.499756
 21
       98.900200
 31
        0.000000
  0
LINE
  8
LVL0000
 10
      124.499756
 20
      106.100151
 30
        0.000000
 11
      122.499756
 21
      106.100151
 31
        0.000000
  0
LINE
  8
LVL0000
 10
      124.499756
 20
       98.900200
 30
        0.000000
 11
      122.499756
 21
       98.900200
 31
        0.000000
  0
LINE
  8
LVL0000
 10
      120.499756
 20
      106.100151
 30
        0.000000
 11
      118.499756
 21
      106.100151
 31
        0.000000
  0
LINE
  8
LVL0000
 10
      120.499756
 20
       98.900200
 30
        0.000000
 11
      118.499756
 21
       98.900200
 31
        0.000000
  0
LINE
  8
LVL0000
 10
      116.499756
 20
      106.100151
 30
        0.000000
 11
      114.499756
 21
      106.100151
 31
        0.000000
  0
LINE
  8
LVL0000
 10
      116.499756
 20
       98.900200
 30
        0.000000
 11
      114.499756
 21
       98.900200
 31
        0.000000
  0
LINE
  8
LVL0000
 10
      112.499756
 20
      106.100151
 30
        0.000000
 11
      110.499756
 21
      106.100151
 31
        0.000000
  0
LINE
  8
LVL0000
 10
      112.499756
 20
       98.900200
 30
        0.000000
 11
      110.499756
 21
       98.900200
 31
        0.000000
  0
ARC
  8
LVL0000
 10
       96.499756
 20
      102.500175
 30
        0.000000
 40
        1.499973
 50
      109.471585
 51
      250.528418
  0
LINE
  8
LVL0000
 10
       96.499756
 20
      104.100151
 30
        0.000000
 11
       95.999756
 21
      103.914360
 31
        0.000000
  0
LINE
  8
LVL0000
 10
       95.999756
 20
      101.085991
 30
        0.000000
 11
       96.499756
 21
      100.900200
 31
        0.000000
  0
LINE
  8
LVL0000
 10
      104.499756
 20
       99.300163
 30
        0.000000
 11
      102.499756
 21
       99.600151
 31
        0.000000
  0
LINE
  8
LVL0000
 10
      102.499756
 20
      105.400200
 30
        0.000000
 11
      104.499756
 21
      105.700188
 31
        0.000000
  0
LINE
  8
LVL0000
 10
      106.499756
 20
      105.900200
 30
        0.000000
 11
      108.499756
 21
      106.000175
 31
        0.000000
  0
LINE
  8
LVL0000
 10
      108.499756
 20
       99.000175
 30
        0.000000
 11
      106.499756
 21
       99.100151
 31
        0.000000
  0
LINE
  8
LVL0000
 10
       98.499756
 20
      104.550163
 30
        0.000000
 11
      100.499756
 21
      105.000175
 31
        0.000000
  0
LINE
  8
LVL0000
 10
       98.499756
 20
      100.450188
 30
        0.000000
 11
      100.499756
 21
      100.000175
 31
        0.000000
  0
ARC
  8
LVL0000
 10
      164.900208
 20
       91.499687
 30
        0.000000
 40
        2.000000
 50
      270.000000
 51
      450.000000
  0
LINE
  8
LVL0000
 10
      159.900208
 20
       93.499687
 30
        0.000000
 11
      164.900208
 21
       93.499687
 31
        0.000000
  0
LINE
  8
LVL0000
 10
      159.900208
 20
       89.499687
 30
        0.000000
 11
      164.900208
 21
       89.499687
 31
        0.000000
  0
LINE
  8
LVL0000
 10
      161.400208
 20
      114.400185
 30
        0.000000
 11
      159.899780
 21
      114.400185
 31
        0.000000
  0
LINE
  8
LVL0000
 10
      161.400208
 20
      114.400185
 30
        0.000000
 11
      161.400208
 21
       93.499687
 31
        0.000000
  0
LINE
  8
LVL0000
 10
       85.499756
 20
      118.000191
 30
        0.000000
 11
       83.499756
 21
      118.000191
 31
        0.000000
  0
LINE
  8
LVL0000
 10
       85.499756
 20
       86.600197
 30
        0.000000
 11
       83.499756
 21
       86.600197
 31
        0.000000
  0
LINE
  8
LVL0000
 10
       83.499756
 20
       85.000191
 30
        0.000000
 11
       83.499756
 21
      120.000191
 31
        0.000000
  0
LINE
  8
LVL0000
 10
       85.499756
 20
       85.000191
 30
        0.000000
 11
       85.499756
 21
      120.000191
 31
        0.000000
  0
LINE
  8
LVL0000
 10
       81.499756
 20
      118.000191
 30
        0.000000
 11
       79.499756
 21
      118.000191
 31
        0.000000
  0
LINE
  8
LVL0000
 10
       81.499756
 20
       86.600197
 30
        0.000000
 11
       79.499756
 21
       86.600197
 31
        0.000000
  0
LINE
  8
LVL0000
 10
       79.499756
 20
       85.000191
 30
        0.000000
 11
       79.499756
 21
      120.000191
 31
        0.000000
  0
LINE
  8
LVL0000
 10
       81.499756
 20
       85.000191
 30
        0.000000
 11
       81.499756
 21
      120.000191
 31
        0.000000
  0
LINE
  8
LVL0000
 10
       77.499756
 20
      118.000191
 30
        0.000000
 11
       75.499756
 21
      118.000191
 31
        0.000000
  0
LINE
  8
LVL0000
 10
       77.499756
 20
       86.600197
 30
        0.000000
 11
       75.499756
 21
       86.600197
 31
        0.000000
  0
LINE
  8
LVL0000
 10
       75.499756
 20
       85.000191
 30
        0.000000
 11
       75.499756
 21
      120.000191
 31
        0.000000
  0
LINE
  8
LVL0000
 10
       77.499756
 20
       85.000191
 30
        0.000000
 11
       77.499756
 21
      120.000191
 31
        0.000000
  0
LINE
  8
LVL0000
 10
       73.499756
 20
      118.000191
 30
        0.000000
 11
       71.499756
 21
      118.000191
 31
        0.000000
  0
LINE
  8
LVL0000
 10
       73.499756
 20
       86.600197
 30
        0.000000
 11
       71.499756
 21
       86.600197
 31
        0.000000
  0
LINE
  8
LVL0000
 10
       71.499756
 20
       85.000191
 30
        0.000000
 11
       71.499756
 21
      120.000191
 31
        0.000000
  0
LINE
  8
LVL0000
 10
       73.499756
 20
       85.000191
 30
        0.000000
 11
       73.499756
 21
      120.000191
 31
        0.000000
  0
ARC
  8
LVL0000
 10
       57.999756
 20
       85.500175
 30
        0.000000
 40
        0.500000
 50
      179.999995
 51
      270.000000
  0
LINE
  8
LVL0000
 10
      -17.500000
 20
       39.000008
 30
        0.000000
 11
       17.500000
 21
       39.000008
 31
        0.000000
  0
LINE
  8
LVL0000
 10
       17.500000
 20
       57.000008
 30
        0.000000
 11
      -17.500000
 21
       57.000008
 31
        0.000000
  0
LINE
  8
LVL0000
 10
      -17.500000
 20
       38.000008
 30
        0.000000
 11
       17.500000
 21
       38.000008
 31
        0.000000
  0
LINE
  8
LVL0000
 10
      -17.500000
 20
       30.000008
 30
        0.000000
 11
       17.500000
 21
       30.000008
 31
        0.000000
  0
LINE
  8
LVL0000
 10
       17.500000
 20
        0.999992
 30
        0.000000
 11
      -17.500000
 21
        0.999992
 31
        0.000000
  0
LINE
  8
LVL0000
 10
       -3.500000
 20
        0.999992
 30
        0.000000
 11
       -3.500000
 21
      -65.000008
 31
        0.000000
  0
LINE
  8
LVL0000
 10
       17.000000
 20
      -65.000008
 30
        0.000000
 11
      -17.000000
 21
      -65.000008
 31
        0.000000
  0
LINE
  8
LVL0000
 10
       17.000000
 20
       65.000008
 30
        0.000000
 11
      -17.000000
 21
       65.000008
 31
        0.000000
  0
CIRCLE
  8
LVL0000
 10
      -12.500000
 20
       34.000008
 30
        0.000000
 40
        2.250000
  0
LINE
  8
LVL0000
 10
      -17.500000
 20
       64.500008
 30
        0.000000
 11
      -17.500000
 21
      -64.500008
 31
        0.000000
  0
LINE
  8
LVL0000
 10
       17.500000
 20
       64.500008
 30
        0.000000
 11
       17.500000
 21
      -64.500008
 31
        0.000000
  0
ARC
  8
LVL0000
 10
      -17.000000
 20
       64.500008
 30
        0.000000
 40
        0.500000
 50
       90.000000
 51
      180.000010
  0
ARC
  8
LVL0000
 10
       17.000000
 20
       64.500008
 30
        0.000000
 40
        0.500000
 50
        0.000000
 51
       90.000000
  0
ARC
  8
LVL0000
 10
       17.000000
 20
      -64.500008
 30
        0.000000
 40
        0.500000
 50
      270.000000
 51
      360.000000
  0
ARC
  8
LVL0000
 10
      -17.000000
 20
      -64.500008
 30
        0.000000
 40
        0.500000
 50
      180.000010
 51
      270.000000
  0
LINE
  8
LVL0000
 10
       16.099976
 20
       63.500008
 30
        0.000000
 11
       16.099976
 21
       58.000008
 31
        0.000000
  0
LINE
  8
LVL0000
 10
      -16.099976
 20
       63.500008
 30
        0.000000
 11
      -16.099976
 21
       58.000008
 31
        0.000000
  0
LINE
  8
LVL0000
 10
      -16.099976
 20
       58.000008
 30
        0.000000
 11
       16.099976
 21
       58.000008
 31
        0.000000
  0
LINE
  8
LVL0000
 10
      -16.099976
 20
       63.500008
 30
        0.000000
 11
       16.099976
 21
       63.500008
 31
        0.000000
  0
LINE
  8
LVL0000
 10
       -3.500000
 20
       -0.549995
 30
        0.000000
 11
      -16.000000
 21
       -0.549995
 31
        0.000000
  0
LINE
  8
LVL0000
 10
       -3.500000
 20
      -61.549995
 30
        0.000000
 11
      -16.000000
 21
      -61.549995
 31
        0.000000
  0
LINE
  8
LVL0000
 10
      -16.000000
 20
       -0.549995
 30
        0.000000
 11
      -16.000000
 21
      -61.549995
 31
        0.000000
  0
LINE
  8
LVL0000
 10
        7.399597
 20
       54.400398
 30
        0.000000
 11
        8.999573
 21
       54.400398
 31
        0.000000
  0
LINE
  8
LVL0000
 10
        7.399597
 20
       44.500496
 30
        0.000000
 11
        8.999573
 21
       44.500496
 31
        0.000000
  0
LINE
  8
LVL0000
 10
        7.399597
 20
       47.700447
 30
        0.000000
 11
        8.999573
 21
       47.700447
 31
        0.000000
  0
LINE
  8
LVL0000
 10
        7.399597
 20
       51.200447
 30
        0.000000
 11
        8.999573
 21
       51.200447
 31
        0.000000
  0
LINE
  8
LVL0000
 10
        8.999573
 20
       54.400398
 30
        0.000000
 11
        8.999573
 21
       51.200447
 31
        0.000000
  0
LINE
  8
LVL0000
 10
        8.999573
 20
       47.700447
 30
        0.000000
 11
        8.999573
 21
       44.500496
 31
        0.000000
  0
LINE
  8
LVL0000
 10
        7.399597
 20
       54.400398
 30
        0.000000
 11
        7.399597
 21
       51.200447
 31
        0.000000
  0
LINE
  8
LVL0000
 10
        7.399597
 20
       47.700447
 30
        0.000000
 11
        7.399597
 21
       44.500496
 31
        0.000000
  0
LINE
  8
LVL0000
 10
        4.699646
 20
       54.400398
 30
        0.000000
 11
        6.299500
 21
       54.400398
 31
        0.000000
  0
LINE
  8
LVL0000
 10
        4.699646
 20
       44.500496
 30
        0.000000
 11
        6.299500
 21
       44.500496
 31
        0.000000
  0
LINE
  8
LVL0000
 10
        4.699646
 20
       47.700447
 30
        0.000000
 11
        6.299500
 21
       47.700447
 31
        0.000000
  0
LINE
  8
LVL0000
 10
        4.699646
 20
       51.200447
 30
        0.000000
 11
        6.299500
 21
       51.200447
 31
        0.000000
  0
LINE
  8
LVL0000
 10
        6.299500
 20
       54.400398
 30
        0.000000
 11
        6.299500
 21
       51.200447
 31
        0.000000
  0
LINE
  8
LVL0000
 10
        6.299500
 20
       47.700447
 30
        0.000000
 11
        6.299500
 21
       44.500496
 31
        0.000000
  0
LINE
  8
LVL0000
 10
        4.699646
 20
       54.400398
 30
        0.000000
 11
        4.699646
 21
       51.200447
 31
        0.000000
  0
LINE
  8
LVL0000
 10
        4.699646
 20
       47.700447
 30
        0.000000
 11
        4.699646
 21
       44.500496
 31
        0.000000
  0
LINE
  8
LVL0000
 10
        1.999573
 20
       54.400398
 30
        0.000000
 11
        3.599548
 21
       54.400398
 31
        0.000000
  0
LINE
  8
LVL0000
 10
        1.999573
 20
       44.500496
 30
        0.000000
 11
        3.599548
 21
       44.500496
 31
        0.000000
  0
LINE
  8
LVL0000
 10
        1.999573
 20
       47.700447
 30
        0.000000
 11
        3.599548
 21
       47.700447
 31
        0.000000
  0
LINE
  8
LVL0000
 10
        1.999573
 20
       51.200447
 30
        0.000000
 11
        3.599548
 21
       51.200447
 31
        0.000000
  0
LINE
  8
LVL0000
 10
        3.599548
 20
       54.400398
 30
        0.000000
 11
        3.599548
 21
       51.200447
 31
        0.000000
  0
LINE
  8
LVL0000
 10
        3.599548
 20
       47.700447
 30
        0.000000
 11
        3.599548
 21
       44.500496
 31
        0.000000
  0
LINE
  8
LVL0000
 10
        1.999573
 20
       54.400398
 30
        0.000000
 11
        1.999573
 21
       51.200447
 31
        0.000000
  0
LINE
  8
LVL0000
 10
        1.999573
 20
       47.700447
 30
        0.000000
 11
        1.999573
 21
       44.500496
 31
        0.000000
  0
LINE
  8
LVL0000
 10
       -0.700378
 20
       54.400398
 30
        0.000000
 11
        0.899597
 21
       54.400398
 31
        0.000000
  0
LINE
  8
LVL0000
 10
       -0.700378
 20
       44.500496
 30
        0.000000
 11
        0.899597
 21
       44.500496
 31
        0.000000
  0
LINE
  8
LVL0000
 10
       -0.700378
 20
       47.700447
 30
        0.000000
 11
        0.899597
 21
       47.700447
 31
        0.000000
  0
LINE
  8
LVL0000
 10
       -0.700378
 20
       51.200447
 30
        0.000000
 11
        0.899597
 21
       51.200447
 31
        0.000000
  0
LINE
  8
LVL0000
 10
        0.899597
 20
       54.400398
 30
        0.000000
 11
        0.899597
 21
       51.200447
 31
        0.000000
  0
LINE
  8
LVL0000
 10
        0.899597
 20
       47.700447
 30
        0.000000
 11
        0.899597
 21
       44.500496
 31
        0.000000
  0
LINE
  8
LVL0000
 10
       -0.700378
 20
       54.400398
 30
        0.000000
 11
       -0.700378
 21
       51.200447
 31
        0.000000
  0
LINE
  8
LVL0000
 10
       -0.700378
 20
       47.700447
 30
        0.000000
 11
       -0.700378
 21
       44.500496
 31
        0.000000
  0
LINE
  8
LVL0000
 10
       -3.400452
 20
       54.400398
 30
        0.000000
 11
       -1.800354
 21
       54.400398
 31
        0.000000
  0
LINE
  8
LVL0000
 10
       -3.400452
 20
       44.500496
 30
        0.000000
 11
       -1.800354
 21
       44.500496
 31
        0.000000
  0
LINE
  8
LVL0000
 10
       -3.400452
 20
       47.700447
 30
        0.000000
 11
       -1.800354
 21
       47.700447
 31
        0.000000
  0
LINE
  8
LVL0000
 10
       -3.400452
 20
       51.200447
 30
        0.000000
 11
       -1.800354
 21
       51.200447
 31
        0.000000
  0
LINE
  8
LVL0000
 10
       -1.800354
 20
       54.400398
 30
        0.000000
 11
       -1.800354
 21
       51.200447
 31
        0.000000
  0
LINE
  8
LVL0000
 10
       -1.800354
 20
       47.700447
 30
        0.000000
 11
       -1.800354
 21
       44.500496
 31
        0.000000
  0
LINE
  8
LVL0000
 10
       -3.400452
 20
       54.400398
 30
        0.000000
 11
       -3.400452
 21
       51.200447
 31
        0.000000
  0
LINE
  8
LVL0000
 10
       -3.400452
 20
       47.700447
 30
        0.000000
 11
       -3.400452
 21
       44.500496
 31
        0.000000
  0
LINE
  8
LVL0000
 10
       -6.100403
 20
       54.400398
 30
        0.000000
 11
       -4.500427
 21
       54.400398
 31
        0.000000
  0
LINE
  8
LVL0000
 10
       -6.100403
 20
       44.500496
 30
        0.000000
 11
       -4.500427
 21
       44.500496
 31
        0.000000
  0
LINE
  8
LVL0000
 10
       -6.100403
 20
       47.700447
 30
        0.000000
 11
       -4.500427
 21
       47.700447
 31
        0.000000
  0
LINE
  8
LVL0000
 10
       -6.100403
 20
       51.200447
 30
        0.000000
 11
       -4.500427
 21
       51.200447
 31
        0.000000
  0
LINE
  8
LVL0000
 10
       -4.500427
 20
       54.400398
 30
        0.000000
 11
       -4.500427
 21
       51.200447
 31
        0.000000
  0
LINE
  8
LVL0000
 10
       -4.500427
 20
       47.700447
 30
        0.000000
 11
       -4.500427
 21
       44.500496
 31
        0.000000
  0
LINE
  8
LVL0000
 10
       -6.100403
 20
       54.400398
 30
        0.000000
 11
       -6.100403
 21
       51.200447
 31
        0.000000
  0
LINE
  8
LVL0000
 10
       -6.100403
 20
       47.700447
 30
        0.000000
 11
       -6.100403
 21
       44.500496
 31
        0.000000
  0
LINE
  8
LVL0000
 10
       -8.800354
 20
       54.400398
 30
        0.000000
 11
       -7.200500
 21
       54.400398
 31
        0.000000
  0
LINE
  8
LVL0000
 10
       -8.800354
 20
       44.500496
 30
        0.000000
 11
       -7.200500
 21
       44.500496
 31
        0.000000
  0
LINE
  8
LVL0000
 10
       -8.800354
 20
       47.700447
 30
        0.000000
 11
       -7.200500
 21
       47.700447
 31
        0.000000
  0
LINE
  8
LVL0000
 10
       -8.800354
 20
       51.200447
 30
        0.000000
 11
       -7.200500
 21
       51.200447
 31
        0.000000
  0
LINE
  8
LVL0000
 10
       -7.200500
 20
       54.400398
 30
        0.000000
 11
       -7.200500
 21
       51.200447
 31
        0.000000
  0
LINE
  8
LVL0000
 10
       -7.200500
 20
       47.700447
 30
        0.000000
 11
       -7.200500
 21
       44.500496
 31
        0.000000
  0
LINE
  8
LVL0000
 10
       -8.800354
 20
       54.400398
 30
        0.000000
 11
       -8.800354
 21
       51.200447
 31
        0.000000
  0
LINE
  8
LVL0000
 10
       -8.800354
 20
       47.700447
 30
        0.000000
 11
       -8.800354
 21
       44.500496
 31
        0.000000
  0
LINE
  8
LVL0000
 10
      -11.500427
 20
       54.400398
 30
        0.000000
 11
       -9.900452
 21
       54.400398
 31
        0.000000
  0
LINE
  8
LVL0000
 10
      -11.500427
 20
       44.500496
 30
        0.000000
 11
       -9.900452
 21
       44.500496
 31
        0.000000
  0
LINE
  8
LVL0000
 10
      -11.500427
 20
       47.700447
 30
        0.000000
 11
       -9.900452
 21
       47.700447
 31
        0.000000
  0
LINE
  8
LVL0000
 10
      -11.500427
 20
       51.200447
 30
        0.000000
 11
       -9.900452
 21
       51.200447
 31
        0.000000
  0
LINE
  8
LVL0000
 10
       -9.900452
 20
       54.400398
 30
        0.000000
 11
       -9.900452
 21
       51.200447
 31
        0.000000
  0
LINE
  8
LVL0000
 10
       -9.900452
 20
       47.700447
 30
        0.000000
 11
       -9.900452
 21
       44.500496
 31
        0.000000
  0
LINE
  8
LVL0000
 10
      -11.500427
 20
       54.400398
 30
        0.000000
 11
      -11.500427
 21
       51.200447
 31
        0.000000
  0
LINE
  8
LVL0000
 10
      -11.500427
 20
       47.700447
 30
        0.000000
 11
      -11.500427
 21
       44.500496
 31
        0.000000
  0
CIRCLE
  8
LVL0000
 10
       -7.399658
 20
       22.499657
 30
        0.000000
 40
        5.000000
  0
LINE
  8
LVL0000
 10
      -17.500000
 20
        3.999992
 30
        0.000000
 11
       17.500000
 21
        3.999992
 31
        0.000000
  0
LINE
  8
LVL0000
 10
       -3.000000
 20
       28.500008
 30
        0.000000
 11
        3.000000
 21
       28.500008
 31
        0.000000
  0
LINE
  8
LVL0000
 10
        3.000000
 20
       30.000008
 30
        0.000000
 11
        3.000000
 21
       28.500008
 31
        0.000000
  0
LINE
  8
LVL0000
 10
       -3.000000
 20
       30.000008
 30
        0.000000
 11
       -3.000000
 21
       28.500008
 31
        0.000000
  0
ARC
  8
LVL0000
 10
       -5.323529
 20
        8.704196
 30
        0.000000
 40
        0.500000
 50
      270.000000
 51
      360.000000
  0
LINE
  8
LVL0000
 10
       -5.323529
 20
        8.204196
 30
        0.000000
 11
      -10.323529
 21
        8.204196
 31
        0.000000
  0
ARC
  8
LVL0000
 10
      -10.323529
 20
        8.704196
 30
        0.000000
 40
        0.500000
 50
      179.999995
 51
      270.000000
  0
LINE
  8
LVL0000
 10
      -10.823529
 20
       14.704196
 30
        0.000000
 11
      -10.823529
 21
        8.704196
 31
        0.000000
  0
ARC
  8
LVL0000
 10
      -10.323529
 20
       14.704196
 30
        0.000000
 40
        0.500000
 50
       90.000000
 51
      179.999995
  0
LINE
  8
LVL0000
 10
       -4.823529
 20
       14.704196
 30
        0.000000
 11
       -4.823529
 21
        8.704196
 31
        0.000000
  0
LINE
  8
LVL0000
 10
       -5.323529
 20
       15.204196
 30
        0.000000
 11
      -10.323529
 21
       15.204196
 31
        0.000000
  0
ARC
  8
LVL0000
 10
       -5.323529
 20
       14.704196
 30
        0.000000
 40
        0.500000
 50
        0.000000
 51
       90.000000
  0
LINE
  8
LVL0000
 10
       17.500000
 20
       40.499702
 30
        0.000000
 11
      -17.500000
 21
       40.499702
 31
        0.000000
  0
LINE
  8
LVL0000
  6
CENTER
 10
        0.000000
 20
       70.586835
 30
        0.000000
 11
        0.000000
 21
      -73.021754
 31
        0.000000
  0
TEXT
  8
LVL0000
 62
  2
 10
      -14.366433
 20
      101.750081
 30
        0.000000
 40
        5.000000
  1
ＪＷ２５ＣＭ
 50
        0.000000
 41
        0.835000
 51
        0.000000
  7
BIGFONT
  0
TEXT
  8
LVL0000
 62
  2
 10
      -14.057877
 20
      108.590460
 30
        0.000000
 40
        5.000000
  1
ＪＷ２３ＬＭＨ
 50
        0.000000
 41
        0.835000
 51
        0.000000
  7
BIGFONT
  0
TEXT
  8
LVL0000
 62
  2
 10
      -14.057877
 20
      115.426494
 30
        0.000000
 40
        5.000000
  1
ＪＷ２１ＣＭ
 50
        0.000000
 41
        0.835000
 51
        0.000000
  7
BIGFONT
  0
CIRCLE
  8
LVL0000
 10
       -7.399658
 20
       22.499657
 30
        0.000000
 40
        2.000000
  0
LINE
  8
LVL0000
 10
       -6.899658
 20
       22.999168
 30
        0.000000
 11
       -8.899658
 21
       22.999168
 31
        0.000000
  0
LINE
  8
LVL0000
 10
       -6.899658
 20
       21.999168
 30
        0.000000
 11
       -8.899658
 21
       21.999168
 31
        0.000000
  0
LINE
  8
LVL0000
 10
       -8.899658
 20
       22.999168
 30
        0.000000
 11
       -8.899658
 21
       21.999168
 31
        0.000000
  0
LINE
  8
LVL0000
 10
       -6.899658
 20
       23.499168
 30
        0.000000
 11
       -6.899658
 21
       22.999168
 31
        0.000000
  0
LINE
  8
LVL0000
 10
       -5.899658
 20
       22.499168
 30
        0.000000
 11
       -6.899658
 21
       23.499168
 31
        0.000000
  0
LINE
  8
LVL0000
 10
       -5.899658
 20
       22.499168
 30
        0.000000
 11
       -6.899658
 21
       21.499168
 31
        0.000000
  0
LINE
  8
LVL0000
 10
       -6.899658
 20
       21.999168
 30
        0.000000
 11
       -6.899658
 21
       21.499168
 31
        0.000000
  0
DIMENSION
  8
LVL0000
 62
  5
  2
BLK0001
 10
      -17.499634
 20
      -83.833275
 11
       -3.999634
 21
      -83.333275
 13
      -17.499634
 23
      -64.500313
 14
       17.500366
 24
      -64.500313
 50
        0.0
 70
  0
  0
DIMENSION
  8
LVL0000
 62
  5
  2
BLK0002
 10
       36.565552
 20
       64.999702
 11
       36.065552
 21
       -6.079231
 13
       17.000366
 23
       64.999702
 14
       17.000366
 24
      -65.000313
 50
       90.0
 70
  0
  0
DIMENSION
  8
LVL0000
 62
  5
  2
BLK0003
 10
      159.900208
 20
      -83.833275
 11
       98.700226
 21
      -83.333275
 13
      159.900208
 23
       54.999702
 14
       57.500244
 24
      -64.500313
 50
        0.0
 70
  0
  0
LINE
  8
LVL0000
  6
CENTER
 10
       24.337656
 20
        0.000000
 30
        0.000000
 11
      -28.438308
 21
        0.000000
 31
        0.000000
  0
LINE
  8
LVL0000
 10
       59.000244
 20
       38.999702
 30
        0.000000
 11
       60.500244
 21
       38.999702
 31
        0.000000
  0
ENDSEC
  0
EOF
