  0
SECTION
  2
HEADER
  9
$ACADVER
  1
AC1006
  9
$INSBASE
 10
0.0
 20
0.0
 30
0.0
  9
$EXTMIN
 10
      -76.463089
 20
      -76.463089
  9
$EXTMAX
 10
      176.900391
 20
      120.000008
  9
$LIMMIN
 10
      -76.463089
 20
      -76.463089
  9
$LIMMAX
 10
      176.900391
 20
      120.000008
  9
$VIEWCTR
 10
       50.218651
 20
       50.218651
  9
$ORTHOMODE
 70
     0
  9
$ANGBASE
 50
0.0
  9
$ANGDIR
 70
     0
  9
$SPLINETYPE
 70
     6
  9
$SPLINESEGS
 70
     8
9
$DIMASZ
 40
        3.000000
9
$DIMEXE
 40
        1.200000
9
$DIMEXO
 40
        2.000000
9
$DIMTXT
 40
        4.000000
9
$DIMGAP
 40
        1.200000
9
$DIMTAD
 70
1
9
$DIMTIH
 70
0
9
$DIMTOH
 70
0
  0
ENDSEC
  0
SECTION
  2
TABLES
  0
TABLE
  2
LTYPE
 70
     5
  0
LTYPE
  2
CONTINUOUS
 70
    64
  3
SOLID LINE
 72
    65
 73
     0
 40
0.0
  0
LTYPE
  2
DASHED
 70
    64
  3
-- -- -- -- -- --
 72
    65
 73
     2
 40
  0.75  
 49
  0.50  
 49
 -0.25  
  0
LTYPE
  2
DOT
 70
    64
  3
....................
 72
    65
 73
     2
 40
  0.25  
 49
  0.02  
 49
 -0.23  
  0
LTYPE
  2
CENTER
 70
    64
  3
-- . -- . -- . -- .
 72
    65
 73
    4
 40
  2.00  
 49
  1.25  
 49
 -0.25  
 49
  0.25  
 49
 -0.25  
  0
LTYPE
  2
PHANTOM
 70
    64
  3
-- .. -- .. -- ..
 72
    65
 73
    6
 40
  2.50  
 49
  1.25  
 49
 -0.25  
 49
  0.25  
 49
 -0.25  
 49
  0.25  
 49
 -0.25  
  0
ENDTAB
  0
TABLE
  2
LAYER
 70
     1
  0
LAYER
  2
LVL0000
 70
    64
 62
     2
  6
CONTINUOUS
  0
ENDTAB
  0
TABLE
  2
STYLE
 70
     2
  0
STYLE
  2
STANDARD
 70
    64
 40
0.0
 41
1.0
 50
0.0
 71
     0
 42
5.0
  3
ROMANS
  4
BIGFONT
  0
STYLE
  2
BIGFONT
 70
    64
 40
0.0
 41
1.0
 50
0.0
 71
     0
 42
5.0
  3
ROMANS
  4
BIGFONT
  0
ENDTAB
  0
TABLE
  2
VIEW
 70
     0
  0
ENDTAB
  0
TABLE
  2
UCS
 70
     0
  0
ENDTAB
  0
TABLE
  2
DWGMGR
 70
     0
  0
ENDTAB
  0
ENDSEC
  0
SECTION
  2
BLOCKS
  0
BLOCK
  8
0
  2
BLK0001
 70
    64
 10
        0.000000
 20
        0.000000
  0
TEXT
  8
LVL0000
 10
       36.073826
 20
       -5.642702
 30
        0.000000
 40
        4.000000
  1
１３０
 50
       90.000000
 41
        0.835000
 51
        0.000000
  7
BIGFONT
  0
LINE
  8
LVL0000
 10
       19.500000
 20
       65.000008
 30
        0.000000
 11
       38.473827
 21
       65.000008
 31
        0.000000
  0
LINE
  8
LVL0000
 10
       19.500000
 20
      -65.000008
 30
        0.000000
 11
       38.473827
 21
      -65.000008
 31
        0.000000
  0
LINE
  8
LVL0000
 10
       37.745064
 20
       62.000008
 30
        0.000000
 11
       37.273827
 21
       65.000008
 31
        0.000000
  0
LINE
  8
LVL0000
 10
       37.273827
 20
       65.000008
 30
        0.000000
 11
       36.802589
 21
       62.000008
 31
        0.000000
  0
LINE
  8
LVL0000
 10
       36.802589
 20
      -62.000008
 30
        0.000000
 11
       37.273827
 21
      -65.000008
 31
        0.000000
  0
LINE
  8
LVL0000
 10
       37.273827
 20
      -65.000008
 30
        0.000000
 11
       37.745064
 21
      -62.000008
 31
        0.000000
  0
LINE
  8
LVL0000
 10
       37.273827
 20
       65.000008
 30
        0.000000
 11
       37.273827
 21
      -65.000008
 31
        0.000000
  0
ENDBLK
  0
BLOCK
  8
0
  2
BLK0002
 70
    64
 10
        0.000000
 20
        0.000000
  0
TEXT
  8
LVL0000
 10
      107.242790
 20
      -81.636566
 30
        0.000000
 40
        4.000000
  1
１０２．４
 50
        0.000000
 41
        0.835000
 51
        0.000000
  7
BIGFONT
  0
LINE
  8
LVL0000
 10
      169.899963
 20
       53.000008
 30
        0.000000
 11
      169.899963
 21
      -84.036560
 31
        0.000000
  0
LINE
  8
LVL0000
 10
       67.500000
 20
       -0.999702
 30
        0.000000
 11
       67.500000
 21
      -84.036568
 31
        0.000000
  0
LINE
  8
LVL0000
 10
      166.899963
 20
      -83.307800
 30
        0.000000
 11
      169.899963
 21
      -82.836563
 31
        0.000000
  0
LINE
  8
LVL0000
 10
      169.899963
 20
      -82.836563
 30
        0.000000
 11
      166.899963
 21
      -82.365326
 31
        0.000000
  0
LINE
  8
LVL0000
 10
       70.500000
 20
      -82.365334
 30
        0.000000
 11
       67.500000
 21
      -82.836571
 31
        0.000000
  0
LINE
  8
LVL0000
 10
       67.500000
 20
      -82.836571
 30
        0.000000
 11
       70.500000
 21
      -83.307808
 31
        0.000000
  0
LINE
  8
LVL0000
 10
      169.899963
 20
      -82.836563
 30
        0.000000
 11
       67.500000
 21
      -82.836571
 31
        0.000000
  0
ENDBLK
  0
BLOCK
  8
0
  2
BLK0003
 70
    64
 10
        0.000000
 20
        0.000000
  0
TEXT
  8
LVL0000
 10
       -3.914554
 20
      -83.201546
 30
        0.000000
 40
        4.000000
  1
３５
 50
        0.000000
 41
        0.835000
 51
        0.000000
  7
BIGFONT
  0
LINE
  8
LVL0000
 10
      -17.500000
 20
      -67.000008
 30
        0.000000
 11
      -17.500000
 21
      -85.601547
 31
        0.000000
  0
LINE
  8
LVL0000
 10
       17.500000
 20
      -67.000008
 30
        0.000000
 11
       17.500000
 21
      -85.601547
 31
        0.000000
  0
LINE
  8
LVL0000
 10
      -14.500000
 20
      -83.930313
 30
        0.000000
 11
      -17.500000
 21
      -84.401550
 31
        0.000000
  0
LINE
  8
LVL0000
 10
      -17.500000
 20
      -84.401550
 30
        0.000000
 11
      -14.500000
 21
      -84.872787
 31
        0.000000
  0
LINE
  8
LVL0000
 10
       14.500000
 20
      -84.872787
 30
        0.000000
 11
       17.500000
 21
      -84.401550
 31
        0.000000
  0
LINE
  8
LVL0000
 10
       17.500000
 20
      -84.401550
 30
        0.000000
 11
       14.500000
 21
      -83.930313
 31
        0.000000
  0
LINE
  8
LVL0000
 10
      -17.500000
 20
      -84.401550
 30
        0.000000
 11
       17.500000
 21
      -84.401550
 31
        0.000000
  0
ENDBLK
  0
ENDSEC
  0
SECTION
  2
ENTITIES
  0
TEXT
  8
LVL0000
 10
      -14.092394
 20
      110.997542
 30
        0.000000
 40
        5.000000
  1
ＪＷ２０ＤＮ２
 50
        0.000000
 41
        0.835000
 51
        0.000000
  7
BIGFONT
  0
LINE
  8
LVL0000
 62
  3
 10
       -2.000000
 20
       54.600000
 30
        0.000000
 11
       -2.000000
 21
       52.600000
 31
        0.000000
  0
LINE
  8
LVL0000
 62
  3
 10
       -3.200000
 20
       52.600000
 30
        0.000000
 11
       -2.000000
 21
       52.600000
 31
        0.000000
  0
LINE
  8
LVL0000
 62
  3
 10
       -3.200000
 20
       54.600000
 30
        0.000000
 11
       -3.200000
 21
       52.600000
 31
        0.000000
  0
LINE
  8
LVL0000
 62
  3
 10
       -3.200000
 20
       54.600000
 30
        0.000000
 11
       -2.000000
 21
       54.600000
 31
        0.000000
  0
LINE
  8
LVL0000
 62
  3
 10
       -7.250000
 20
       54.600000
 30
        0.000000
 11
       -7.250000
 21
       52.600000
 31
        0.000000
  0
LINE
  8
LVL0000
 62
  3
 10
       -7.250000
 20
       54.600000
 30
        0.000000
 11
       -6.050000
 21
       54.600000
 31
        0.000000
  0
LINE
  8
LVL0000
 62
  3
 10
       -6.050000
 20
       54.600000
 30
        0.000000
 11
       -6.050000
 21
       52.600000
 31
        0.000000
  0
LINE
  8
LVL0000
 62
  3
 10
       -7.250000
 20
       52.600000
 30
        0.000000
 11
       -6.050000
 21
       52.600000
 31
        0.000000
  0
LINE
  8
LVL0000
 62
  3
 10
        7.750000
 20
       -6.419995
 30
        0.000000
 11
        7.750000
 21
       -8.419995
 31
        0.000000
  0
LINE
  8
LVL0000
 62
  3
 10
        2.750000
 20
       -6.419995
 30
        0.000000
 11
        2.750000
 21
       -8.419995
 31
        0.000000
  0
CIRCLE
  8
LVL0000
 62
  3
 10
        5.250000
 20
       -6.419995
 30
        0.000000
 40
        2.000000
  0
ARC
  8
LVL0000
 62
  3
 10
        5.250000
 20
       -6.419995
 30
        0.000000
 40
        2.500000
 50
        0.000000
 51
      179.999995
  0
ARC
  8
LVL0000
 62
  3
 10
        5.250000
 20
       -6.419995
 30
        0.000000
 40
        0.850000
 50
      270.000000
 51
      450.000000
  0
LINE
  8
LVL0000
 62
  3
 10
        5.250000
 20
       -5.569995
 30
        0.000000
 11
        4.100000
 21
       -5.569995
 31
        0.000000
  0
CIRCLE
  8
LVL0000
 62
  3
 10
        4.100000
 20
       -6.419995
 30
        0.000000
 40
        0.850000
  0
LINE
  8
LVL0000
 62
  3
 10
        5.250000
 20
       -7.269995
 30
        0.000000
 11
        4.100000
 21
       -7.269995
 31
        0.000000
  0
LINE
  8
LVL0000
 62
  3
 10
        2.750000
 20
       -8.419988
 30
        0.000000
 11
       -0.225000
 21
       -8.419988
 31
        0.000000
  0
LINE
  8
LVL0000
 62
  3
 10
        9.675000
 20
       -8.419988
 30
        0.000000
 11
        7.750000
 21
       -8.419988
 31
        0.000000
  0
ARC
  8
LVL0000
 62
  3
 10
        3.100000
 20
      -10.199995
 30
        0.000000
 40
        0.800000
 50
       90.000000
 51
      179.999995
  0
LINE
  8
LVL0000
 62
  3
 10
        7.300000
 20
       -9.399995
 30
        0.000000
 11
        3.100000
 21
       -9.399995
 31
        0.000000
  0
ARC
  8
LVL0000
 62
  3
 10
        7.300000
 20
      -10.199995
 30
        0.000000
 40
        0.800000
 50
        0.000000
 51
       90.000000
  0
ARC
  8
LVL0000
 62
  3
 10
        3.100000
 20
      -43.799995
 30
        0.000000
 40
        0.800000
 50
      179.999995
 51
      270.000000
  0
LINE
  8
LVL0000
 62
  3
 10
        7.300000
 20
      -44.599995
 30
        0.000000
 11
        3.100000
 21
      -44.599995
 31
        0.000000
  0
ARC
  8
LVL0000
 62
  3
 10
        7.300000
 20
      -43.799995
 30
        0.000000
 40
        0.800000
 50
      270.000000
 51
      360.000000
  0
LINE
  8
LVL0000
 62
  3
 10
        8.100000
 20
      -10.199995
 30
        0.000000
 11
        8.100000
 21
      -14.299995
 31
        0.000000
  0
LINE
  8
LVL0000
 62
  3
 10
        8.100000
 20
      -39.699995
 30
        0.000000
 11
        8.100000
 21
      -43.799995
 31
        0.000000
  0
LINE
  8
LVL0000
 62
  3
 10
        2.300000
 20
      -10.199995
 30
        0.000000
 11
        2.300000
 21
      -14.299995
 31
        0.000000
  0
LINE
  8
LVL0000
 62
  3
 10
        2.300000
 20
      -39.699995
 30
        0.000000
 11
        2.300000
 21
      -43.799995
 31
        0.000000
  0
LINE
  8
LVL0000
 62
  3
 10
        9.000000
 20
      -39.699995
 30
        0.000000
 11
       -6.000000
 21
      -39.699995
 31
        0.000000
  0
LINE
  8
LVL0000
 62
  3
 10
        9.000000
 20
      -14.299995
 30
        0.000000
 11
       -6.000000
 21
      -14.299995
 31
        0.000000
  0
LINE
  8
LVL0000
 62
  3
 10
        6.200000
 20
      -38.659995
 30
        0.000000
 11
        2.900000
 21
      -38.659995
 31
        0.000000
  0
LINE
  8
LVL0000
 62
  3
 10
        6.200000
 20
      -35.659995
 30
        0.000000
 11
        2.900000
 21
      -35.659995
 31
        0.000000
  0
LINE
  8
LVL0000
 62
  3
 10
        6.200000
 20
      -35.659995
 30
        0.000000
 11
        6.200000
 21
      -38.659995
 31
        0.000000
  0
LINE
  8
LVL0000
 62
  3
 10
        2.900000
 20
      -35.659995
 30
        0.000000
 11
        2.900000
 21
      -38.659995
 31
        0.000000
  0
LINE
  8
LVL0000
 62
  3
 10
       -5.000000
 20
      -14.299995
 30
        0.000000
 11
       -5.000000
 21
      -39.699995
 31
        0.000000
  0
LINE
  8
LVL0000
 62
  3
 10
        6.200000
 20
      -33.579995
 30
        0.000000
 11
        2.900000
 21
      -33.579995
 31
        0.000000
  0
LINE
  8
LVL0000
 62
  3
 10
        2.900000
 20
      -30.579995
 30
        0.000000
 11
        2.900000
 21
      -33.579995
 31
        0.000000
  0
LINE
  8
LVL0000
 62
  3
 10
        6.200000
 20
      -30.579995
 30
        0.000000
 11
        6.200000
 21
      -33.579995
 31
        0.000000
  0
LINE
  8
LVL0000
 62
  3
 10
        6.200000
 20
      -30.579995
 30
        0.000000
 11
        2.900000
 21
      -30.579995
 31
        0.000000
  0
LINE
  8
LVL0000
 62
  3
 10
        6.200000
 20
      -25.499995
 30
        0.000000
 11
        2.900000
 21
      -25.499995
 31
        0.000000
  0
LINE
  8
LVL0000
 62
  3
 10
        6.200000
 20
      -25.499995
 30
        0.000000
 11
        6.200000
 21
      -28.499995
 31
        0.000000
  0
LINE
  8
LVL0000
 62
  3
 10
        2.900000
 20
      -25.499995
 30
        0.000000
 11
        2.900000
 21
      -28.499995
 31
        0.000000
  0
LINE
  8
LVL0000
 62
  3
 10
        6.200000
 20
      -28.499995
 30
        0.000000
 11
        2.900000
 21
      -28.499995
 31
        0.000000
  0
LINE
  8
LVL0000
 62
  3
 10
        6.200000
 20
      -23.419995
 30
        0.000000
 11
        2.900000
 21
      -23.419995
 31
        0.000000
  0
LINE
  8
LVL0000
 62
  3
 10
        2.900000
 20
      -20.419995
 30
        0.000000
 11
        2.900000
 21
      -23.419995
 31
        0.000000
  0
LINE
  8
LVL0000
 62
  3
 10
        6.200000
 20
      -20.419995
 30
        0.000000
 11
        6.200000
 21
      -23.419995
 31
        0.000000
  0
LINE
  8
LVL0000
 62
  3
 10
        6.200000
 20
      -20.419995
 30
        0.000000
 11
        2.900000
 21
      -20.419995
 31
        0.000000
  0
LINE
  8
LVL0000
 62
  3
 10
        6.200000
 20
      -15.339995
 30
        0.000000
 11
        2.900000
 21
      -15.339995
 31
        0.000000
  0
LINE
  8
LVL0000
 62
  3
 10
        6.200000
 20
      -15.339995
 30
        0.000000
 11
        6.200000
 21
      -18.339995
 31
        0.000000
  0
LINE
  8
LVL0000
 62
  3
 10
        2.900000
 20
      -15.339995
 30
        0.000000
 11
        2.900000
 21
      -18.339995
 31
        0.000000
  0
LINE
  8
LVL0000
 62
  3
 10
        6.200000
 20
      -18.339995
 30
        0.000000
 11
        2.900000
 21
      -18.339995
 31
        0.000000
  0
LINE
  8
LVL0000
 62
  3
 10
        7.000000
 20
      -15.064995
 30
        0.000000
 11
        0.200000
 21
      -15.064995
 31
        0.000000
  0
LINE
  8
LVL0000
 62
  3
 10
        2.900000
 20
      -15.339995
 30
        0.000000
 11
        0.200000
 21
      -15.064995
 31
        0.000000
  0
LINE
  8
LVL0000
 62
  3
 10
        6.200000
 20
      -15.339995
 30
        0.000000
 11
        7.000000
 21
      -15.064995
 31
        0.000000
  0
LINE
  8
LVL0000
 62
  3
 10
        6.200000
 20
      -20.419995
 30
        0.000000
 11
        7.000000
 21
      -20.144995
 31
        0.000000
  0
LINE
  8
LVL0000
 62
  3
 10
        2.900000
 20
      -20.419995
 30
        0.000000
 11
        0.200000
 21
      -20.144995
 31
        0.000000
  0
LINE
  8
LVL0000
 62
  3
 10
        7.000000
 20
      -20.144995
 30
        0.000000
 11
        0.200000
 21
      -20.144995
 31
        0.000000
  0
LINE
  8
LVL0000
 62
  3
 10
        7.000000
 20
      -25.224995
 30
        0.000000
 11
        0.200000
 21
      -25.224995
 31
        0.000000
  0
LINE
  8
LVL0000
 62
  3
 10
        2.900000
 20
      -25.499995
 30
        0.000000
 11
        0.200000
 21
      -25.224995
 31
        0.000000
  0
LINE
  8
LVL0000
 62
  3
 10
        6.200000
 20
      -25.499995
 30
        0.000000
 11
        7.000000
 21
      -25.224995
 31
        0.000000
  0
LINE
  8
LVL0000
 62
  3
 10
        6.200000
 20
      -30.579995
 30
        0.000000
 11
        7.000000
 21
      -30.304995
 31
        0.000000
  0
LINE
  8
LVL0000
 62
  3
 10
        2.900000
 20
      -30.579995
 30
        0.000000
 11
        0.200000
 21
      -30.304995
 31
        0.000000
  0
LINE
  8
LVL0000
 62
  3
 10
        7.000000
 20
      -30.304995
 30
        0.000000
 11
        0.200000
 21
      -30.304995
 31
        0.000000
  0
LINE
  8
LVL0000
 62
  3
 10
        7.000000
 20
      -35.384995
 30
        0.000000
 11
        0.200000
 21
      -35.384995
 31
        0.000000
  0
LINE
  8
LVL0000
 62
  3
 10
        2.900000
 20
      -35.659995
 30
        0.000000
 11
        0.200000
 21
      -35.384995
 31
        0.000000
  0
LINE
  8
LVL0000
 62
  3
 10
        6.200000
 20
      -35.659995
 30
        0.000000
 11
        7.000000
 21
      -35.384995
 31
        0.000000
  0
LINE
  8
LVL0000
 62
  3
 10
        7.000000
 20
      -18.614995
 30
        0.000000
 11
        0.200000
 21
      -18.614995
 31
        0.000000
  0
LINE
  8
LVL0000
 62
  3
 10
        2.900000
 20
      -18.339995
 30
        0.000000
 11
        0.200000
 21
      -18.614995
 31
        0.000000
  0
LINE
  8
LVL0000
 62
  3
 10
        6.200000
 20
      -18.339995
 30
        0.000000
 11
        7.000000
 21
      -18.614995
 31
        0.000000
  0
LINE
  8
LVL0000
 62
  3
 10
        0.200000
 20
      -15.064995
 30
        0.000000
 11
        0.200000
 21
      -18.614995
 31
        0.000000
  0
LINE
  8
LVL0000
 62
  3
 10
        7.000000
 20
      -15.064995
 30
        0.000000
 11
        7.000000
 21
      -18.614995
 31
        0.000000
  0
LINE
  8
LVL0000
 62
  3
 10
        6.200000
 20
      -23.419995
 30
        0.000000
 11
        7.000000
 21
      -23.694995
 31
        0.000000
  0
LINE
  8
LVL0000
 62
  3
 10
        2.900000
 20
      -23.419995
 30
        0.000000
 11
        0.200000
 21
      -23.694995
 31
        0.000000
  0
LINE
  8
LVL0000
 62
  3
 10
        7.000000
 20
      -23.694995
 30
        0.000000
 11
        0.200000
 21
      -23.694995
 31
        0.000000
  0
LINE
  8
LVL0000
 62
  3
 10
        7.000000
 20
      -20.144995
 30
        0.000000
 11
        7.000000
 21
      -23.694995
 31
        0.000000
  0
LINE
  8
LVL0000
 62
  3
 10
        0.200000
 20
      -20.144995
 30
        0.000000
 11
        0.200000
 21
      -23.694995
 31
        0.000000
  0
LINE
  8
LVL0000
 62
  3
 10
        7.000000
 20
      -28.774995
 30
        0.000000
 11
        0.200000
 21
      -28.774995
 31
        0.000000
  0
LINE
  8
LVL0000
 62
  3
 10
        2.900000
 20
      -28.499995
 30
        0.000000
 11
        0.200000
 21
      -28.774995
 31
        0.000000
  0
LINE
  8
LVL0000
 62
  3
 10
        6.200000
 20
      -28.499995
 30
        0.000000
 11
        7.000000
 21
      -28.774995
 31
        0.000000
  0
LINE
  8
LVL0000
 62
  3
 10
        0.200000
 20
      -25.224995
 30
        0.000000
 11
        0.200000
 21
      -28.774995
 31
        0.000000
  0
LINE
  8
LVL0000
 62
  3
 10
        7.000000
 20
      -25.224995
 30
        0.000000
 11
        7.000000
 21
      -28.774995
 31
        0.000000
  0
LINE
  8
LVL0000
 62
  3
 10
        6.200000
 20
      -33.579995
 30
        0.000000
 11
        7.000000
 21
      -33.854995
 31
        0.000000
  0
LINE
  8
LVL0000
 62
  3
 10
        2.900000
 20
      -33.579995
 30
        0.000000
 11
        0.200000
 21
      -33.854995
 31
        0.000000
  0
LINE
  8
LVL0000
 62
  3
 10
        7.000000
 20
      -33.854995
 30
        0.000000
 11
        0.200000
 21
      -33.854995
 31
        0.000000
  0
LINE
  8
LVL0000
 62
  3
 10
        7.000000
 20
      -30.304995
 30
        0.000000
 11
        7.000000
 21
      -33.854995
 31
        0.000000
  0
LINE
  8
LVL0000
 62
  3
 10
        0.200000
 20
      -30.304995
 30
        0.000000
 11
        0.200000
 21
      -33.854995
 31
        0.000000
  0
LINE
  8
LVL0000
 62
  3
 10
        2.900000
 20
      -38.659995
 30
        0.000000
 11
        0.200000
 21
      -38.934995
 31
        0.000000
  0
LINE
  8
LVL0000
 62
  3
 10
        6.200000
 20
      -38.659995
 30
        0.000000
 11
        7.000000
 21
      -38.934995
 31
        0.000000
  0
LINE
  8
LVL0000
 62
  3
 10
        0.200000
 20
      -35.384995
 30
        0.000000
 11
        0.200000
 21
      -38.934995
 31
        0.000000
  0
LINE
  8
LVL0000
 62
  3
 10
        7.000000
 20
      -35.384995
 30
        0.000000
 11
        7.000000
 21
      -38.934995
 31
        0.000000
  0
LINE
  8
LVL0000
 62
  3
 10
        7.000000
 20
      -38.934995
 30
        0.000000
 11
        0.200000
 21
      -38.934995
 31
        0.000000
  0
LINE
  8
LVL0000
 62
  3
 10
        9.000000
 20
      -39.199995
 30
        0.000000
 11
       -5.000000
 21
      -39.199995
 31
        0.000000
  0
LINE
  8
LVL0000
 62
  3
 10
        9.000000
 20
      -14.799995
 30
        0.000000
 11
       -5.000000
 21
      -14.799995
 31
        0.000000
  0
LINE
  8
LVL0000
 62
  3
 10
       -0.400000
 20
      -14.799995
 30
        0.000000
 11
       -0.400000
 21
      -39.199995
 31
        0.000000
  0
LINE
  8
LVL0000
 62
  3
 10
        3.250000
 20
      -11.359995
 30
        0.000000
 11
        7.108533
 21
      -11.359995
 31
        0.000000
  0
LINE
  8
LVL0000
 62
  3
 10
        3.250000
 20
      -12.159995
 30
        0.000000
 11
        7.108533
 21
      -12.159995
 31
        0.000000
  0
LINE
  8
LVL0000
 62
  3
 10
        3.250000
 20
      -42.639995
 30
        0.000000
 11
        7.108533
 21
      -42.639995
 31
        0.000000
  0
LINE
  8
LVL0000
 62
  3
 10
        3.250000
 20
      -41.839995
 30
        0.000000
 11
        7.108533
 21
      -41.839995
 31
        0.000000
  0
LINE
  8
LVL0000
 62
  3
 10
       -6.000000
 20
      -14.299995
 30
        0.000000
 11
       -6.000000
 21
      -39.699995
 31
        0.000000
  0
CIRCLE
  8
LVL0000
 62
  3
 10
        5.200000
 20
      -11.759995
 30
        0.000000
 40
        1.950000
  0
CIRCLE
  8
LVL0000
 62
  3
 10
        5.200000
 20
      -42.239995
 30
        0.000000
 40
        1.950000
  0
LINE
  8
LVL0000
 62
  3
 10
        9.675000
 20
       -8.419988
 30
        0.000000
 11
        9.675000
 21
      -45.579988
 31
        0.000000
  0
LINE
  8
LVL0000
 62
  3
 10
        9.675000
 20
      -45.579988
 30
        0.000000
 11
       -0.225000
 21
      -45.579988
 31
        0.000000
  0
LINE
  8
LVL0000
 62
  3
 10
       -0.225000
 20
       -8.419988
 30
        0.000000
 11
       -0.225000
 21
      -14.299995
 31
        0.000000
  0
LINE
  8
LVL0000
 62
  3
 10
       -0.225000
 20
      -39.699995
 30
        0.000000
 11
       -0.225000
 21
      -45.579988
 31
        0.000000
  0
LINE
  8
LVL0000
 62
  3
 10
        9.000000
 20
      -44.779995
 30
        0.000000
 11
        0.700000
 21
      -44.779995
 31
        0.000000
  0
LINE
  8
LVL0000
 62
  3
 10
        9.000000
 20
       -9.219995
 30
        0.000000
 11
        0.700000
 21
       -9.219995
 31
        0.000000
  0
LINE
  8
LVL0000
 62
  3
 10
        9.000000
 20
       -9.219995
 30
        0.000000
 11
        9.000000
 21
      -44.779995
 31
        0.000000
  0
LINE
  8
LVL0000
 62
  3
 10
        0.700000
 20
       -9.219995
 30
        0.000000
 11
        0.700000
 21
      -14.299995
 31
        0.000000
  0
LINE
  8
LVL0000
 62
  3
 10
        0.700000
 20
      -39.699995
 30
        0.000000
 11
        0.700000
 21
      -44.779995
 31
        0.000000
  0
LINE
  8
LVL0000
  6
CENTER
 62
  3
 10
      -25.429874
 20
        0.000000
 30
        0.000000
 11
       27.395987
 21
        0.000000
 31
        0.000000
  0
DIMENSION
  8
LVL0000
 62
  5
  2
BLK0001
 10
       37.273827
 20
       65.000008
 11
       36.073826
 21
       -5.642702
 13
       17.500000
 23
       65.000008
 14
       17.500000
 24
      -65.000008
 50
       90.0
 70
  0
  0
DIMENSION
  8
LVL0000
 62
  5
  2
BLK0002
 10
      169.899963
 20
      -82.836563
 11
      107.242790
 21
      -81.636566
 13
      169.899963
 23
       55.000008
 14
       67.500000
 24
        1.000298
 50
        0.0
 70
  0
  0
DIMENSION
  8
LVL0000
 62
  5
  2
BLK0003
 10
      -17.500000
 20
      -84.401550
 11
       -3.914554
 21
      -83.201546
 13
      -17.500000
 23
      -65.000008
 14
       17.500000
 24
      -65.000008
 50
        0.0
 70
  0
  0
LINE
  8
LVL0000
 62
  3
 10
       -6.899658
 20
       21.999168
 30
        0.000000
 11
       -6.899658
 21
       21.499168
 31
        0.000000
  0
LINE
  8
LVL0000
 62
  3
 10
       -5.899658
 20
       22.499168
 30
        0.000000
 11
       -6.899658
 21
       21.499168
 31
        0.000000
  0
LINE
  8
LVL0000
 62
  3
 10
       -5.899658
 20
       22.499168
 30
        0.000000
 11
       -6.899658
 21
       23.499168
 31
        0.000000
  0
LINE
  8
LVL0000
 62
  3
 10
       -6.899658
 20
       23.499168
 30
        0.000000
 11
       -6.899658
 21
       22.999168
 31
        0.000000
  0
LINE
  8
LVL0000
 62
  3
 10
       -8.899658
 20
       22.999168
 30
        0.000000
 11
       -8.899658
 21
       21.999168
 31
        0.000000
  0
LINE
  8
LVL0000
 62
  3
 10
       -6.899658
 20
       21.999168
 30
        0.000000
 11
       -8.899658
 21
       21.999168
 31
        0.000000
  0
LINE
  8
LVL0000
 62
  3
 10
       -6.899658
 20
       22.999168
 30
        0.000000
 11
       -8.899658
 21
       22.999168
 31
        0.000000
  0
CIRCLE
  8
LVL0000
 62
  3
 10
       -7.399658
 20
       22.499657
 30
        0.000000
 40
        2.000000
  0
LINE
  8
LVL0000
 62
  3
 10
      100.500000
 20
      -36.000008
 30
        0.000000
 11
      100.500000
 21
      -48.000008
 31
        0.000000
  0
LINE
  8
LVL0000
 62
  3
 10
       67.500000
 20
       40.500008
 30
        0.000000
 11
       69.000000
 21
       39.000008
 31
        0.000000
  0
LINE
  8
LVL0000
 62
  3
 10
       67.500000
 20
       57.000008
 30
        0.000000
 11
       70.500000
 21
       57.000008
 31
        0.000000
  0
LINE
  8
LVL0000
 62
  3
 10
      103.799988
 20
       21.749992
 30
        0.000000
 11
      106.299988
 21
       21.749992
 31
        0.000000
  0
LINE
  8
LVL0000
 62
  3
 10
      103.799988
 20
       40.250008
 30
        0.000000
 11
      106.299988
 21
       40.250008
 31
        0.000000
  0
LINE
  8
LVL0000
 62
  3
 10
      106.299988
 20
       40.250008
 30
        0.000000
 11
      106.299988
 21
       21.749992
 31
        0.000000
  0
LINE
  8
LVL0000
 62
  3
 10
       99.500000
 20
       37.000008
 30
        0.000000
 11
      100.500000
 21
       37.000008
 31
        0.000000
  0
LINE
  8
LVL0000
 62
  3
 10
       99.500000
 20
       25.000008
 30
        0.000000
 11
      100.500000
 21
       25.000008
 31
        0.000000
  0
LINE
  8
LVL0000
 62
  3
 10
      103.799988
 20
       40.250008
 30
        0.000000
 11
      103.799988
 21
       21.749992
 31
        0.000000
  0
LINE
  8
LVL0000
 62
  3
 10
      100.500000
 20
       37.000008
 30
        0.000000
 11
      100.500000
 21
       25.000008
 31
        0.000000
  0
LINE
  8
LVL0000
 62
  3
 10
      108.649963
 20
      -12.650002
 30
        0.000000
 11
      158.950012
 21
      -12.650002
 31
        0.000000
  0
LINE
  8
LVL0000
 62
  3
 10
      108.649963
 20
       12.649986
 30
        0.000000
 11
      108.649963
 21
      -12.650002
 31
        0.000000
  0
LINE
  8
LVL0000
 62
  3
 10
       99.500000
 20
       65.000008
 30
        0.000000
 11
       99.500000
 21
      -65.000008
 31
        0.000000
  0
LINE
  8
LVL0000
 62
  3
 10
       69.000000
 20
       30.000313
 30
        0.000000
 11
       69.000000
 21
        4.000298
 31
        0.000000
  0
LINE
  8
LVL0000
 62
  3
 10
       67.500000
 20
        4.000298
 30
        0.000000
 11
       69.000000
 21
        4.000298
 31
        0.000000
  0
LINE
  8
LVL0000
 62
  3
 10
       67.500000
 20
       30.000313
 30
        0.000000
 11
       69.000000
 21
       30.000313
 31
        0.000000
  0
LINE
  8
LVL0000
 62
  3
 10
       70.500000
 20
       39.000008
 30
        0.000000
 11
       70.500000
 21
       57.000008
 31
        0.000000
  0
LINE
  8
LVL0000
 62
  3
 10
       68.799988
 20
      -61.000000
 30
        0.000000
 11
       69.299988
 21
      -61.000000
 31
        0.000000
  0
ARC
  8
LVL0000
 62
  3
 10
       69.799988
 20
      -64.500008
 30
        0.000000
 40
        0.500000
 50
      179.999995
 51
      270.000000
  0
LINE
  8
LVL0000
 62
  3
 10
       69.299988
 20
      -61.000000
 30
        0.000000
 11
       69.299988
 21
      -64.500008
 31
        0.000000
  0
LINE
  8
LVL0000
 62
  3
 10
       69.799988
 20
      -65.000008
 30
        0.000000
 11
      164.799988
 21
      -65.000008
 31
        0.000000
  0
LINE
  8
LVL0000
 62
  3
 10
       70.500000
 20
       38.000008
 30
        0.000000
 11
       70.500000
 21
       39.000008
 31
        0.000000
  0
LINE
  8
LVL0000
 62
  3
 10
       68.799988
 20
        1.000298
 30
        0.000000
 11
       67.500000
 21
        1.000298
 31
        0.000000
  0
LINE
  8
LVL0000
 62
  3
 10
       67.500000
 20
       38.000008
 30
        0.000000
 11
       70.500000
 21
       38.000008
 31
        0.000000
  0
LINE
  8
LVL0000
 62
  3
 10
      169.899963
 20
       56.400002
 30
        0.000000
 11
      174.899963
 21
       56.400002
 31
        0.000000
  0
LINE
  8
LVL0000
 62
  3
 10
      169.899963
 20
       60.400002
 30
        0.000000
 11
      174.899963
 21
       60.400002
 31
        0.000000
  0
ARC
  8
LVL0000
 62
  3
 10
      174.899963
 20
       58.400002
 30
        0.000000
 40
        2.000000
 50
      270.000000
 51
      450.000000
  0
LINE
  8
LVL0000
 62
  3
 10
      171.399963
 20
      -57.500008
 30
        0.000000
 11
      171.399963
 21
      -62.000008
 31
        0.000000
  0
LINE
  8
LVL0000
 62
  3
 10
      168.899963
 20
      -60.000008
 30
        0.000000
 11
      168.899963
 21
      -61.000008
 31
        0.000000
  0
LINE
  8
LVL0000
 62
  3
 10
      167.299988
 20
       55.000008
 30
        0.000000
 11
      167.299988
 21
      -53.500008
 31
        0.000000
  0
LINE
  8
LVL0000
 62
  3
 10
      167.299988
 20
      -53.500008
 30
        0.000000
 11
      166.799988
 21
      -60.000008
 31
        0.000000
  0
LINE
  8
LVL0000
 62
  3
 10
      167.299988
 20
      -53.500008
 30
        0.000000
 11
      171.399963
 21
      -57.500008
 31
        0.000000
  0
LINE
  8
LVL0000
 62
  3
 10
      168.899963
 20
      -61.000008
 30
        0.000000
 11
      170.399963
 21
      -62.000008
 31
        0.000000
  0
LINE
  8
LVL0000
 62
  3
 10
      170.399963
 20
      -62.000008
 30
        0.000000
 11
      171.399963
 21
      -62.000008
 31
        0.000000
  0
LINE
  8
LVL0000
 62
  3
 10
      166.799988
 20
      -60.000008
 30
        0.000000
 11
      164.799988
 21
      -65.000008
 31
        0.000000
  0
LINE
  8
LVL0000
 62
  3
 10
      166.799988
 20
      -60.000008
 30
        0.000000
 11
      168.899963
 21
      -60.000008
 31
        0.000000
  0
LINE
  8
LVL0000
 62
  3
 10
      158.950012
 20
       12.649986
 30
        0.000000
 11
      158.950012
 21
      -12.650002
 31
        0.000000
  0
LINE
  8
LVL0000
 62
  3
 10
      108.649963
 20
       12.649986
 30
        0.000000
 11
      158.950012
 21
       12.649986
 31
        0.000000
  0
LINE
  8
LVL0000
 62
  3
 10
      167.299988
 20
       55.000008
 30
        0.000000
 11
      169.899963
 21
       55.000008
 31
        0.000000
  0
LINE
  8
LVL0000
 62
  3
 10
      169.899963
 20
       65.000008
 30
        0.000000
 11
      169.899963
 21
       55.000008
 31
        0.000000
  0
LINE
  8
LVL0000
 62
  3
 10
      103.799988
 20
      -32.750008
 30
        0.000000
 11
      106.299988
 21
      -32.750008
 31
        0.000000
  0
LINE
  8
LVL0000
 62
  3
 10
       99.500000
 20
      -36.000008
 30
        0.000000
 11
      100.500000
 21
      -36.000008
 31
        0.000000
  0
LINE
  8
LVL0000
 62
  3
 10
      103.799988
 20
      -51.250008
 30
        0.000000
 11
      106.299988
 21
      -51.250008
 31
        0.000000
  0
LINE
  8
LVL0000
 62
  3
 10
      106.299988
 20
      -32.750008
 30
        0.000000
 11
      106.299988
 21
      -51.250008
 31
        0.000000
  0
LINE
  8
LVL0000
 62
  3
 10
       99.500000
 20
      -48.000008
 30
        0.000000
 11
      100.500000
 21
      -48.000008
 31
        0.000000
  0
LINE
  8
LVL0000
 62
  3
 10
      103.799988
 20
      -32.750008
 30
        0.000000
 11
      103.799988
 21
      -51.250008
 31
        0.000000
  0
LINE
  8
LVL0000
 62
  3
 10
       69.000000
 20
       39.000008
 30
        0.000000
 11
       70.500000
 21
       39.000008
 31
        0.000000
  0
LINE
  8
LVL0000
 62
  3
 10
      169.899963
 20
       84.999991
 30
        0.000000
 11
       67.999939
 21
       85.000006
 31
        0.000000
  0
ARC
  8
LVL0000
 62
  3
 10
       67.999939
 20
       85.499991
 30
        0.000000
 40
        0.500000
 50
      179.999995
 51
      270.000000
  0
LINE
  8
LVL0000
 62
  3
 10
       83.499939
 20
       85.000006
 30
        0.000000
 11
       83.499939
 21
      120.000006
 31
        0.000000
  0
LINE
  8
LVL0000
 62
  3
 10
       81.499939
 20
       85.000006
 30
        0.000000
 11
       81.499939
 21
      120.000006
 31
        0.000000
  0
LINE
  8
LVL0000
 62
  3
 10
       83.499939
 20
       86.600012
 30
        0.000000
 11
       81.499939
 21
       86.600012
 31
        0.000000
  0
LINE
  8
LVL0000
 62
  3
 10
       83.499939
 20
      118.000006
 30
        0.000000
 11
       81.499939
 21
      118.000006
 31
        0.000000
  0
LINE
  8
LVL0000
 62
  3
 10
       87.499939
 20
       85.000006
 30
        0.000000
 11
       87.499939
 21
      120.000006
 31
        0.000000
  0
LINE
  8
LVL0000
 62
  3
 10
       85.499939
 20
       85.000006
 30
        0.000000
 11
       85.499939
 21
      120.000006
 31
        0.000000
  0
LINE
  8
LVL0000
 62
  3
 10
       87.499939
 20
       86.600012
 30
        0.000000
 11
       85.499939
 21
       86.600012
 31
        0.000000
  0
LINE
  8
LVL0000
 62
  3
 10
       87.499939
 20
      118.000006
 30
        0.000000
 11
       85.499939
 21
      118.000006
 31
        0.000000
  0
LINE
  8
LVL0000
 62
  3
 10
       91.499939
 20
       85.000006
 30
        0.000000
 11
       91.499939
 21
      120.000006
 31
        0.000000
  0
LINE
  8
LVL0000
 62
  3
 10
       89.499939
 20
       85.000006
 30
        0.000000
 11
       89.499939
 21
      120.000006
 31
        0.000000
  0
LINE
  8
LVL0000
 62
  3
 10
       91.499939
 20
       86.600012
 30
        0.000000
 11
       89.499939
 21
       86.600012
 31
        0.000000
  0
LINE
  8
LVL0000
 62
  3
 10
       91.499939
 20
      118.000006
 30
        0.000000
 11
       89.499939
 21
      118.000006
 31
        0.000000
  0
LINE
  8
LVL0000
 62
  3
 10
       95.499939
 20
       85.000006
 30
        0.000000
 11
       95.499939
 21
      120.000006
 31
        0.000000
  0
LINE
  8
LVL0000
 62
  3
 10
       93.499939
 20
       85.000006
 30
        0.000000
 11
       93.499939
 21
      120.000006
 31
        0.000000
  0
LINE
  8
LVL0000
 62
  3
 10
       95.499939
 20
       86.600012
 30
        0.000000
 11
       93.499939
 21
       86.600012
 31
        0.000000
  0
LINE
  8
LVL0000
 62
  3
 10
       95.499939
 20
      118.000006
 30
        0.000000
 11
       93.499939
 21
      118.000006
 31
        0.000000
  0
LINE
  8
LVL0000
 62
  3
 10
      171.400391
 20
      114.400000
 30
        0.000000
 11
      171.400391
 21
       93.499502
 31
        0.000000
  0
LINE
  8
LVL0000
 62
  3
 10
      171.400391
 20
      114.400000
 30
        0.000000
 11
      169.899963
 21
      114.400000
 31
        0.000000
  0
LINE
  8
LVL0000
 62
  3
 10
      169.900391
 20
       89.499502
 30
        0.000000
 11
      174.900391
 21
       89.499502
 31
        0.000000
  0
LINE
  8
LVL0000
 62
  3
 10
      169.900391
 20
       93.499502
 30
        0.000000
 11
      174.900391
 21
       93.499502
 31
        0.000000
  0
ARC
  8
LVL0000
 62
  3
 10
      174.900391
 20
       91.499502
 30
        0.000000
 40
        2.000000
 50
      270.000000
 51
      450.000000
  0
LINE
  8
LVL0000
 62
  3
 10
      108.499939
 20
      100.450003
 30
        0.000000
 11
      110.499939
 21
       99.999991
 31
        0.000000
  0
LINE
  8
LVL0000
 62
  3
 10
      108.499939
 20
      104.549978
 30
        0.000000
 11
      110.499939
 21
      104.999991
 31
        0.000000
  0
LINE
  8
LVL0000
 62
  3
 10
      118.499939
 20
       98.999991
 30
        0.000000
 11
      116.499939
 21
       99.099966
 31
        0.000000
  0
LINE
  8
LVL0000
 62
  3
 10
      116.499939
 20
      105.900015
 30
        0.000000
 11
      118.499939
 21
      105.999991
 31
        0.000000
  0
LINE
  8
LVL0000
 62
  3
 10
      112.499939
 20
      105.400015
 30
        0.000000
 11
      114.499939
 21
      105.700003
 31
        0.000000
  0
LINE
  8
LVL0000
 62
  3
 10
      114.499939
 20
       99.299978
 30
        0.000000
 11
      112.499939
 21
       99.599966
 31
        0.000000
  0
LINE
  8
LVL0000
 62
  3
 10
      105.999939
 20
      101.085806
 30
        0.000000
 11
      106.499939
 21
      100.900015
 31
        0.000000
  0
LINE
  8
LVL0000
 62
  3
 10
      106.499939
 20
      104.099966
 30
        0.000000
 11
      105.999939
 21
      103.914175
 31
        0.000000
  0
ARC
  8
LVL0000
 62
  3
 10
      106.499939
 20
      102.499991
 30
        0.000000
 40
        1.499973
 50
      109.471585
 51
      250.528418
  0
LINE
  8
LVL0000
 62
  3
 10
      122.499939
 20
       98.900015
 30
        0.000000
 11
      120.499939
 21
       98.900015
 31
        0.000000
  0
LINE
  8
LVL0000
 62
  3
 10
      122.499939
 20
      106.099966
 30
        0.000000
 11
      120.499939
 21
      106.099966
 31
        0.000000
  0
LINE
  8
LVL0000
 62
  3
 10
      126.499939
 20
       98.900015
 30
        0.000000
 11
      124.499939
 21
       98.900015
 31
        0.000000
  0
LINE
  8
LVL0000
 62
  3
 10
      126.499939
 20
      106.099966
 30
        0.000000
 11
      124.499939
 21
      106.099966
 31
        0.000000
  0
LINE
  8
LVL0000
 62
  3
 10
      130.499939
 20
       98.900015
 30
        0.000000
 11
      128.499939
 21
       98.900015
 31
        0.000000
  0
LINE
  8
LVL0000
 62
  3
 10
      130.499939
 20
      106.099966
 30
        0.000000
 11
      128.499939
 21
      106.099966
 31
        0.000000
  0
LINE
  8
LVL0000
 62
  3
 10
      134.499939
 20
       98.900015
 30
        0.000000
 11
      132.499939
 21
       98.900015
 31
        0.000000
  0
LINE
  8
LVL0000
 62
  3
 10
      134.499939
 20
      106.099966
 30
        0.000000
 11
      132.499939
 21
      106.099966
 31
        0.000000
  0
LINE
  8
LVL0000
 62
  3
 10
      138.499939
 20
       98.900015
 30
        0.000000
 11
      136.499939
 21
       98.900015
 31
        0.000000
  0
LINE
  8
LVL0000
 62
  3
 10
      138.499939
 20
      106.099966
 30
        0.000000
 11
      136.499939
 21
      106.099966
 31
        0.000000
  0
LINE
  8
LVL0000
 62
  3
 10
      142.499939
 20
       98.900015
 30
        0.000000
 11
      140.499939
 21
       98.900015
 31
        0.000000
  0
LINE
  8
LVL0000
 62
  3
 10
      142.499939
 20
      106.099966
 30
        0.000000
 11
      140.499939
 21
      106.099966
 31
        0.000000
  0
LINE
  8
LVL0000
 62
  3
 10
      146.499939
 20
       98.900015
 30
        0.000000
 11
      144.499939
 21
       98.900015
 31
        0.000000
  0
LINE
  8
LVL0000
 62
  3
 10
      146.499939
 20
      106.099966
 30
        0.000000
 11
      144.499939
 21
      106.099966
 31
        0.000000
  0
LINE
  8
LVL0000
 62
  3
 10
      150.499939
 20
       98.900015
 30
        0.000000
 11
      148.499939
 21
       98.900015
 31
        0.000000
  0
LINE
  8
LVL0000
 62
  3
 10
      150.499939
 20
      106.099966
 30
        0.000000
 11
      148.499939
 21
      106.099966
 31
        0.000000
  0
LINE
  8
LVL0000
 62
  3
 10
      154.499939
 20
       98.900015
 30
        0.000000
 11
      152.499939
 21
       98.900015
 31
        0.000000
  0
LINE
  8
LVL0000
 62
  3
 10
      154.499939
 20
      106.099966
 30
        0.000000
 11
      152.499939
 21
      106.099966
 31
        0.000000
  0
LINE
  8
LVL0000
 62
  3
 10
      158.499939
 20
       98.900015
 30
        0.000000
 11
      156.499939
 21
       98.900015
 31
        0.000000
  0
LINE
  8
LVL0000
 62
  3
 10
      158.499939
 20
      106.099966
 30
        0.000000
 11
      156.499939
 21
      106.099966
 31
        0.000000
  0
LINE
  8
LVL0000
 62
  3
 10
      158.499939
 20
       84.999991
 30
        0.000000
 11
      158.499939
 21
       99.231131
 31
        0.000000
  0
LINE
  8
LVL0000
 62
  3
 10
      158.499939
 20
      105.768850
 30
        0.000000
 11
      158.499939
 21
      119.999991
 31
        0.000000
  0
LINE
  8
LVL0000
 62
  3
 10
      160.499939
 20
       87.999991
 30
        0.000000
 11
      158.499939
 21
       87.999991
 31
        0.000000
  0
LINE
  8
LVL0000
 62
  3
 10
      160.499939
 20
      116.999991
 30
        0.000000
 11
      158.499939
 21
      116.999991
 31
        0.000000
  0
LINE
  8
LVL0000
 62
  3
 10
      156.499939
 20
       87.999991
 30
        0.000000
 11
      154.499939
 21
       87.999991
 31
        0.000000
  0
LINE
  8
LVL0000
 62
  3
 10
      156.499939
 20
      116.999991
 30
        0.000000
 11
      154.499939
 21
      116.999991
 31
        0.000000
  0
LINE
  8
LVL0000
 62
  3
 10
      156.499939
 20
       84.999991
 30
        0.000000
 11
      156.499939
 21
      119.999991
 31
        0.000000
  0
LINE
  8
LVL0000
 62
  3
 10
      154.499939
 20
       84.999991
 30
        0.000000
 11
      154.499939
 21
      119.999991
 31
        0.000000
  0
LINE
  8
LVL0000
 62
  3
 10
      152.499939
 20
       87.999991
 30
        0.000000
 11
      150.499939
 21
       87.999991
 31
        0.000000
  0
LINE
  8
LVL0000
 62
  3
 10
      152.499939
 20
      116.999991
 30
        0.000000
 11
      150.499939
 21
      116.999991
 31
        0.000000
  0
LINE
  8
LVL0000
 62
  3
 10
      152.499939
 20
       84.999991
 30
        0.000000
 11
      152.499939
 21
      119.999991
 31
        0.000000
  0
LINE
  8
LVL0000
 62
  3
 10
      150.499939
 20
       84.999991
 30
        0.000000
 11
      150.499939
 21
      119.999991
 31
        0.000000
  0
LINE
  8
LVL0000
 62
  3
 10
      148.499939
 20
       87.999991
 30
        0.000000
 11
      146.499939
 21
       87.999991
 31
        0.000000
  0
LINE
  8
LVL0000
 62
  3
 10
      148.499939
 20
      116.999991
 30
        0.000000
 11
      146.499939
 21
      116.999991
 31
        0.000000
  0
LINE
  8
LVL0000
 62
  3
 10
      148.499939
 20
       84.999991
 30
        0.000000
 11
      148.499939
 21
      119.999991
 31
        0.000000
  0
LINE
  8
LVL0000
 62
  3
 10
      146.499939
 20
       84.999991
 30
        0.000000
 11
      146.499939
 21
      119.999991
 31
        0.000000
  0
LINE
  8
LVL0000
 62
  3
 10
      144.499939
 20
       87.999991
 30
        0.000000
 11
      142.499939
 21
       87.999991
 31
        0.000000
  0
LINE
  8
LVL0000
 62
  3
 10
      144.499939
 20
      116.999991
 30
        0.000000
 11
      142.499939
 21
      116.999991
 31
        0.000000
  0
LINE
  8
LVL0000
 62
  3
 10
      144.499939
 20
       84.999991
 30
        0.000000
 11
      144.499939
 21
      119.999991
 31
        0.000000
  0
LINE
  8
LVL0000
 62
  3
 10
      142.499939
 20
       84.999991
 30
        0.000000
 11
      142.499939
 21
      119.999991
 31
        0.000000
  0
LINE
  8
LVL0000
 62
  3
 10
      140.499939
 20
       87.999991
 30
        0.000000
 11
      138.499939
 21
       87.999991
 31
        0.000000
  0
LINE
  8
LVL0000
 62
  3
 10
      140.499939
 20
      116.999991
 30
        0.000000
 11
      138.499939
 21
      116.999991
 31
        0.000000
  0
LINE
  8
LVL0000
 62
  3
 10
      140.499939
 20
       84.999991
 30
        0.000000
 11
      140.499939
 21
      119.999991
 31
        0.000000
  0
LINE
  8
LVL0000
 62
  3
 10
      138.499939
 20
       84.999991
 30
        0.000000
 11
      138.499939
 21
      119.999991
 31
        0.000000
  0
LINE
  8
LVL0000
 62
  3
 10
      136.499939
 20
       87.999991
 30
        0.000000
 11
      134.499939
 21
       87.999991
 31
        0.000000
  0
LINE
  8
LVL0000
 62
  3
 10
      136.499939
 20
      116.999991
 30
        0.000000
 11
      134.499939
 21
      116.999991
 31
        0.000000
  0
LINE
  8
LVL0000
 62
  3
 10
      136.499939
 20
       84.999991
 30
        0.000000
 11
      136.499939
 21
      119.999991
 31
        0.000000
  0
LINE
  8
LVL0000
 62
  3
 10
      134.499939
 20
       84.999991
 30
        0.000000
 11
      134.499939
 21
      119.999991
 31
        0.000000
  0
LINE
  8
LVL0000
 62
  3
 10
      132.499939
 20
       87.999991
 30
        0.000000
 11
      130.499939
 21
       87.999991
 31
        0.000000
  0
LINE
  8
LVL0000
 62
  3
 10
      132.499939
 20
      116.999991
 30
        0.000000
 11
      130.499939
 21
      116.999991
 31
        0.000000
  0
LINE
  8
LVL0000
 62
  3
 10
      132.499939
 20
       84.999991
 30
        0.000000
 11
      132.499939
 21
      119.999991
 31
        0.000000
  0
LINE
  8
LVL0000
 62
  3
 10
      130.499939
 20
       84.999991
 30
        0.000000
 11
      130.499939
 21
      119.999991
 31
        0.000000
  0
LINE
  8
LVL0000
 62
  3
 10
      128.499939
 20
       87.999991
 30
        0.000000
 11
      126.499939
 21
       87.999991
 31
        0.000000
  0
LINE
  8
LVL0000
 62
  3
 10
      128.499939
 20
      116.999991
 30
        0.000000
 11
      126.499939
 21
      116.999991
 31
        0.000000
  0
LINE
  8
LVL0000
 62
  3
 10
      128.499939
 20
       84.999991
 30
        0.000000
 11
      128.499939
 21
      119.999991
 31
        0.000000
  0
LINE
  8
LVL0000
 62
  3
 10
      126.499939
 20
       84.999991
 30
        0.000000
 11
      126.499939
 21
      119.999991
 31
        0.000000
  0
LINE
  8
LVL0000
 62
  3
 10
      124.499939
 20
       87.999991
 30
        0.000000
 11
      122.499939
 21
       87.999991
 31
        0.000000
  0
LINE
  8
LVL0000
 62
  3
 10
      124.499939
 20
      116.999991
 30
        0.000000
 11
      122.499939
 21
      116.999991
 31
        0.000000
  0
LINE
  8
LVL0000
 62
  3
 10
      124.499939
 20
       84.999991
 30
        0.000000
 11
      124.499939
 21
      119.999991
 31
        0.000000
  0
LINE
  8
LVL0000
 62
  3
 10
      122.499939
 20
       84.999991
 30
        0.000000
 11
      122.499939
 21
      119.999991
 31
        0.000000
  0
LINE
  8
LVL0000
 62
  3
 10
      120.499939
 20
       87.999991
 30
        0.000000
 11
      118.499939
 21
       87.999991
 31
        0.000000
  0
LINE
  8
LVL0000
 62
  3
 10
      120.499939
 20
      116.999991
 30
        0.000000
 11
      118.499939
 21
      116.999991
 31
        0.000000
  0
LINE
  8
LVL0000
 62
  3
 10
      120.499939
 20
       84.999991
 30
        0.000000
 11
      120.499939
 21
      119.999991
 31
        0.000000
  0
LINE
  8
LVL0000
 62
  3
 10
      118.499939
 20
       84.999991
 30
        0.000000
 11
      118.499939
 21
      119.999991
 31
        0.000000
  0
LINE
  8
LVL0000
 62
  3
 10
      116.499939
 20
       87.999991
 30
        0.000000
 11
      114.499939
 21
       87.999991
 31
        0.000000
  0
LINE
  8
LVL0000
 62
  3
 10
      116.499939
 20
      116.999991
 30
        0.000000
 11
      114.499939
 21
      116.999991
 31
        0.000000
  0
LINE
  8
LVL0000
 62
  3
 10
      116.499939
 20
       84.999991
 30
        0.000000
 11
      116.499939
 21
      119.999991
 31
        0.000000
  0
LINE
  8
LVL0000
 62
  3
 10
      114.499939
 20
       84.999991
 30
        0.000000
 11
      114.499939
 21
      119.999991
 31
        0.000000
  0
LINE
  8
LVL0000
 62
  3
 10
      112.499939
 20
       87.999991
 30
        0.000000
 11
      110.499939
 21
       87.999991
 31
        0.000000
  0
LINE
  8
LVL0000
 62
  3
 10
      112.499939
 20
      116.999991
 30
        0.000000
 11
      110.499939
 21
      116.999991
 31
        0.000000
  0
LINE
  8
LVL0000
 62
  3
 10
      112.499939
 20
       84.999991
 30
        0.000000
 11
      112.499939
 21
      119.999991
 31
        0.000000
  0
LINE
  8
LVL0000
 62
  3
 10
      110.499939
 20
       84.999991
 30
        0.000000
 11
      110.499939
 21
      119.999991
 31
        0.000000
  0
LINE
  8
LVL0000
 62
  3
 10
      157.799927
 20
      104.499991
 30
        0.000000
 11
      157.799927
 21
      100.499991
 31
        0.000000
  0
LINE
  8
LVL0000
 62
  3
 10
      160.499939
 20
       98.999991
 30
        0.000000
 11
      159.299927
 21
       98.999991
 31
        0.000000
  0
ARC
  8
LVL0000
 62
  3
 10
      159.299927
 20
      100.499991
 30
        0.000000
 40
        1.500000
 50
      180.000010
 51
      270.000000
  0
ARC
  8
LVL0000
 62
  3
 10
      159.299927
 20
      104.499991
 30
        0.000000
 40
        1.500000
 50
       90.000000
 51
      180.000010
  0
LINE
  8
LVL0000
 62
  3
 10
      160.499939
 20
      105.999991
 30
        0.000000
 11
      159.299927
 21
      105.999991
 31
        0.000000
  0
LINE
  8
LVL0000
 62
  3
 10
      160.499939
 20
      119.999991
 30
        0.000000
 11
      160.499939
 21
       84.999991
 31
        0.000000
  0
LINE
  8
LVL0000
 62
  3
 10
      108.499939
 20
       87.999991
 30
        0.000000
 11
      106.499939
 21
       87.999991
 31
        0.000000
  0
LINE
  8
LVL0000
 62
  3
 10
      108.499939
 20
      116.999991
 30
        0.000000
 11
      106.499939
 21
      116.999991
 31
        0.000000
  0
LINE
  8
LVL0000
 62
  3
 10
      108.499939
 20
       84.999991
 30
        0.000000
 11
      108.499939
 21
      119.999991
 31
        0.000000
  0
LINE
  8
LVL0000
 62
  3
 10
      106.499939
 20
       84.999991
 30
        0.000000
 11
      106.499939
 21
      119.999991
 31
        0.000000
  0
LINE
  8
LVL0000
 62
  3
 10
       99.499939
 20
       84.999991
 30
        0.000000
 11
       99.499939
 21
      119.999991
 31
        0.000000
  0
LINE
  8
LVL0000
 62
  3
 10
      169.899963
 20
      119.999991
 30
        0.000000
 11
      169.899963
 21
       84.999991
 31
        0.000000
  0
LINE
  8
LVL0000
 62
  3
 10
      169.899963
 20
      119.999991
 30
        0.000000
 11
       67.999939
 21
      120.000006
 31
        0.000000
  0
ARC
  8
LVL0000
 62
  3
 10
       67.999939
 20
      119.499991
 30
        0.000000
 40
        0.500015
 50
       90.000000
 51
      179.999995
  0
LINE
  8
LVL0000
 62
  3
 10
       67.499939
 20
       85.499991
 30
        0.000000
 11
       67.499939
 21
      119.499991
 31
        0.000000
  0
ARC
  8
LVL0000
 62
  3
 10
       68.000000
 20
       64.500008
 30
        0.000000
 40
        0.500000
 50
       90.000000
 51
      179.999995
  0
LINE
  8
LVL0000
 62
  3
 10
       67.500000
 20
       40.500008
 30
        0.000000
 11
       67.500000
 21
       64.500008
 31
        0.000000
  0
LINE
  8
LVL0000
 62
  3
 10
       68.000000
 20
       65.000008
 30
        0.000000
 11
      169.899963
 21
       65.000008
 31
        0.000000
  0
LINE
  8
LVL0000
 62
  3
 10
       68.799988
 20
        1.000298
 30
        0.000000
 11
       68.799988
 21
      -61.000000
 31
        0.000000
  0
LINE
  8
LVL0000
 62
  3
 10
       67.500000
 20
       38.000008
 30
        0.000000
 11
       67.500000
 21
        1.000298
 31
        0.000000
  0
LINE
  8
LVL0000
  6
CENTER
 62
  3
 10
        0.000000
 20
       71.571790
 30
        0.000000
 11
        0.000000
 21
      -76.463087
 31
        0.000000
  0
LINE
  8
LVL0000
 62
  3
 10
       17.500000
 20
       40.500008
 30
        0.000000
 11
      -17.500000
 21
       40.500008
 31
        0.000000
  0
LINE
  8
LVL0000
 62
  3
 10
       12.500000
 20
       -0.549995
 30
        0.000000
 11
      -16.000000
 21
       -0.549995
 31
        0.000000
  0
LINE
  8
LVL0000
 62
  3
 10
       12.500000
 20
        0.999992
 30
        0.000000
 11
       12.500000
 21
      -61.000000
 31
        0.000000
  0
LINE
  8
LVL0000
 62
  3
 10
       15.500000
 20
      -63.000008
 30
        0.000000
 11
       -4.000000
 21
      -63.000008
 31
        0.000000
  0
LINE
  8
LVL0000
 62
  3
 10
       15.500000
 20
      -61.549995
 30
        0.000000
 11
      -16.000000
 21
      -61.549995
 31
        0.000000
  0
LINE
  8
LVL0000
 62
  3
 10
       12.500000
 20
      -61.000000
 30
        0.000000
 11
       17.500000
 21
      -61.000000
 31
        0.000000
  0
LINE
  8
LVL0000
 62
  3
 10
       15.500000
 20
      -61.000000
 30
        0.000000
 11
       15.500000
 21
      -63.000008
 31
        0.000000
  0
CIRCLE
  8
LVL0000
 62
  3
 10
       -7.399658
 20
       22.499657
 30
        0.000000
 40
        5.000000
  0
LINE
  8
LVL0000
 62
  3
 10
      -17.500000
 20
        3.999992
 30
        0.000000
 11
       17.500000
 21
        3.999992
 31
        0.000000
  0
LINE
  8
LVL0000
 62
  3
 10
       -3.000000
 20
       28.500008
 30
        0.000000
 11
        3.000000
 21
       28.500008
 31
        0.000000
  0
LINE
  8
LVL0000
 62
  3
 10
        3.000000
 20
       30.000008
 30
        0.000000
 11
        3.000000
 21
       28.500008
 31
        0.000000
  0
LINE
  8
LVL0000
 62
  3
 10
       -3.000000
 20
       30.000008
 30
        0.000000
 11
       -3.000000
 21
       28.500008
 31
        0.000000
  0
LINE
  8
LVL0000
 62
  3
 10
      -17.500000
 20
       39.000008
 30
        0.000000
 11
       17.500000
 21
       39.000008
 31
        0.000000
  0
LINE
  8
LVL0000
 62
  3
 10
       17.500000
 20
       57.000008
 30
        0.000000
 11
      -17.500000
 21
       57.000008
 31
        0.000000
  0
LINE
  8
LVL0000
 62
  3
 10
      -17.500000
 20
       38.000008
 30
        0.000000
 11
       17.500000
 21
       38.000008
 31
        0.000000
  0
LINE
  8
LVL0000
 62
  3
 10
      -17.500000
 20
       30.000008
 30
        0.000000
 11
       17.500000
 21
       30.000008
 31
        0.000000
  0
LINE
  8
LVL0000
 62
  3
 10
       17.500000
 20
        0.999992
 30
        0.000000
 11
      -17.500000
 21
        0.999992
 31
        0.000000
  0
LINE
  8
LVL0000
 62
  3
 10
       17.000000
 20
      -65.000008
 30
        0.000000
 11
      -17.000000
 21
      -65.000008
 31
        0.000000
  0
LINE
  8
LVL0000
 62
  3
 10
       17.000000
 20
       65.000008
 30
        0.000000
 11
      -17.000000
 21
       65.000008
 31
        0.000000
  0
CIRCLE
  8
LVL0000
 62
  3
 10
      -12.500000
 20
       34.000008
 30
        0.000000
 40
        2.250000
  0
LINE
  8
LVL0000
 62
  3
 10
      -17.500000
 20
       64.500008
 30
        0.000000
 11
      -17.500000
 21
      -64.500008
 31
        0.000000
  0
LINE
  8
LVL0000
 62
  3
 10
       17.500000
 20
       64.500008
 30
        0.000000
 11
       17.500000
 21
      -64.500008
 31
        0.000000
  0
ARC
  8
LVL0000
 62
  3
 10
      -17.000000
 20
       64.500008
 30
        0.000000
 40
        0.500000
 50
       90.000000
 51
      180.000010
  0
ARC
  8
LVL0000
 62
  3
 10
       17.000000
 20
       64.500008
 30
        0.000000
 40
        0.500000
 50
        0.000000
 51
       90.000000
  0
ARC
  8
LVL0000
 62
  3
 10
       17.000000
 20
      -64.500008
 30
        0.000000
 40
        0.500000
 50
      270.000000
 51
      360.000000
  0
ARC
  8
LVL0000
 62
  3
 10
      -17.000000
 20
      -64.500008
 30
        0.000000
 40
        0.500000
 50
      180.000010
 51
      270.000000
  0
LINE
  8
LVL0000
 62
  3
 10
       16.099976
 20
       63.500008
 30
        0.000000
 11
       16.099976
 21
       58.000008
 31
        0.000000
  0
LINE
  8
LVL0000
 62
  3
 10
      -16.099976
 20
       63.500008
 30
        0.000000
 11
      -16.099976
 21
       58.000008
 31
        0.000000
  0
LINE
  8
LVL0000
 62
  3
 10
      -16.099976
 20
       58.000008
 30
        0.000000
 11
       16.099976
 21
       58.000008
 31
        0.000000
  0
LINE
  8
LVL0000
 62
  3
 10
      -16.099976
 20
       63.500008
 30
        0.000000
 11
       16.099976
 21
       63.500008
 31
        0.000000
  0
LINE
  8
LVL0000
 62
  3
 10
      -16.000000
 20
       -0.549995
 30
        0.000000
 11
      -16.000000
 21
      -61.549995
 31
        0.000000
  0
ARC
  8
LVL0000
 62
  3
 10
       -5.323529
 20
       14.704196
 30
        0.000000
 40
        0.500000
 50
        0.000000
 51
       90.000000
  0
LINE
  8
LVL0000
 62
  3
 10
       -5.323529
 20
       15.204196
 30
        0.000000
 11
      -10.323529
 21
       15.204196
 31
        0.000000
  0
LINE
  8
LVL0000
 62
  3
 10
       -4.823529
 20
       14.704196
 30
        0.000000
 11
       -4.823529
 21
        8.704196
 31
        0.000000
  0
ARC
  8
LVL0000
 62
  3
 10
      -10.323529
 20
       14.704196
 30
        0.000000
 40
        0.500000
 50
       90.000000
 51
      179.999995
  0
LINE
  8
LVL0000
 62
  3
 10
      -10.823529
 20
       14.704196
 30
        0.000000
 11
      -10.823529
 21
        8.704196
 31
        0.000000
  0
ARC
  8
LVL0000
 62
  3
 10
      -10.323529
 20
        8.704196
 30
        0.000000
 40
        0.500000
 50
      179.999995
 51
      270.000000
  0
LINE
  8
LVL0000
 62
  3
 10
       -5.323529
 20
        8.204196
 30
        0.000000
 11
      -10.323529
 21
        8.204196
 31
        0.000000
  0
ARC
  8
LVL0000
 62
  3
 10
       -5.323529
 20
        8.704196
 30
        0.000000
 40
        0.500000
 50
      270.000000
 51
      360.000000
  0
LINE
  8
LVL0000
 62
  3
 10
       -4.000000
 20
      -63.000008
 30
        0.000000
 11
       -4.000000
 21
      -65.000008
 31
        0.000000
  0
LINE
  8
LVL0000
 62
  3
 10
       -2.300000
 20
      -48.450000
 30
        0.000000
 11
       -2.300000
 21
      -61.150000
 31
        0.000000
  0
LINE
  8
LVL0000
 62
  3
 10
        0.200000
 20
      -50.750000
 30
        0.000000
 11
        0.200000
 21
      -58.850000
 31
        0.000000
  0
LINE
  8
LVL0000
 62
  3
 10
        2.150000
 20
      -50.750000
 30
        0.000000
 11
        2.150000
 21
      -58.850000
 31
        0.000000
  0
LINE
  8
LVL0000
 62
  3
 10
       10.250000
 20
      -50.750000
 30
        0.000000
 11
       10.250000
 21
      -58.850000
 31
        0.000000
  0
LINE
  8
LVL0000
 62
  3
 10
        8.250000
 20
      -54.800000
 30
        0.000000
 11
        4.150000
 21
      -54.800000
 31
        0.000000
  0
LINE
  8
LVL0000
 62
  3
 10
        6.200000
 20
      -52.750001
 30
        0.000000
 11
        6.200000
 21
      -56.849999
 31
        0.000000
  0
CIRCLE
  8
LVL0000
 62
  3
 10
        6.200000
 20
      -54.800000
 30
        0.000000
 40
        3.500000
  0
LINE
  8
LVL0000
 62
  3
 10
       -2.300000
 20
      -61.150000
 30
        0.000000
 11
       14.700000
 21
      -61.150000
 31
        0.000000
  0
LINE
  8
LVL0000
 62
  3
 10
       12.200000
 20
      -50.750000
 30
        0.000000
 11
       12.200000
 21
      -58.850000
 31
        0.000000
  0
LINE
  8
LVL0000
 62
  3
 10
       -2.300000
 20
      -60.250000
 30
        0.000000
 11
       12.500000
 21
      -60.250000
 31
        0.000000
  0
LINE
  8
LVL0000
 62
  3
 10
       -2.300000
 20
      -49.350000
 30
        0.000000
 11
       12.500000
 21
      -49.350000
 31
        0.000000
  0
LINE
  8
LVL0000
 62
  3
 10
       -2.300000
 20
      -58.850000
 30
        0.000000
 11
       12.500000
 21
      -58.850000
 31
        0.000000
  0
LINE
  8
LVL0000
 62
  3
 10
       -2.300000
 20
      -50.750000
 30
        0.000000
 11
       12.500000
 21
      -50.750000
 31
        0.000000
  0
LINE
  8
LVL0000
 62
  3
 10
       -2.300000
 20
      -48.450000
 30
        0.000000
 11
       12.500000
 21
      -48.450000
 31
        0.000000
  0
LINE
  8
LVL0000
 62
  3
 10
       -2.800000
 20
      -47.950000
 30
        0.000000
 11
       12.500000
 21
      -47.950000
 31
        0.000000
  0
LINE
  8
LVL0000
 62
  3
 10
       -2.800000
 20
      -47.950000
 30
        0.000000
 11
       -2.800000
 21
      -61.549995
 31
        0.000000
  0
LINE
  8
LVL0000
 62
  3
 10
       -0.500000
 20
       54.600000
 30
        0.000000
 11
        0.700000
 21
       54.600000
 31
        0.000000
  0
LINE
  8
LVL0000
 62
  3
 10
        2.200000
 20
       54.600000
 30
        0.000000
 11
        3.400000
 21
       54.600000
 31
        0.000000
  0
LINE
  8
LVL0000
 62
  3
 10
        4.900000
 20
       54.600000
 30
        0.000000
 11
        6.100000
 21
       54.600000
 31
        0.000000
  0
LINE
  8
LVL0000
 62
  3
 10
       -0.500000
 20
       54.600000
 30
        0.000000
 11
       -0.500000
 21
       52.600000
 31
        0.000000
  0
LINE
  8
LVL0000
 62
  3
 10
        2.200000
 20
       54.600000
 30
        0.000000
 11
        2.200000
 21
       52.600000
 31
        0.000000
  0
LINE
  8
LVL0000
 62
  3
 10
        4.900000
 20
       54.600000
 30
        0.000000
 11
        4.900000
 21
       52.600000
 31
        0.000000
  0
LINE
  8
LVL0000
 62
  3
 10
       -0.500000
 20
       52.600000
 30
        0.000000
 11
        0.700000
 21
       52.600000
 31
        0.000000
  0
LINE
  8
LVL0000
 62
  3
 10
        2.200000
 20
       52.600000
 30
        0.000000
 11
        3.400000
 21
       52.600000
 31
        0.000000
  0
LINE
  8
LVL0000
 62
  3
 10
        4.900000
 20
       52.600000
 30
        0.000000
 11
        6.100000
 21
       52.600000
 31
        0.000000
  0
LINE
  8
LVL0000
 62
  3
 10
        0.700000
 20
       54.600000
 30
        0.000000
 11
        0.700000
 21
       52.600000
 31
        0.000000
  0
LINE
  8
LVL0000
 62
  3
 10
        3.400000
 20
       54.600000
 30
        0.000000
 11
        3.400000
 21
       52.600000
 31
        0.000000
  0
LINE
  8
LVL0000
 62
  3
 10
        6.100000
 20
       54.600000
 30
        0.000000
 11
        6.100000
 21
       52.600000
 31
        0.000000
  0
LINE
  8
LVL0000
 62
  3
 10
        4.900000
 20
       45.600000
 30
        0.000000
 11
        6.100000
 21
       45.600000
 31
        0.000000
  0
LINE
  8
LVL0000
 62
  3
 10
        2.200000
 20
       45.600000
 30
        0.000000
 11
        3.400000
 21
       45.600000
 31
        0.000000
  0
LINE
  8
LVL0000
 62
  3
 10
       -0.500000
 20
       45.600000
 30
        0.000000
 11
        0.700000
 21
       45.600000
 31
        0.000000
  0
LINE
  8
LVL0000
 62
  3
 10
        7.600000
 20
       45.600000
 30
        0.000000
 11
        8.800000
 21
       45.600000
 31
        0.000000
  0
LINE
  8
LVL0000
 62
  3
 10
       -3.200000
 20
       45.600000
 30
        0.000000
 11
       -2.000000
 21
       45.600000
 31
        0.000000
  0
LINE
  8
LVL0000
 62
  3
 10
       -5.900000
 20
       45.600000
 30
        0.000000
 11
       -4.700000
 21
       45.600000
 31
        0.000000
  0
LINE
  8
LVL0000
 62
  3
 10
       -8.600000
 20
       45.600000
 30
        0.000000
 11
       -7.400000
 21
       45.600000
 31
        0.000000
  0
LINE
  8
LVL0000
 62
  3
 10
      -11.300000
 20
       45.600000
 30
        0.000000
 11
      -10.100000
 21
       45.600000
 31
        0.000000
  0
LINE
  8
LVL0000
 62
  3
 10
        6.100000
 20
       47.600000
 30
        0.000000
 11
        6.100000
 21
       45.600000
 31
        0.000000
  0
LINE
  8
LVL0000
 62
  3
 10
        3.400000
 20
       47.600000
 30
        0.000000
 11
        3.400000
 21
       45.600000
 31
        0.000000
  0
LINE
  8
LVL0000
 62
  3
 10
        0.700000
 20
       47.600000
 30
        0.000000
 11
        0.700000
 21
       45.600000
 31
        0.000000
  0
LINE
  8
LVL0000
 62
  3
 10
        4.900000
 20
       47.600000
 30
        0.000000
 11
        4.900000
 21
       45.600000
 31
        0.000000
  0
LINE
  8
LVL0000
 62
  3
 10
        2.200000
 20
       47.600000
 30
        0.000000
 11
        2.200000
 21
       45.600000
 31
        0.000000
  0
LINE
  8
LVL0000
 62
  3
 10
       -0.500000
 20
       47.600000
 30
        0.000000
 11
       -0.500000
 21
       45.600000
 31
        0.000000
  0
LINE
  8
LVL0000
 62
  3
 10
        4.900000
 20
       47.600000
 30
        0.000000
 11
        6.100000
 21
       47.600000
 31
        0.000000
  0
LINE
  8
LVL0000
 62
  3
 10
        2.200000
 20
       47.600000
 30
        0.000000
 11
        3.400000
 21
       47.600000
 31
        0.000000
  0
LINE
  8
LVL0000
 62
  3
 10
       -0.500000
 20
       47.600000
 30
        0.000000
 11
        0.700000
 21
       47.600000
 31
        0.000000
  0
LINE
  8
LVL0000
 62
  3
 10
        7.600000
 20
       47.600000
 30
        0.000000
 11
        8.800000
 21
       47.600000
 31
        0.000000
  0
LINE
  8
LVL0000
 62
  3
 10
        8.800000
 20
       47.600000
 30
        0.000000
 11
        8.800000
 21
       45.600000
 31
        0.000000
  0
LINE
  8
LVL0000
 62
  3
 10
        7.600000
 20
       47.600000
 30
        0.000000
 11
        7.600000
 21
       45.600000
 31
        0.000000
  0
LINE
  8
LVL0000
 62
  3
 10
       -2.000000
 20
       47.600000
 30
        0.000000
 11
       -2.000000
 21
       45.600000
 31
        0.000000
  0
LINE
  8
LVL0000
 62
  3
 10
       -4.700000
 20
       47.600000
 30
        0.000000
 11
       -4.700000
 21
       45.600000
 31
        0.000000
  0
LINE
  8
LVL0000
 62
  3
 10
       -7.400000
 20
       47.600000
 30
        0.000000
 11
       -7.400000
 21
       45.600000
 31
        0.000000
  0
LINE
  8
LVL0000
 62
  3
 10
       -3.200000
 20
       47.600000
 30
        0.000000
 11
       -2.000000
 21
       47.600000
 31
        0.000000
  0
LINE
  8
LVL0000
 62
  3
 10
       -5.900000
 20
       47.600000
 30
        0.000000
 11
       -4.700000
 21
       47.600000
 31
        0.000000
  0
LINE
  8
LVL0000
 62
  3
 10
       -8.600000
 20
       47.600000
 30
        0.000000
 11
       -7.400000
 21
       47.600000
 31
        0.000000
  0
LINE
  8
LVL0000
 62
  3
 10
       -3.200000
 20
       47.600000
 30
        0.000000
 11
       -3.200000
 21
       45.600000
 31
        0.000000
  0
LINE
  8
LVL0000
 62
  3
 10
       -5.900000
 20
       47.600000
 30
        0.000000
 11
       -5.900000
 21
       45.600000
 31
        0.000000
  0
LINE
  8
LVL0000
 62
  3
 10
       -8.600000
 20
       47.600000
 30
        0.000000
 11
       -8.600000
 21
       45.600000
 31
        0.000000
  0
LINE
  8
LVL0000
 62
  3
 10
      -11.300000
 20
       47.600000
 30
        0.000000
 11
      -10.100000
 21
       47.600000
 31
        0.000000
  0
LINE
  8
LVL0000
 62
  3
 10
      -10.100000
 20
       47.600000
 30
        0.000000
 11
      -10.100000
 21
       45.600000
 31
        0.000000
  0
LINE
  8
LVL0000
 62
  3
 10
      -11.300000
 20
       47.600000
 30
        0.000000
 11
      -11.300000
 21
       45.600000
 31
        0.000000
  0
LINE
  8
LVL0000
 62
  3
 10
      -11.300000
 20
       54.600000
 30
        0.000000
 11
      -11.300000
 21
       52.600000
 31
        0.000000
  0
LINE
  8
LVL0000
 62
  3
 10
      -11.300000
 20
       52.600000
 30
        0.000000
 11
      -10.100000
 21
       52.600000
 31
        0.000000
  0
LINE
  8
LVL0000
 62
  3
 10
      -10.100000
 20
       54.600000
 30
        0.000000
 11
      -10.100000
 21
       52.600000
 31
        0.000000
  0
LINE
  8
LVL0000
 62
  3
 10
      -11.300000
 20
       54.600000
 30
        0.000000
 11
      -10.100000
 21
       54.600000
 31
        0.000000
  0
LINE
  8
LVL0000
 62
  3
 10
        7.600000
 20
       54.600000
 30
        0.000000
 11
        7.600000
 21
       52.600000
 31
        0.000000
  0
LINE
  8
LVL0000
 62
  3
 10
        7.600000
 20
       52.600000
 30
        0.000000
 11
        8.800000
 21
       52.600000
 31
        0.000000
  0
LINE
  8
LVL0000
 62
  3
 10
        8.800000
 20
       54.600000
 30
        0.000000
 11
        8.800000
 21
       52.600000
 31
        0.000000
  0
LINE
  8
LVL0000
 62
  3
 10
        7.600000
 20
       54.600000
 30
        0.000000
 11
        8.800000
 21
       54.600000
 31
        0.000000
  0
ENDSEC
  0
EOF
