  0
SECTION
  2
HEADER
  9
$ACADVER
  1
AC1006
  9
$INSBASE
 10
0.0
 20
0.0
 30
0.0
  9
$EXTMIN
 10
     -166.043610
 20
     -166.043610
  9
$EXTMAX
 10
      185.916275
 20
       45.000000
  9
$LIMMIN
 10
     -166.043610
 20
     -166.043610
  9
$LIMMAX
 10
      185.916275
 20
       45.000000
  9
$VIEWCTR
 10
        9.936333
 20
        9.936333
  9
$ORTHOMODE
 70
     0
  9
$ANGBASE
 50
0.0
  9
$ANGDIR
 70
     0
  9
$SPLINETYPE
 70
     6
  9
$SPLINESEGS
 70
     8
9
$DIMASZ
 40
        3.000000
9
$DIMEXE
 40
        0.600000
9
$DIMEXO
 40
        2.400000
9
$DIMTXT
 40
        3.000000
9
$DIMGAP
 40
        0.600000
9
$DIMTAD
 70
1
9
$DIMTIH
 70
0
9
$DIMTOH
 70
0
  0
ENDSEC
  0
SECTION
  2
TABLES
  0
TABLE
  2
LTYPE
 70
     5
  0
LTYPE
  2
CONTINUOUS
 70
    64
  3
SOLID LINE
 72
    65
 73
     0
 40
0.0
  0
LTYPE
  2
DASHED
 70
    64
  3
-- -- -- -- -- --
 72
    65
 73
     2
 40
  0.75  
 49
  0.50  
 49
 -0.25  
  0
LTYPE
  2
DOT
 70
    64
  3
....................
 72
    65
 73
     2
 40
  0.25  
 49
  0.02  
 49
 -0.23  
  0
LTYPE
  2
CENTER
 70
    64
  3
-- . -- . -- . -- .
 72
    65
 73
    4
 40
  2.00  
 49
  1.25  
 49
 -0.25  
 49
  0.25  
 49
 -0.25  
  0
LTYPE
  2
PHANTOM
 70
    64
  3
-- .. -- .. -- ..
 72
    65
 73
    6
 40
  2.50  
 49
  1.25  
 49
 -0.25  
 49
  0.25  
 49
 -0.25  
 49
  0.25  
 49
 -0.25  
  0
ENDTAB
  0
TABLE
  2
LAYER
 70
     1
  0
LAYER
  2
LVL0000
 70
    64
 62
     3
  6
DOT
  0
ENDTAB
  0
TABLE
  2
STYLE
 70
     1
  0
STYLE
  2
STANDARD
 70
    64
 40
0.0
 41
1.0
 50
0.0
 71
     0
 42
5.0
  3
ROMANS
  0
ENDTAB
  0
TABLE
  2
VIEW
 70
     0
  0
ENDTAB
  0
TABLE
  2
UCS
 70
     0
  0
ENDTAB
  0
TABLE
  2
DWGMGR
 70
     0
  0
ENDTAB
  0
ENDSEC
  0
SECTION
  2
BLOCKS
  0
BLOCK
  8
0
  2
BLK0001
 70
    64
 10
        0.000000
 20
        0.000000
  0
TEXT
  8
LVL0000
  6
CONTINUOUS
 62
  2
 10
      139.501007
 20
      -56.590576
 30
        0.000000
 40
        3.000000
  1
76
 50
        0.000000
 41
        0.835000
 51
        0.000000
  7
STANDARD
  0
LINE
  8
LVL0000
  6
CONTINUOUS
 62
  2
 10
      103.999992
 20
       -2.400089
 30
        0.000000
 11
      103.999992
 21
      -57.790577
 31
        0.000000
  0
LINE
  8
LVL0000
  6
CONTINUOUS
 62
  2
 10
      180.000000
 20
      -47.400017
 30
        0.000000
 11
      180.000000
 21
      -57.790577
 31
        0.000000
  0
LINE
  8
LVL0000
  6
CONTINUOUS
 62
  2
 10
      106.999992
 20
      -56.405178
 30
        0.000000
 11
      103.999992
 21
      -57.190578
 31
        0.000000
  0
LINE
  8
LVL0000
  6
CONTINUOUS
 62
  2
 10
      103.999992
 20
      -57.190578
 30
        0.000000
 11
      106.999992
 21
      -57.975979
 31
        0.000000
  0
LINE
  8
LVL0000
  6
CONTINUOUS
 62
  2
 10
      177.000000
 20
      -57.975979
 30
        0.000000
 11
      180.000000
 21
      -57.190578
 31
        0.000000
  0
LINE
  8
LVL0000
  6
CONTINUOUS
 62
  2
 10
      180.000000
 20
      -57.190578
 30
        0.000000
 11
      177.000000
 21
      -56.405178
 31
        0.000000
  0
LINE
  8
LVL0000
  6
CONTINUOUS
 62
  2
 10
      103.999992
 20
      -57.190578
 30
        0.000000
 11
      180.000000
 21
      -57.190578
 31
        0.000000
  0
ENDBLK
  0
BLOCK
  8
0
  2
BLK0002
 70
    64
 10
        0.000000
 20
        0.000000
  0
TEXT
  8
LVL0000
  6
CONTINUOUS
 62
  2
 10
       -3.953922
 20
      -60.966782
 30
        0.000000
 40
        3.000000
  1
110
 50
        0.000000
 41
        0.835000
 51
        0.000000
  7
STANDARD
  0
LINE
  8
LVL0000
  6
CONTINUOUS
 62
  2
 10
       55.000000
 20
      -40.400009
 30
        0.000000
 11
       55.000000
 21
      -62.166782
 31
        0.000000
  0
LINE
  8
LVL0000
  6
CONTINUOUS
 62
  2
 10
      -55.000000
 20
      -40.400009
 30
        0.000000
 11
      -55.000000
 21
      -62.166782
 31
        0.000000
  0
LINE
  8
LVL0000
  6
CONTINUOUS
 62
  2
 10
       52.000000
 20
      -62.352184
 30
        0.000000
 11
       55.000000
 21
      -61.566784
 31
        0.000000
  0
LINE
  8
LVL0000
  6
CONTINUOUS
 62
  2
 10
       55.000000
 20
      -61.566784
 30
        0.000000
 11
       52.000000
 21
      -60.781384
 31
        0.000000
  0
LINE
  8
LVL0000
  6
CONTINUOUS
 62
  2
 10
      -52.000000
 20
      -60.781384
 30
        0.000000
 11
      -55.000000
 21
      -61.566784
 31
        0.000000
  0
LINE
  8
LVL0000
  6
CONTINUOUS
 62
  2
 10
      -55.000000
 20
      -61.566784
 30
        0.000000
 11
      -52.000000
 21
      -62.352184
 31
        0.000000
  0
LINE
  8
LVL0000
  6
CONTINUOUS
 62
  2
 10
       55.000000
 20
      -61.566784
 30
        0.000000
 11
      -55.000000
 21
      -61.566784
 31
        0.000000
  0
ENDBLK
  0
BLOCK
  8
0
  2
BLK0003
 70
    64
 10
        0.000000
 20
        0.000000
  0
TEXT
  8
LVL0000
  6
CONTINUOUS
 62
  2
 10
       70.727364
 20
       -2.025331
 30
        0.000000
 40
        3.000000
  1
90
 50
       90.000000
 41
        0.835000
 51
        0.000000
  7
STANDARD
  0
LINE
  8
LVL0000
  6
CONTINUOUS
 62
  2
 10
       50.400002
 20
       44.999992
 30
        0.000000
 11
       71.927361
 21
       44.999992
 31
        0.000000
  0
LINE
  8
LVL0000
  6
CONTINUOUS
 62
  2
 10
       50.400002
 20
      -45.000008
 30
        0.000000
 11
       71.927361
 21
      -45.000008
 31
        0.000000
  0
LINE
  8
LVL0000
  6
CONTINUOUS
 62
  2
 10
       72.112762
 20
       41.999992
 30
        0.000000
 11
       71.327362
 21
       44.999992
 31
        0.000000
  0
LINE
  8
LVL0000
  6
CONTINUOUS
 62
  2
 10
       71.327362
 20
       44.999992
 30
        0.000000
 11
       70.541962
 21
       41.999992
 31
        0.000000
  0
LINE
  8
LVL0000
  6
CONTINUOUS
 62
  2
 10
       70.541962
 20
      -42.000008
 30
        0.000000
 11
       71.327362
 21
      -45.000008
 31
        0.000000
  0
LINE
  8
LVL0000
  6
CONTINUOUS
 62
  2
 10
       71.327362
 20
      -45.000008
 30
        0.000000
 11
       72.112762
 21
      -42.000008
 31
        0.000000
  0
LINE
  8
LVL0000
  6
CONTINUOUS
 62
  2
 10
       71.327362
 20
       44.999992
 30
        0.000000
 11
       71.327362
 21
      -45.000008
 31
        0.000000
  0
ENDBLK
  0
ENDSEC
  0
SECTION
  2
ENTITIES
  0
LINE
  8
LVL0000
 10
      -39.244934
 20
       26.500032
 30
        0.000000
 11
       39.245117
 21
       26.500032
 31
        0.000000
  0
LINE
  8
LVL0000
 10
      -40.899902
 20
       45.000008
 30
        0.000000
 11
      -40.899902
 21
       25.500032
 31
        0.000000
  0
LINE
  8
LVL0000
 10
       40.900146
 20
       45.000008
 30
        0.000000
 11
       40.900146
 21
       25.500032
 31
        0.000000
  0
LINE
  8
LVL0000
 10
       39.245117
 20
       45.000008
 30
        0.000000
 11
       39.245117
 21
       26.500032
 31
        0.000000
  0
LINE
  8
LVL0000
 10
       39.245117
 20
       35.800081
 30
        0.000000
 11
      -39.244934
 21
       35.800081
 31
        0.000000
  0
LINE
  8
LVL0000
 10
       33.145142
 20
       35.800081
 30
        0.000000
 11
       33.145142
 21
       26.500032
 31
        0.000000
  0
ARC
  8
LVL0000
 10
       33.845093
 20
       28.300020
 30
        0.000000
 40
        0.500000
 50
      180.000010
 51
      270.000000
  0
ARC
  8
LVL0000
 10
       38.545044
 20
       28.300020
 30
        0.000000
 40
        0.500000
 50
      270.000000
 51
      360.000000
  0
ARC
  8
LVL0000
 10
       33.845093
 20
       32.300020
 30
        0.000000
 40
        0.500000
 50
       90.000000
 51
      180.000010
  0
ARC
  8
LVL0000
 10
       38.545044
 20
       32.300020
 30
        0.000000
 40
        0.500000
 50
        0.000000
 51
       90.000000
  0
LINE
  8
LVL0000
 10
       38.545044
 20
       32.800020
 30
        0.000000
 11
       33.845093
 21
       32.800020
 31
        0.000000
  0
LINE
  8
LVL0000
 10
       39.245117
 20
       33.800020
 30
        0.000000
 11
       33.145142
 21
       33.800020
 31
        0.000000
  0
LINE
  8
LVL0000
 10
       39.045044
 20
       32.300020
 30
        0.000000
 11
       39.045044
 21
       28.300020
 31
        0.000000
  0
LINE
  8
LVL0000
 10
       33.345093
 20
       32.300020
 30
        0.000000
 11
       33.345093
 21
       28.300020
 31
        0.000000
  0
CIRCLE
  8
LVL0000
 10
       36.195068
 20
       30.300020
 30
        0.000000
 40
        2.000000
  0
LINE
  8
LVL0000
 10
       38.545044
 20
       27.800020
 30
        0.000000
 11
       33.845093
 21
       27.800020
 31
        0.000000
  0
LINE
  8
LVL0000
 10
       36.902161
 20
       31.007112
 30
        0.000000
 11
       35.487915
 21
       29.592928
 31
        0.000000
  0
LINE
  8
LVL0000
 10
       34.780884
 20
       31.714204
 30
        0.000000
 11
       37.609314
 21
       28.885774
 31
        0.000000
  0
LINE
  8
LVL0000
 10
       30.970825
 20
       41.014192
 30
        0.000000
 11
       33.799316
 21
       38.185762
 31
        0.000000
  0
LINE
  8
LVL0000
 10
       33.092163
 20
       40.307161
 30
        0.000000
 11
       31.677979
 21
       38.892915
 31
        0.000000
  0
LINE
  8
LVL0000
 10
       34.735107
 20
       37.100008
 30
        0.000000
 11
       30.035095
 21
       37.100008
 31
        0.000000
  0
LINE
  8
LVL0000
 10
       34.735107
 20
       42.100008
 30
        0.000000
 11
       30.035095
 21
       42.100008
 31
        0.000000
  0
LINE
  8
LVL0000
 10
       35.435059
 20
       43.100008
 30
        0.000000
 11
       29.335083
 21
       43.100008
 31
        0.000000
  0
LINE
  8
LVL0000
 10
       35.235107
 20
       41.600008
 30
        0.000000
 11
       35.235107
 21
       37.600008
 31
        0.000000
  0
CIRCLE
  8
LVL0000
 10
       32.385132
 20
       39.600008
 30
        0.000000
 40
        2.000000
  0
ARC
  8
LVL0000
 10
       34.735107
 20
       41.600008
 30
        0.000000
 40
        0.500000
 50
        0.000000
 51
       90.000000
  0
ARC
  8
LVL0000
 10
       34.735107
 20
       37.600008
 30
        0.000000
 40
        0.500000
 50
      270.000000
 51
      360.000000
  0
LINE
  8
LVL0000
 10
       29.535095
 20
       41.600008
 30
        0.000000
 11
       29.535095
 21
       37.600008
 31
        0.000000
  0
ARC
  8
LVL0000
 10
       30.035095
 20
       41.600008
 30
        0.000000
 40
        0.500000
 50
       90.000000
 51
      180.000010
  0
ARC
  8
LVL0000
 10
       30.035095
 20
       37.600008
 30
        0.000000
 40
        0.500000
 50
      180.000010
 51
      270.000000
  0
LINE
  8
LVL0000
 10
       25.525146
 20
       35.800081
 30
        0.000000
 11
       25.525146
 21
       26.500032
 31
        0.000000
  0
ARC
  8
LVL0000
 10
       26.225098
 20
       28.300020
 30
        0.000000
 40
        0.500000
 50
      180.000010
 51
      270.000000
  0
ARC
  8
LVL0000
 10
       30.925049
 20
       28.300020
 30
        0.000000
 40
        0.500000
 50
      270.000000
 51
      360.000000
  0
ARC
  8
LVL0000
 10
       26.225098
 20
       32.300020
 30
        0.000000
 40
        0.500000
 50
       90.000000
 51
      180.000010
  0
ARC
  8
LVL0000
 10
       30.925049
 20
       32.300020
 30
        0.000000
 40
        0.500000
 50
        0.000000
 51
       90.000000
  0
LINE
  8
LVL0000
 10
       30.925049
 20
       32.800020
 30
        0.000000
 11
       26.225098
 21
       32.800020
 31
        0.000000
  0
LINE
  8
LVL0000
 10
       31.625122
 20
       33.800020
 30
        0.000000
 11
       25.525146
 21
       33.800020
 31
        0.000000
  0
LINE
  8
LVL0000
 10
       31.425049
 20
       32.300020
 30
        0.000000
 11
       31.425049
 21
       28.300020
 31
        0.000000
  0
LINE
  8
LVL0000
 10
       25.725098
 20
       32.300020
 30
        0.000000
 11
       25.725098
 21
       28.300020
 31
        0.000000
  0
CIRCLE
  8
LVL0000
 10
       28.575073
 20
       30.300020
 30
        0.000000
 40
        2.000000
  0
LINE
  8
LVL0000
 10
       30.925049
 20
       27.800020
 30
        0.000000
 11
       26.225098
 21
       27.800020
 31
        0.000000
  0
LINE
  8
LVL0000
 10
       29.282166
 20
       31.007112
 30
        0.000000
 11
       27.867920
 21
       29.592928
 31
        0.000000
  0
LINE
  8
LVL0000
 10
       27.160889
 20
       31.714204
 30
        0.000000
 11
       29.989319
 21
       28.885774
 31
        0.000000
  0
LINE
  8
LVL0000
 10
       23.350830
 20
       41.014192
 30
        0.000000
 11
       26.179321
 21
       38.185762
 31
        0.000000
  0
LINE
  8
LVL0000
 10
       25.472168
 20
       40.307161
 30
        0.000000
 11
       24.057983
 21
       38.892915
 31
        0.000000
  0
LINE
  8
LVL0000
 10
       27.115112
 20
       37.100008
 30
        0.000000
 11
       22.415100
 21
       37.100008
 31
        0.000000
  0
LINE
  8
LVL0000
 10
       27.115112
 20
       42.100008
 30
        0.000000
 11
       22.415100
 21
       42.100008
 31
        0.000000
  0
LINE
  8
LVL0000
 10
       27.815063
 20
       43.100008
 30
        0.000000
 11
       21.715088
 21
       43.100008
 31
        0.000000
  0
LINE
  8
LVL0000
 10
       27.615112
 20
       41.600008
 30
        0.000000
 11
       27.615112
 21
       37.600008
 31
        0.000000
  0
CIRCLE
  8
LVL0000
 10
       24.765137
 20
       39.600008
 30
        0.000000
 40
        2.000000
  0
ARC
  8
LVL0000
 10
       27.115112
 20
       41.600008
 30
        0.000000
 40
        0.500000
 50
        0.000000
 51
       90.000000
  0
ARC
  8
LVL0000
 10
       27.115112
 20
       37.600008
 30
        0.000000
 40
        0.500000
 50
      270.000000
 51
      360.000000
  0
LINE
  8
LVL0000
 10
       21.915100
 20
       41.600008
 30
        0.000000
 11
       21.915100
 21
       37.600008
 31
        0.000000
  0
ARC
  8
LVL0000
 10
       22.415100
 20
       41.600008
 30
        0.000000
 40
        0.500000
 50
       90.000000
 51
      180.000010
  0
ARC
  8
LVL0000
 10
       22.415100
 20
       37.600008
 30
        0.000000
 40
        0.500000
 50
      180.000010
 51
      270.000000
  0
LINE
  8
LVL0000
 10
       17.905151
 20
       35.800081
 30
        0.000000
 11
       17.905151
 21
       26.500032
 31
        0.000000
  0
ARC
  8
LVL0000
 10
       18.605103
 20
       28.300020
 30
        0.000000
 40
        0.500000
 50
      180.000010
 51
      270.000000
  0
ARC
  8
LVL0000
 10
       23.305054
 20
       28.300020
 30
        0.000000
 40
        0.500000
 50
      270.000000
 51
      360.000000
  0
ARC
  8
LVL0000
 10
       18.605103
 20
       32.300020
 30
        0.000000
 40
        0.500000
 50
       90.000000
 51
      180.000010
  0
ARC
  8
LVL0000
 10
       23.305054
 20
       32.300020
 30
        0.000000
 40
        0.500000
 50
        0.000000
 51
       90.000000
  0
LINE
  8
LVL0000
 10
       23.305054
 20
       32.800020
 30
        0.000000
 11
       18.605103
 21
       32.800020
 31
        0.000000
  0
LINE
  8
LVL0000
 10
       24.005127
 20
       33.800020
 30
        0.000000
 11
       17.905151
 21
       33.800020
 31
        0.000000
  0
LINE
  8
LVL0000
 10
       23.805054
 20
       32.300020
 30
        0.000000
 11
       23.805054
 21
       28.300020
 31
        0.000000
  0
LINE
  8
LVL0000
 10
       18.105103
 20
       32.300020
 30
        0.000000
 11
       18.105103
 21
       28.300020
 31
        0.000000
  0
CIRCLE
  8
LVL0000
 10
       20.955078
 20
       30.300020
 30
        0.000000
 40
        2.000000
  0
LINE
  8
LVL0000
 10
       23.305054
 20
       27.800020
 30
        0.000000
 11
       18.605103
 21
       27.800020
 31
        0.000000
  0
LINE
  8
LVL0000
 10
       21.662109
 20
       31.007112
 30
        0.000000
 11
       20.247925
 21
       29.592928
 31
        0.000000
  0
LINE
  8
LVL0000
 10
       19.540894
 20
       31.714204
 30
        0.000000
 11
       22.369263
 21
       28.885774
 31
        0.000000
  0
LINE
  8
LVL0000
 10
       15.730835
 20
       41.014192
 30
        0.000000
 11
       18.559326
 21
       38.185762
 31
        0.000000
  0
LINE
  8
LVL0000
 10
       17.852173
 20
       40.307161
 30
        0.000000
 11
       16.437988
 21
       38.892915
 31
        0.000000
  0
LINE
  8
LVL0000
 10
       19.495117
 20
       37.100008
 30
        0.000000
 11
       14.795044
 21
       37.100008
 31
        0.000000
  0
LINE
  8
LVL0000
 10
       19.495117
 20
       42.100008
 30
        0.000000
 11
       14.795044
 21
       42.100008
 31
        0.000000
  0
LINE
  8
LVL0000
 10
       20.195068
 20
       43.100008
 30
        0.000000
 11
       14.095093
 21
       43.100008
 31
        0.000000
  0
LINE
  8
LVL0000
 10
       19.995117
 20
       41.600008
 30
        0.000000
 11
       19.995117
 21
       37.600008
 31
        0.000000
  0
CIRCLE
  8
LVL0000
 10
       17.145142
 20
       39.600008
 30
        0.000000
 40
        2.000000
  0
ARC
  8
LVL0000
 10
       19.495117
 20
       41.600008
 30
        0.000000
 40
        0.500000
 50
        0.000000
 51
       90.000000
  0
ARC
  8
LVL0000
 10
       19.495117
 20
       37.600008
 30
        0.000000
 40
        0.500000
 50
      270.000000
 51
      360.000000
  0
LINE
  8
LVL0000
 10
       14.295044
 20
       41.600008
 30
        0.000000
 11
       14.295044
 21
       37.600008
 31
        0.000000
  0
ARC
  8
LVL0000
 10
       14.795044
 20
       41.600008
 30
        0.000000
 40
        0.500000
 50
       90.000000
 51
      180.000010
  0
ARC
  8
LVL0000
 10
       14.795044
 20
       37.600008
 30
        0.000000
 40
        0.500000
 50
      180.000010
 51
      270.000000
  0
LINE
  8
LVL0000
 10
       10.285095
 20
       35.800081
 30
        0.000000
 11
       10.285095
 21
       26.500032
 31
        0.000000
  0
ARC
  8
LVL0000
 10
       10.985107
 20
       28.300020
 30
        0.000000
 40
        0.500000
 50
      180.000010
 51
      270.000000
  0
ARC
  8
LVL0000
 10
       15.685059
 20
       28.300020
 30
        0.000000
 40
        0.500000
 50
      270.000000
 51
      360.000000
  0
ARC
  8
LVL0000
 10
       10.985107
 20
       32.300020
 30
        0.000000
 40
        0.500000
 50
       90.000000
 51
      180.000010
  0
ARC
  8
LVL0000
 10
       15.685059
 20
       32.300020
 30
        0.000000
 40
        0.500000
 50
        0.000000
 51
       90.000000
  0
LINE
  8
LVL0000
 10
       15.685059
 20
       32.800020
 30
        0.000000
 11
       10.985107
 21
       32.800020
 31
        0.000000
  0
LINE
  8
LVL0000
 10
       16.385132
 20
       33.800020
 30
        0.000000
 11
       10.285095
 21
       33.800020
 31
        0.000000
  0
LINE
  8
LVL0000
 10
       16.185059
 20
       32.300020
 30
        0.000000
 11
       16.185059
 21
       28.300020
 31
        0.000000
  0
LINE
  8
LVL0000
 10
       10.485107
 20
       32.300020
 30
        0.000000
 11
       10.485107
 21
       28.300020
 31
        0.000000
  0
CIRCLE
  8
LVL0000
 10
       13.335083
 20
       30.300020
 30
        0.000000
 40
        2.000000
  0
LINE
  8
LVL0000
 10
       15.685059
 20
       27.800020
 30
        0.000000
 11
       10.985107
 21
       27.800020
 31
        0.000000
  0
LINE
  8
LVL0000
 10
       14.042114
 20
       31.007112
 30
        0.000000
 11
       12.627930
 21
       29.592928
 31
        0.000000
  0
LINE
  8
LVL0000
 10
       11.920898
 20
       31.714204
 30
        0.000000
 11
       14.749268
 21
       28.885774
 31
        0.000000
  0
LINE
  8
LVL0000
 10
        8.110840
 20
       41.014192
 30
        0.000000
 11
       10.939331
 21
       38.185762
 31
        0.000000
  0
LINE
  8
LVL0000
 10
       10.232178
 20
       40.307161
 30
        0.000000
 11
        8.817932
 21
       38.892915
 31
        0.000000
  0
LINE
  8
LVL0000
 10
       11.875122
 20
       37.100008
 30
        0.000000
 11
        7.175049
 21
       37.100008
 31
        0.000000
  0
LINE
  8
LVL0000
 10
       11.875122
 20
       42.100008
 30
        0.000000
 11
        7.175049
 21
       42.100008
 31
        0.000000
  0
LINE
  8
LVL0000
 10
       12.575073
 20
       43.100008
 30
        0.000000
 11
        6.475098
 21
       43.100008
 31
        0.000000
  0
LINE
  8
LVL0000
 10
       12.375122
 20
       41.600008
 30
        0.000000
 11
       12.375122
 21
       37.600008
 31
        0.000000
  0
CIRCLE
  8
LVL0000
 10
        9.525085
 20
       39.600008
 30
        0.000000
 40
        2.000000
  0
ARC
  8
LVL0000
 10
       11.875122
 20
       41.600008
 30
        0.000000
 40
        0.500000
 50
        0.000000
 51
       90.000000
  0
ARC
  8
LVL0000
 10
       11.875122
 20
       37.600008
 30
        0.000000
 40
        0.500000
 50
      270.000000
 51
      360.000000
  0
LINE
  8
LVL0000
 10
        6.675049
 20
       41.600008
 30
        0.000000
 11
        6.675049
 21
       37.600008
 31
        0.000000
  0
ARC
  8
LVL0000
 10
        7.175049
 20
       41.600008
 30
        0.000000
 40
        0.500000
 50
       90.000000
 51
      180.000010
  0
ARC
  8
LVL0000
 10
        7.175049
 20
       37.600008
 30
        0.000000
 40
        0.500000
 50
      180.000010
 51
      270.000000
  0
LINE
  8
LVL0000
 10
        2.665100
 20
       35.800081
 30
        0.000000
 11
        2.665100
 21
       26.500032
 31
        0.000000
  0
ARC
  8
LVL0000
 10
        3.365112
 20
       28.300020
 30
        0.000000
 40
        0.500000
 50
      180.000010
 51
      270.000000
  0
ARC
  8
LVL0000
 10
        8.065063
 20
       28.300020
 30
        0.000000
 40
        0.500000
 50
      270.000000
 51
      360.000000
  0
ARC
  8
LVL0000
 10
        3.365112
 20
       32.300020
 30
        0.000000
 40
        0.500000
 50
       90.000000
 51
      180.000010
  0
ARC
  8
LVL0000
 10
        8.065063
 20
       32.300020
 30
        0.000000
 40
        0.500000
 50
        0.000000
 51
       90.000000
  0
LINE
  8
LVL0000
 10
        8.065063
 20
       32.800020
 30
        0.000000
 11
        3.365112
 21
       32.800020
 31
        0.000000
  0
LINE
  8
LVL0000
 10
        8.765137
 20
       33.800020
 30
        0.000000
 11
        2.665100
 21
       33.800020
 31
        0.000000
  0
LINE
  8
LVL0000
 10
        8.565063
 20
       32.300020
 30
        0.000000
 11
        8.565063
 21
       28.300020
 31
        0.000000
  0
LINE
  8
LVL0000
 10
        2.865112
 20
       32.300020
 30
        0.000000
 11
        2.865112
 21
       28.300020
 31
        0.000000
  0
CIRCLE
  8
LVL0000
 10
        5.715088
 20
       30.300020
 30
        0.000000
 40
        2.000000
  0
LINE
  8
LVL0000
 10
        8.065063
 20
       27.800020
 30
        0.000000
 11
        3.365112
 21
       27.800020
 31
        0.000000
  0
LINE
  8
LVL0000
 10
        6.422119
 20
       31.007112
 30
        0.000000
 11
        5.007935
 21
       29.592928
 31
        0.000000
  0
LINE
  8
LVL0000
 10
        4.300903
 20
       31.714204
 30
        0.000000
 11
        7.129272
 21
       28.885774
 31
        0.000000
  0
LINE
  8
LVL0000
 10
        0.490845
 20
       41.014192
 30
        0.000000
 11
        3.319275
 21
       38.185762
 31
        0.000000
  0
LINE
  8
LVL0000
 10
        2.612122
 20
       40.307161
 30
        0.000000
 11
        1.197937
 21
       38.892915
 31
        0.000000
  0
LINE
  8
LVL0000
 10
        4.255066
 20
       37.100008
 30
        0.000000
 11
       -0.444946
 21
       37.100008
 31
        0.000000
  0
LINE
  8
LVL0000
 10
        4.255066
 20
       42.100008
 30
        0.000000
 11
       -0.444946
 21
       42.100008
 31
        0.000000
  0
LINE
  8
LVL0000
 10
        4.955078
 20
       43.100008
 30
        0.000000
 11
       -1.144897
 21
       43.100008
 31
        0.000000
  0
LINE
  8
LVL0000
 10
        4.755066
 20
       41.600008
 30
        0.000000
 11
        4.755066
 21
       37.600008
 31
        0.000000
  0
CIRCLE
  8
LVL0000
 10
        1.905090
 20
       39.600008
 30
        0.000000
 40
        2.000000
  0
ARC
  8
LVL0000
 10
        4.255066
 20
       41.600008
 30
        0.000000
 40
        0.500000
 50
        0.000000
 51
       90.000000
  0
ARC
  8
LVL0000
 10
        4.255066
 20
       37.600008
 30
        0.000000
 40
        0.500000
 50
      270.000000
 51
      360.000000
  0
LINE
  8
LVL0000
 10
       -0.944946
 20
       41.600008
 30
        0.000000
 11
       -0.944946
 21
       37.600008
 31
        0.000000
  0
ARC
  8
LVL0000
 10
       -0.444946
 20
       41.600008
 30
        0.000000
 40
        0.500000
 50
       90.000000
 51
      180.000010
  0
ARC
  8
LVL0000
 10
       -0.444946
 20
       37.600008
 30
        0.000000
 40
        0.500000
 50
      180.000010
 51
      270.000000
  0
LINE
  8
LVL0000
 10
       -4.954895
 20
       35.800081
 30
        0.000000
 11
       -4.954895
 21
       26.500032
 31
        0.000000
  0
ARC
  8
LVL0000
 10
       -4.254883
 20
       28.300020
 30
        0.000000
 40
        0.500000
 50
      180.000010
 51
      270.000000
  0
ARC
  8
LVL0000
 10
        0.445068
 20
       28.300020
 30
        0.000000
 40
        0.500000
 50
      270.000000
 51
      360.000000
  0
ARC
  8
LVL0000
 10
       -4.254883
 20
       32.300020
 30
        0.000000
 40
        0.500000
 50
       90.000000
 51
      180.000010
  0
ARC
  8
LVL0000
 10
        0.445068
 20
       32.300020
 30
        0.000000
 40
        0.500000
 50
        0.000000
 51
       90.000000
  0
LINE
  8
LVL0000
 10
        0.445068
 20
       32.800020
 30
        0.000000
 11
       -4.254883
 21
       32.800020
 31
        0.000000
  0
LINE
  8
LVL0000
 10
        1.145081
 20
       33.800020
 30
        0.000000
 11
       -4.954895
 21
       33.800020
 31
        0.000000
  0
LINE
  8
LVL0000
 10
        0.945068
 20
       32.300020
 30
        0.000000
 11
        0.945068
 21
       28.300020
 31
        0.000000
  0
LINE
  8
LVL0000
 10
       -4.754883
 20
       32.300020
 30
        0.000000
 11
       -4.754883
 21
       28.300020
 31
        0.000000
  0
CIRCLE
  8
LVL0000
 10
       -1.904907
 20
       30.300020
 30
        0.000000
 40
        2.000000
  0
LINE
  8
LVL0000
 10
        0.445068
 20
       27.800020
 30
        0.000000
 11
       -4.254883
 21
       27.800020
 31
        0.000000
  0
LINE
  8
LVL0000
 10
       -1.197876
 20
       31.007112
 30
        0.000000
 11
       -2.612061
 21
       29.592928
 31
        0.000000
  0
LINE
  8
LVL0000
 10
       -3.319092
 20
       31.714204
 30
        0.000000
 11
       -0.490723
 21
       28.885774
 31
        0.000000
  0
LINE
  8
LVL0000
 10
       -7.129150
 20
       41.014192
 30
        0.000000
 11
       -4.300720
 21
       38.185762
 31
        0.000000
  0
LINE
  8
LVL0000
 10
       -5.007874
 20
       40.307161
 30
        0.000000
 11
       -6.422058
 21
       38.892915
 31
        0.000000
  0
LINE
  8
LVL0000
 10
       -3.364929
 20
       37.100008
 30
        0.000000
 11
       -8.064941
 21
       37.100008
 31
        0.000000
  0
LINE
  8
LVL0000
 10
       -3.364929
 20
       42.100008
 30
        0.000000
 11
       -8.064941
 21
       42.100008
 31
        0.000000
  0
LINE
  8
LVL0000
 10
       -2.664917
 20
       43.100008
 30
        0.000000
 11
       -8.764893
 21
       43.100008
 31
        0.000000
  0
LINE
  8
LVL0000
 10
       -2.864929
 20
       41.600008
 30
        0.000000
 11
       -2.864929
 21
       37.600008
 31
        0.000000
  0
CIRCLE
  8
LVL0000
 10
       -5.714905
 20
       39.600008
 30
        0.000000
 40
        2.000000
  0
ARC
  8
LVL0000
 10
       -3.364929
 20
       41.600008
 30
        0.000000
 40
        0.500000
 50
        0.000000
 51
       90.000000
  0
ARC
  8
LVL0000
 10
       -3.364929
 20
       37.600008
 30
        0.000000
 40
        0.500000
 50
      270.000000
 51
      360.000000
  0
LINE
  8
LVL0000
 10
       -8.564941
 20
       41.600008
 30
        0.000000
 11
       -8.564941
 21
       37.600008
 31
        0.000000
  0
ARC
  8
LVL0000
 10
       -8.064941
 20
       41.600008
 30
        0.000000
 40
        0.500000
 50
       90.000000
 51
      180.000010
  0
ARC
  8
LVL0000
 10
       -8.064941
 20
       37.600008
 30
        0.000000
 40
        0.500000
 50
      180.000010
 51
      270.000000
  0
LINE
  8
LVL0000
 10
      -12.574951
 20
       35.800081
 30
        0.000000
 11
      -12.574951
 21
       26.500032
 31
        0.000000
  0
ARC
  8
LVL0000
 10
      -11.874878
 20
       28.300020
 30
        0.000000
 40
        0.500000
 50
      180.000010
 51
      270.000000
  0
ARC
  8
LVL0000
 10
       -7.174927
 20
       28.300020
 30
        0.000000
 40
        0.500000
 50
      270.000000
 51
      360.000000
  0
ARC
  8
LVL0000
 10
      -11.874878
 20
       32.300020
 30
        0.000000
 40
        0.500000
 50
       90.000000
 51
      180.000010
  0
ARC
  8
LVL0000
 10
       -7.174927
 20
       32.300020
 30
        0.000000
 40
        0.500000
 50
        0.000000
 51
       90.000000
  0
LINE
  8
LVL0000
 10
       -7.174927
 20
       32.800020
 30
        0.000000
 11
      -11.874878
 21
       32.800020
 31
        0.000000
  0
LINE
  8
LVL0000
 10
       -6.474915
 20
       33.800020
 30
        0.000000
 11
      -12.574951
 21
       33.800020
 31
        0.000000
  0
LINE
  8
LVL0000
 10
       -6.674927
 20
       32.300020
 30
        0.000000
 11
       -6.674927
 21
       28.300020
 31
        0.000000
  0
LINE
  8
LVL0000
 10
      -12.374878
 20
       32.300020
 30
        0.000000
 11
      -12.374878
 21
       28.300020
 31
        0.000000
  0
CIRCLE
  8
LVL0000
 10
       -9.524902
 20
       30.300020
 30
        0.000000
 40
        2.000000
  0
LINE
  8
LVL0000
 10
       -7.174927
 20
       27.800020
 30
        0.000000
 11
      -11.874878
 21
       27.800020
 31
        0.000000
  0
LINE
  8
LVL0000
 10
       -8.817871
 20
       31.007112
 30
        0.000000
 11
      -10.232056
 21
       29.592928
 31
        0.000000
  0
LINE
  8
LVL0000
 10
      -10.939087
 20
       31.714204
 30
        0.000000
 11
       -8.110718
 21
       28.885774
 31
        0.000000
  0
LINE
  8
LVL0000
 10
      -14.749146
 20
       41.014192
 30
        0.000000
 11
      -11.920715
 21
       38.185762
 31
        0.000000
  0
LINE
  8
LVL0000
 10
      -12.627869
 20
       40.307161
 30
        0.000000
 11
      -14.042114
 21
       38.892915
 31
        0.000000
  0
LINE
  8
LVL0000
 10
      -10.984924
 20
       37.100008
 30
        0.000000
 11
      -15.684937
 21
       37.100008
 31
        0.000000
  0
LINE
  8
LVL0000
 10
      -10.984924
 20
       42.100008
 30
        0.000000
 11
      -15.684937
 21
       42.100008
 31
        0.000000
  0
LINE
  8
LVL0000
 10
      -10.284912
 20
       43.100008
 30
        0.000000
 11
      -16.384888
 21
       43.100008
 31
        0.000000
  0
LINE
  8
LVL0000
 10
      -10.484924
 20
       41.600008
 30
        0.000000
 11
      -10.484924
 21
       37.600008
 31
        0.000000
  0
CIRCLE
  8
LVL0000
 10
      -13.334961
 20
       39.600008
 30
        0.000000
 40
        2.000000
  0
ARC
  8
LVL0000
 10
      -10.984924
 20
       41.600008
 30
        0.000000
 40
        0.500000
 50
        0.000000
 51
       90.000000
  0
ARC
  8
LVL0000
 10
      -10.984924
 20
       37.600008
 30
        0.000000
 40
        0.500000
 50
      270.000000
 51
      360.000000
  0
LINE
  8
LVL0000
 10
      -16.184937
 20
       41.600008
 30
        0.000000
 11
      -16.184937
 21
       37.600008
 31
        0.000000
  0
ARC
  8
LVL0000
 10
      -15.684937
 20
       41.600008
 30
        0.000000
 40
        0.500000
 50
       90.000000
 51
      180.000010
  0
ARC
  8
LVL0000
 10
      -15.684937
 20
       37.600008
 30
        0.000000
 40
        0.500000
 50
      180.000010
 51
      270.000000
  0
LINE
  8
LVL0000
 10
      -20.194946
 20
       35.800081
 30
        0.000000
 11
      -20.194946
 21
       26.500032
 31
        0.000000
  0
ARC
  8
LVL0000
 10
      -19.494934
 20
       28.300020
 30
        0.000000
 40
        0.500000
 50
      180.000010
 51
      270.000000
  0
ARC
  8
LVL0000
 10
      -14.794922
 20
       28.300020
 30
        0.000000
 40
        0.500000
 50
      270.000000
 51
      360.000000
  0
ARC
  8
LVL0000
 10
      -19.494934
 20
       32.300020
 30
        0.000000
 40
        0.500000
 50
       90.000000
 51
      180.000010
  0
ARC
  8
LVL0000
 10
      -14.794922
 20
       32.300020
 30
        0.000000
 40
        0.500000
 50
        0.000000
 51
       90.000000
  0
LINE
  8
LVL0000
 10
      -14.794922
 20
       32.800020
 30
        0.000000
 11
      -19.494934
 21
       32.800020
 31
        0.000000
  0
LINE
  8
LVL0000
 10
      -14.094910
 20
       33.800020
 30
        0.000000
 11
      -20.194946
 21
       33.800020
 31
        0.000000
  0
LINE
  8
LVL0000
 10
      -14.294922
 20
       32.300020
 30
        0.000000
 11
      -14.294922
 21
       28.300020
 31
        0.000000
  0
LINE
  8
LVL0000
 10
      -19.994934
 20
       32.300020
 30
        0.000000
 11
      -19.994934
 21
       28.300020
 31
        0.000000
  0
CIRCLE
  8
LVL0000
 10
      -17.144897
 20
       30.300020
 30
        0.000000
 40
        2.000000
  0
LINE
  8
LVL0000
 10
      -14.794922
 20
       27.800020
 30
        0.000000
 11
      -19.494934
 21
       27.800020
 31
        0.000000
  0
LINE
  8
LVL0000
 10
      -16.437866
 20
       31.007112
 30
        0.000000
 11
      -17.852051
 21
       29.592928
 31
        0.000000
  0
LINE
  8
LVL0000
 10
      -18.559143
 20
       31.714204
 30
        0.000000
 11
      -15.730713
 21
       28.885774
 31
        0.000000
  0
LINE
  8
LVL0000
 10
      -22.369141
 20
       41.014192
 30
        0.000000
 11
      -19.540710
 21
       38.185762
 31
        0.000000
  0
LINE
  8
LVL0000
 10
      -20.247864
 20
       40.307161
 30
        0.000000
 11
      -21.662109
 21
       38.892915
 31
        0.000000
  0
LINE
  8
LVL0000
 10
      -18.604919
 20
       37.100008
 30
        0.000000
 11
      -23.304932
 21
       37.100008
 31
        0.000000
  0
LINE
  8
LVL0000
 10
      -18.604919
 20
       42.100008
 30
        0.000000
 11
      -23.304932
 21
       42.100008
 31
        0.000000
  0
LINE
  8
LVL0000
 10
      -17.904907
 20
       43.100008
 30
        0.000000
 11
      -24.004883
 21
       43.100008
 31
        0.000000
  0
LINE
  8
LVL0000
 10
      -18.104919
 20
       41.600008
 30
        0.000000
 11
      -18.104919
 21
       37.600008
 31
        0.000000
  0
CIRCLE
  8
LVL0000
 10
      -20.954956
 20
       39.600008
 30
        0.000000
 40
        2.000000
  0
ARC
  8
LVL0000
 10
      -18.604919
 20
       41.600008
 30
        0.000000
 40
        0.500000
 50
        0.000000
 51
       90.000000
  0
ARC
  8
LVL0000
 10
      -18.604919
 20
       37.600008
 30
        0.000000
 40
        0.500000
 50
      270.000000
 51
      360.000000
  0
LINE
  8
LVL0000
 10
      -23.804932
 20
       41.600008
 30
        0.000000
 11
      -23.804932
 21
       37.600008
 31
        0.000000
  0
ARC
  8
LVL0000
 10
      -23.304932
 20
       41.600008
 30
        0.000000
 40
        0.500000
 50
       90.000000
 51
      180.000010
  0
ARC
  8
LVL0000
 10
      -23.304932
 20
       37.600008
 30
        0.000000
 40
        0.500000
 50
      180.000010
 51
      270.000000
  0
LINE
  8
LVL0000
 10
      -27.814941
 20
       35.800081
 30
        0.000000
 11
      -27.814941
 21
       26.500032
 31
        0.000000
  0
ARC
  8
LVL0000
 10
      -27.114929
 20
       28.300020
 30
        0.000000
 40
        0.500000
 50
      180.000010
 51
      270.000000
  0
ARC
  8
LVL0000
 10
      -22.414917
 20
       28.300020
 30
        0.000000
 40
        0.500000
 50
      270.000000
 51
      360.000000
  0
ARC
  8
LVL0000
 10
      -27.114929
 20
       32.300020
 30
        0.000000
 40
        0.500000
 50
       90.000000
 51
      180.000010
  0
ARC
  8
LVL0000
 10
      -22.414917
 20
       32.300020
 30
        0.000000
 40
        0.500000
 50
        0.000000
 51
       90.000000
  0
LINE
  8
LVL0000
 10
      -22.414917
 20
       32.800020
 30
        0.000000
 11
      -27.114929
 21
       32.800020
 31
        0.000000
  0
LINE
  8
LVL0000
 10
      -21.714966
 20
       33.800020
 30
        0.000000
 11
      -27.814941
 21
       33.800020
 31
        0.000000
  0
LINE
  8
LVL0000
 10
      -21.914917
 20
       32.300020
 30
        0.000000
 11
      -21.914917
 21
       28.300020
 31
        0.000000
  0
LINE
  8
LVL0000
 10
      -27.614929
 20
       32.300020
 30
        0.000000
 11
      -27.614929
 21
       28.300020
 31
        0.000000
  0
CIRCLE
  8
LVL0000
 10
      -24.764893
 20
       30.300020
 30
        0.000000
 40
        2.000000
  0
LINE
  8
LVL0000
 10
      -22.414917
 20
       27.800020
 30
        0.000000
 11
      -27.114929
 21
       27.800020
 31
        0.000000
  0
LINE
  8
LVL0000
 10
      -24.057861
 20
       31.007112
 30
        0.000000
 11
      -25.472046
 21
       29.592928
 31
        0.000000
  0
LINE
  8
LVL0000
 10
      -26.179138
 20
       31.714204
 30
        0.000000
 11
      -23.350708
 21
       28.885774
 31
        0.000000
  0
LINE
  8
LVL0000
 10
      -29.989136
 20
       41.014192
 30
        0.000000
 11
      -27.160706
 21
       38.185762
 31
        0.000000
  0
LINE
  8
LVL0000
 10
      -27.867859
 20
       40.307161
 30
        0.000000
 11
      -29.282104
 21
       38.892915
 31
        0.000000
  0
LINE
  8
LVL0000
 10
      -26.224915
 20
       37.100008
 30
        0.000000
 11
      -30.924927
 21
       37.100008
 31
        0.000000
  0
LINE
  8
LVL0000
 10
      -26.224915
 20
       42.100008
 30
        0.000000
 11
      -30.924927
 21
       42.100008
 31
        0.000000
  0
LINE
  8
LVL0000
 10
      -25.524902
 20
       43.100008
 30
        0.000000
 11
      -31.624878
 21
       43.100008
 31
        0.000000
  0
LINE
  8
LVL0000
 10
      -25.724915
 20
       41.600008
 30
        0.000000
 11
      -25.724915
 21
       37.600008
 31
        0.000000
  0
CIRCLE
  8
LVL0000
 10
      -28.574951
 20
       39.600008
 30
        0.000000
 40
        2.000000
  0
ARC
  8
LVL0000
 10
      -26.224915
 20
       41.600008
 30
        0.000000
 40
        0.500000
 50
        0.000000
 51
       90.000000
  0
ARC
  8
LVL0000
 10
      -26.224915
 20
       37.600008
 30
        0.000000
 40
        0.500000
 50
      270.000000
 51
      360.000000
  0
LINE
  8
LVL0000
 10
      -31.424927
 20
       41.600008
 30
        0.000000
 11
      -31.424927
 21
       37.600008
 31
        0.000000
  0
ARC
  8
LVL0000
 10
      -30.924927
 20
       41.600008
 30
        0.000000
 40
        0.500000
 50
       90.000000
 51
      180.000010
  0
ARC
  8
LVL0000
 10
      -30.924927
 20
       37.600008
 30
        0.000000
 40
        0.500000
 50
      180.000010
 51
      270.000000
  0
LINE
  8
LVL0000
 10
      -35.434937
 20
       35.800081
 30
        0.000000
 11
      -35.434937
 21
       26.500032
 31
        0.000000
  0
ARC
  8
LVL0000
 10
      -34.734924
 20
       28.300020
 30
        0.000000
 40
        0.500000
 50
      180.000010
 51
      270.000000
  0
ARC
  8
LVL0000
 10
      -30.034912
 20
       28.300020
 30
        0.000000
 40
        0.500000
 50
      270.000000
 51
      360.000000
  0
ARC
  8
LVL0000
 10
      -34.734924
 20
       32.300020
 30
        0.000000
 40
        0.500000
 50
       90.000000
 51
      180.000010
  0
ARC
  8
LVL0000
 10
      -30.034912
 20
       32.300020
 30
        0.000000
 40
        0.500000
 50
        0.000000
 51
       90.000000
  0
LINE
  8
LVL0000
 10
      -30.034912
 20
       32.800020
 30
        0.000000
 11
      -34.734924
 21
       32.800020
 31
        0.000000
  0
LINE
  8
LVL0000
 10
      -29.334961
 20
       33.800020
 30
        0.000000
 11
      -35.434937
 21
       33.800020
 31
        0.000000
  0
LINE
  8
LVL0000
 10
      -29.534912
 20
       32.300020
 30
        0.000000
 11
      -29.534912
 21
       28.300020
 31
        0.000000
  0
LINE
  8
LVL0000
 10
      -35.234924
 20
       32.300020
 30
        0.000000
 11
      -35.234924
 21
       28.300020
 31
        0.000000
  0
CIRCLE
  8
LVL0000
 10
      -32.384888
 20
       30.300020
 30
        0.000000
 40
        2.000000
  0
LINE
  8
LVL0000
 10
      -30.034912
 20
       27.800020
 30
        0.000000
 11
      -34.734924
 21
       27.800020
 31
        0.000000
  0
LINE
  8
LVL0000
 10
      -31.677856
 20
       31.007112
 30
        0.000000
 11
      -33.092041
 21
       29.592928
 31
        0.000000
  0
LINE
  8
LVL0000
 10
      -33.799133
 20
       31.714204
 30
        0.000000
 11
      -30.970703
 21
       28.885774
 31
        0.000000
  0
LINE
  8
LVL0000
 10
      -37.609131
 20
       41.014192
 30
        0.000000
 11
      -34.780701
 21
       38.185762
 31
        0.000000
  0
LINE
  8
LVL0000
 10
      -35.487854
 20
       40.307161
 30
        0.000000
 11
      -36.902100
 21
       38.892915
 31
        0.000000
  0
LINE
  8
LVL0000
 10
      -33.844910
 20
       37.100008
 30
        0.000000
 11
      -38.544922
 21
       37.100008
 31
        0.000000
  0
LINE
  8
LVL0000
 10
      -33.844910
 20
       42.100008
 30
        0.000000
 11
      -38.544922
 21
       42.100008
 31
        0.000000
  0
LINE
  8
LVL0000
 10
      -33.144897
 20
       43.100008
 30
        0.000000
 11
      -39.244934
 21
       43.100008
 31
        0.000000
  0
LINE
  8
LVL0000
 10
      -33.344910
 20
       41.600008
 30
        0.000000
 11
      -33.344910
 21
       37.600008
 31
        0.000000
  0
CIRCLE
  8
LVL0000
 10
      -36.194946
 20
       39.600008
 30
        0.000000
 40
        2.000000
  0
ARC
  8
LVL0000
 10
      -33.844910
 20
       41.600008
 30
        0.000000
 40
        0.500000
 50
        0.000000
 51
       90.000000
  0
ARC
  8
LVL0000
 10
      -33.844910
 20
       37.600008
 30
        0.000000
 40
        0.500000
 50
      270.000000
 51
      360.000000
  0
LINE
  8
LVL0000
 10
      -39.044922
 20
       41.600008
 30
        0.000000
 11
      -39.044922
 21
       37.600008
 31
        0.000000
  0
ARC
  8
LVL0000
 10
      -38.544922
 20
       41.600008
 30
        0.000000
 40
        0.500000
 50
       90.000000
 51
      180.000010
  0
ARC
  8
LVL0000
 10
      -38.544922
 20
       37.600008
 30
        0.000000
 40
        0.500000
 50
      180.000010
 51
      270.000000
  0
LINE
  8
LVL0000
 10
       31.625122
 20
       35.800081
 30
        0.000000
 11
       31.625122
 21
       26.500032
 31
        0.000000
  0
LINE
  8
LVL0000
 10
       24.005127
 20
       35.800081
 30
        0.000000
 11
       24.005127
 21
       26.500032
 31
        0.000000
  0
LINE
  8
LVL0000
 10
       16.385132
 20
       35.800081
 30
        0.000000
 11
       16.385132
 21
       26.500032
 31
        0.000000
  0
LINE
  8
LVL0000
 10
        8.765076
 20
       35.800081
 30
        0.000000
 11
        8.765076
 21
       26.500032
 31
        0.000000
  0
LINE
  8
LVL0000
 10
      -35.434937
 20
       35.800081
 30
        0.000000
 11
      -35.434937
 21
       26.500032
 31
        0.000000
  0
LINE
  8
LVL0000
 10
      -39.244934
 20
       45.000008
 30
        0.000000
 11
      -39.244934
 21
       26.500032
 31
        0.000000
  0
LINE
  8
LVL0000
 10
        1.145081
 20
       35.800081
 30
        0.000000
 11
        1.145081
 21
       26.500032
 31
        0.000000
  0
LINE
  8
LVL0000
 10
       -6.474915
 20
       35.800081
 30
        0.000000
 11
       -6.474915
 21
       26.500032
 31
        0.000000
  0
LINE
  8
LVL0000
 10
      -14.094971
 20
       35.800081
 30
        0.000000
 11
      -14.094971
 21
       26.500032
 31
        0.000000
  0
LINE
  8
LVL0000
 10
      -21.714966
 20
       35.800081
 30
        0.000000
 11
      -21.714966
 21
       26.500032
 31
        0.000000
  0
LINE
  8
LVL0000
 10
      -29.334961
 20
       35.800081
 30
        0.000000
 11
      -29.334961
 21
       26.500032
 31
        0.000000
  0
LINE
  8
LVL0000
 10
      -36.954956
 20
       35.800081
 30
        0.000000
 11
      -36.954956
 21
       26.500032
 31
        0.000000
  0
LINE
  8
LVL0000
 10
       35.435059
 20
       45.000008
 30
        0.000000
 11
       35.435059
 21
       35.800081
 31
        0.000000
  0
LINE
  8
LVL0000
 10
       29.335083
 20
       45.000008
 30
        0.000000
 11
       29.335083
 21
       35.800081
 31
        0.000000
  0
LINE
  8
LVL0000
 10
       27.815063
 20
       45.000008
 30
        0.000000
 11
       27.815063
 21
       35.800081
 31
        0.000000
  0
LINE
  8
LVL0000
 10
       21.715088
 20
       45.000008
 30
        0.000000
 11
       21.715088
 21
       35.800081
 31
        0.000000
  0
LINE
  8
LVL0000
 10
       20.195068
 20
       45.000008
 30
        0.000000
 11
       20.195068
 21
       35.800081
 31
        0.000000
  0
LINE
  8
LVL0000
 10
       14.095093
 20
       45.000008
 30
        0.000000
 11
       14.095093
 21
       35.800081
 31
        0.000000
  0
LINE
  8
LVL0000
 10
       12.575073
 20
       45.000008
 30
        0.000000
 11
       12.575073
 21
       35.800081
 31
        0.000000
  0
LINE
  8
LVL0000
 10
        6.475098
 20
       45.000008
 30
        0.000000
 11
        6.475098
 21
       35.800081
 31
        0.000000
  0
LINE
  8
LVL0000
 10
        4.955078
 20
       45.000008
 30
        0.000000
 11
        4.955078
 21
       35.800081
 31
        0.000000
  0
LINE
  8
LVL0000
 10
       -1.144897
 20
       45.000008
 30
        0.000000
 11
       -1.144897
 21
       35.800081
 31
        0.000000
  0
LINE
  8
LVL0000
 10
       -2.664917
 20
       45.000008
 30
        0.000000
 11
       -2.664917
 21
       35.800081
 31
        0.000000
  0
LINE
  8
LVL0000
 10
       -8.764893
 20
       45.000008
 30
        0.000000
 11
       -8.764893
 21
       35.800081
 31
        0.000000
  0
LINE
  8
LVL0000
 10
      -10.284912
 20
       45.000008
 30
        0.000000
 11
      -10.284912
 21
       35.800081
 31
        0.000000
  0
LINE
  8
LVL0000
 10
      -16.384888
 20
       45.000008
 30
        0.000000
 11
      -16.384888
 21
       35.800081
 31
        0.000000
  0
LINE
  8
LVL0000
 10
      -17.904907
 20
       45.000008
 30
        0.000000
 11
      -17.904907
 21
       35.800081
 31
        0.000000
  0
LINE
  8
LVL0000
 10
      -24.004883
 20
       45.000008
 30
        0.000000
 11
      -24.004883
 21
       35.800081
 31
        0.000000
  0
LINE
  8
LVL0000
 10
      -25.524902
 20
       45.000008
 30
        0.000000
 11
      -25.524902
 21
       35.800081
 31
        0.000000
  0
LINE
  8
LVL0000
 10
      -31.624878
 20
       45.000008
 30
        0.000000
 11
      -31.624878
 21
       35.800081
 31
        0.000000
  0
LINE
  8
LVL0000
 10
      -33.144897
 20
       45.000008
 30
        0.000000
 11
      -33.144897
 21
       35.800081
 31
        0.000000
  0
LINE
  8
LVL0000
 10
      -39.244934
 20
       45.000008
 30
        0.000000
 11
      -39.244934
 21
       35.800081
 31
        0.000000
  0
LINE
  8
LVL0000
 10
       36.955078
 20
       45.000008
 30
        0.000000
 11
       36.955078
 21
       35.800081
 31
        0.000000
  0
LINE
  8
LVL0000
 10
      -40.899902
 20
       25.500032
 30
        0.000000
 11
       40.900146
 21
       25.500032
 31
        0.000000
  0
LINE
  8
LVL0000
 10
       40.899902
 20
      -25.500032
 30
        0.000000
 11
      -40.900146
 21
      -25.500032
 31
        0.000000
  0
LINE
  8
LVL0000
 10
      -36.955078
 20
      -45.000008
 30
        0.000000
 11
      -36.955078
 21
      -35.800081
 31
        0.000000
  0
LINE
  8
LVL0000
 10
       39.244934
 20
      -45.000008
 30
        0.000000
 11
       39.244934
 21
      -35.800081
 31
        0.000000
  0
LINE
  8
LVL0000
 10
       33.144897
 20
      -45.000008
 30
        0.000000
 11
       33.144897
 21
      -35.800081
 31
        0.000000
  0
LINE
  8
LVL0000
 10
       31.624878
 20
      -45.000008
 30
        0.000000
 11
       31.624878
 21
      -35.800081
 31
        0.000000
  0
LINE
  8
LVL0000
 10
       25.524902
 20
      -45.000008
 30
        0.000000
 11
       25.524902
 21
      -35.800081
 31
        0.000000
  0
LINE
  8
LVL0000
 10
       24.004883
 20
      -45.000008
 30
        0.000000
 11
       24.004883
 21
      -35.800081
 31
        0.000000
  0
LINE
  8
LVL0000
 10
       17.904907
 20
      -45.000008
 30
        0.000000
 11
       17.904907
 21
      -35.800081
 31
        0.000000
  0
LINE
  8
LVL0000
 10
       16.384888
 20
      -45.000008
 30
        0.000000
 11
       16.384888
 21
      -35.800081
 31
        0.000000
  0
LINE
  8
LVL0000
 10
       10.284912
 20
      -45.000008
 30
        0.000000
 11
       10.284912
 21
      -35.800081
 31
        0.000000
  0
LINE
  8
LVL0000
 10
        8.764893
 20
      -45.000008
 30
        0.000000
 11
        8.764893
 21
      -35.800081
 31
        0.000000
  0
LINE
  8
LVL0000
 10
        2.664917
 20
      -45.000008
 30
        0.000000
 11
        2.664917
 21
      -35.800081
 31
        0.000000
  0
LINE
  8
LVL0000
 10
        1.144897
 20
      -45.000008
 30
        0.000000
 11
        1.144897
 21
      -35.800081
 31
        0.000000
  0
LINE
  8
LVL0000
 10
       -4.955078
 20
      -45.000008
 30
        0.000000
 11
       -4.955078
 21
      -35.800081
 31
        0.000000
  0
LINE
  8
LVL0000
 10
       -6.475098
 20
      -45.000008
 30
        0.000000
 11
       -6.475098
 21
      -35.800081
 31
        0.000000
  0
LINE
  8
LVL0000
 10
      -12.575073
 20
      -45.000008
 30
        0.000000
 11
      -12.575073
 21
      -35.800081
 31
        0.000000
  0
LINE
  8
LVL0000
 10
      -14.095093
 20
      -45.000008
 30
        0.000000
 11
      -14.095093
 21
      -35.800081
 31
        0.000000
  0
LINE
  8
LVL0000
 10
      -20.195068
 20
      -45.000008
 30
        0.000000
 11
      -20.195068
 21
      -35.800081
 31
        0.000000
  0
LINE
  8
LVL0000
 10
      -21.715088
 20
      -45.000008
 30
        0.000000
 11
      -21.715088
 21
      -35.800081
 31
        0.000000
  0
LINE
  8
LVL0000
 10
      -27.815063
 20
      -45.000008
 30
        0.000000
 11
      -27.815063
 21
      -35.800081
 31
        0.000000
  0
LINE
  8
LVL0000
 10
      -29.335083
 20
      -45.000008
 30
        0.000000
 11
      -29.335083
 21
      -35.800081
 31
        0.000000
  0
LINE
  8
LVL0000
 10
      -35.435059
 20
      -45.000008
 30
        0.000000
 11
      -35.435059
 21
      -35.800081
 31
        0.000000
  0
LINE
  8
LVL0000
 10
       36.954956
 20
      -35.800081
 30
        0.000000
 11
       36.954956
 21
      -26.500032
 31
        0.000000
  0
LINE
  8
LVL0000
 10
       29.334961
 20
      -35.800081
 30
        0.000000
 11
       29.334961
 21
      -26.500032
 31
        0.000000
  0
LINE
  8
LVL0000
 10
       21.714966
 20
      -35.800081
 30
        0.000000
 11
       21.714966
 21
      -26.500032
 31
        0.000000
  0
LINE
  8
LVL0000
 10
       14.094971
 20
      -35.800081
 30
        0.000000
 11
       14.094971
 21
      -26.500032
 31
        0.000000
  0
LINE
  8
LVL0000
 10
        6.474915
 20
      -35.800081
 30
        0.000000
 11
        6.474915
 21
      -26.500032
 31
        0.000000
  0
LINE
  8
LVL0000
 10
       -1.145081
 20
      -35.800081
 30
        0.000000
 11
       -1.145081
 21
      -26.500032
 31
        0.000000
  0
LINE
  8
LVL0000
 10
       39.244934
 20
      -45.000008
 30
        0.000000
 11
       39.244934
 21
      -26.500032
 31
        0.000000
  0
LINE
  8
LVL0000
 10
       35.434937
 20
      -35.800081
 30
        0.000000
 11
       35.434937
 21
      -26.500032
 31
        0.000000
  0
LINE
  8
LVL0000
 10
       -8.765076
 20
      -35.800081
 30
        0.000000
 11
       -8.765076
 21
      -26.500032
 31
        0.000000
  0
LINE
  8
LVL0000
 10
      -16.385132
 20
      -35.800081
 30
        0.000000
 11
      -16.385132
 21
      -26.500032
 31
        0.000000
  0
LINE
  8
LVL0000
 10
      -24.005127
 20
      -35.800081
 30
        0.000000
 11
      -24.005127
 21
      -26.500032
 31
        0.000000
  0
LINE
  8
LVL0000
 10
      -31.625122
 20
      -35.800081
 30
        0.000000
 11
      -31.625122
 21
      -26.500032
 31
        0.000000
  0
ARC
  8
LVL0000
 10
       38.544922
 20
      -37.600008
 30
        0.000000
 40
        0.500000
 50
        0.000005
 51
       90.000000
  0
ARC
  8
LVL0000
 10
       38.544922
 20
      -41.600008
 30
        0.000000
 40
        0.500000
 50
      270.000000
 51
      360.000005
  0
LINE
  8
LVL0000
 10
       39.044922
 20
      -41.600008
 30
        0.000000
 11
       39.044922
 21
      -37.600008
 31
        0.000000
  0
ARC
  8
LVL0000
 10
       33.844910
 20
      -37.600008
 30
        0.000000
 40
        0.500000
 50
       90.000000
 51
      179.999995
  0
ARC
  8
LVL0000
 10
       33.844910
 20
      -41.600008
 30
        0.000000
 40
        0.500000
 50
      179.999995
 51
      270.000000
  0
CIRCLE
  8
LVL0000
 10
       36.194946
 20
      -39.600008
 30
        0.000000
 40
        2.000000
  0
LINE
  8
LVL0000
 10
       33.344910
 20
      -41.600008
 30
        0.000000
 11
       33.344910
 21
      -37.600008
 31
        0.000000
  0
LINE
  8
LVL0000
 10
       33.144897
 20
      -43.100008
 30
        0.000000
 11
       39.244934
 21
      -43.100008
 31
        0.000000
  0
LINE
  8
LVL0000
 10
       33.844910
 20
      -42.100008
 30
        0.000000
 11
       38.544922
 21
      -42.100008
 31
        0.000000
  0
LINE
  8
LVL0000
 10
       33.844910
 20
      -37.100008
 30
        0.000000
 11
       38.544922
 21
      -37.100008
 31
        0.000000
  0
LINE
  8
LVL0000
 10
       35.487854
 20
      -40.307161
 30
        0.000000
 11
       36.902100
 21
      -38.892915
 31
        0.000000
  0
LINE
  8
LVL0000
 10
       37.609131
 20
      -41.014192
 30
        0.000000
 11
       34.780701
 21
      -38.185762
 31
        0.000000
  0
LINE
  8
LVL0000
 10
       33.799133
 20
      -31.714204
 30
        0.000000
 11
       30.970703
 21
      -28.885774
 31
        0.000000
  0
LINE
  8
LVL0000
 10
       31.677856
 20
      -31.007112
 30
        0.000000
 11
       33.092041
 21
      -29.592928
 31
        0.000000
  0
LINE
  8
LVL0000
 10
       30.034912
 20
      -27.800020
 30
        0.000000
 11
       34.734924
 21
      -27.800020
 31
        0.000000
  0
CIRCLE
  8
LVL0000
 10
       32.384888
 20
      -30.300020
 30
        0.000000
 40
        2.000000
  0
LINE
  8
LVL0000
 10
       35.234924
 20
      -32.300020
 30
        0.000000
 11
       35.234924
 21
      -28.300020
 31
        0.000000
  0
LINE
  8
LVL0000
 10
       29.534912
 20
      -32.300020
 30
        0.000000
 11
       29.534912
 21
      -28.300020
 31
        0.000000
  0
LINE
  8
LVL0000
 10
       29.334961
 20
      -33.800020
 30
        0.000000
 11
       35.434937
 21
      -33.800020
 31
        0.000000
  0
LINE
  8
LVL0000
 10
       30.034912
 20
      -32.800020
 30
        0.000000
 11
       34.734924
 21
      -32.800020
 31
        0.000000
  0
ARC
  8
LVL0000
 10
       30.034912
 20
      -32.300020
 30
        0.000000
 40
        0.500000
 50
      179.999995
 51
      270.000000
  0
ARC
  8
LVL0000
 10
       34.734924
 20
      -32.300020
 30
        0.000000
 40
        0.500000
 50
      270.000000
 51
      360.000005
  0
ARC
  8
LVL0000
 10
       30.034912
 20
      -28.300020
 30
        0.000000
 40
        0.500000
 50
       90.000000
 51
      179.999995
  0
ARC
  8
LVL0000
 10
       34.734924
 20
      -28.300020
 30
        0.000000
 40
        0.500000
 50
        0.000005
 51
       90.000000
  0
LINE
  8
LVL0000
 10
       35.434937
 20
      -35.800081
 30
        0.000000
 11
       35.434937
 21
      -26.500032
 31
        0.000000
  0
ARC
  8
LVL0000
 10
       30.924927
 20
      -37.600008
 30
        0.000000
 40
        0.500000
 50
        0.000005
 51
       90.000000
  0
ARC
  8
LVL0000
 10
       30.924927
 20
      -41.600008
 30
        0.000000
 40
        0.500000
 50
      270.000000
 51
      360.000005
  0
LINE
  8
LVL0000
 10
       31.424927
 20
      -41.600008
 30
        0.000000
 11
       31.424927
 21
      -37.600008
 31
        0.000000
  0
ARC
  8
LVL0000
 10
       26.224915
 20
      -37.600008
 30
        0.000000
 40
        0.500000
 50
       90.000000
 51
      179.999995
  0
ARC
  8
LVL0000
 10
       26.224915
 20
      -41.600008
 30
        0.000000
 40
        0.500000
 50
      179.999995
 51
      270.000000
  0
CIRCLE
  8
LVL0000
 10
       28.574951
 20
      -39.600008
 30
        0.000000
 40
        2.000000
  0
LINE
  8
LVL0000
 10
       25.724915
 20
      -41.600008
 30
        0.000000
 11
       25.724915
 21
      -37.600008
 31
        0.000000
  0
LINE
  8
LVL0000
 10
       25.524902
 20
      -43.100008
 30
        0.000000
 11
       31.624878
 21
      -43.100008
 31
        0.000000
  0
LINE
  8
LVL0000
 10
       26.224915
 20
      -42.100008
 30
        0.000000
 11
       30.924927
 21
      -42.100008
 31
        0.000000
  0
LINE
  8
LVL0000
 10
       26.224915
 20
      -37.100008
 30
        0.000000
 11
       30.924927
 21
      -37.100008
 31
        0.000000
  0
LINE
  8
LVL0000
 10
       27.867859
 20
      -40.307161
 30
        0.000000
 11
       29.282104
 21
      -38.892915
 31
        0.000000
  0
LINE
  8
LVL0000
 10
       29.989136
 20
      -41.014192
 30
        0.000000
 11
       27.160706
 21
      -38.185762
 31
        0.000000
  0
LINE
  8
LVL0000
 10
       26.179138
 20
      -31.714204
 30
        0.000000
 11
       23.350708
 21
      -28.885774
 31
        0.000000
  0
LINE
  8
LVL0000
 10
       24.057861
 20
      -31.007112
 30
        0.000000
 11
       25.472046
 21
      -29.592928
 31
        0.000000
  0
LINE
  8
LVL0000
 10
       22.414917
 20
      -27.800020
 30
        0.000000
 11
       27.114929
 21
      -27.800020
 31
        0.000000
  0
CIRCLE
  8
LVL0000
 10
       24.764893
 20
      -30.300020
 30
        0.000000
 40
        2.000000
  0
LINE
  8
LVL0000
 10
       27.614929
 20
      -32.300020
 30
        0.000000
 11
       27.614929
 21
      -28.300020
 31
        0.000000
  0
LINE
  8
LVL0000
 10
       21.914917
 20
      -32.300020
 30
        0.000000
 11
       21.914917
 21
      -28.300020
 31
        0.000000
  0
LINE
  8
LVL0000
 10
       21.714966
 20
      -33.800020
 30
        0.000000
 11
       27.814941
 21
      -33.800020
 31
        0.000000
  0
LINE
  8
LVL0000
 10
       22.414917
 20
      -32.800020
 30
        0.000000
 11
       27.114929
 21
      -32.800020
 31
        0.000000
  0
ARC
  8
LVL0000
 10
       22.414917
 20
      -32.300020
 30
        0.000000
 40
        0.500000
 50
      179.999995
 51
      270.000000
  0
ARC
  8
LVL0000
 10
       27.114929
 20
      -32.300020
 30
        0.000000
 40
        0.500000
 50
      270.000000
 51
      360.000005
  0
ARC
  8
LVL0000
 10
       22.414917
 20
      -28.300020
 30
        0.000000
 40
        0.500000
 50
       90.000000
 51
      179.999995
  0
ARC
  8
LVL0000
 10
       27.114929
 20
      -28.300020
 30
        0.000000
 40
        0.500000
 50
        0.000005
 51
       90.000000
  0
LINE
  8
LVL0000
 10
       27.814941
 20
      -35.800081
 30
        0.000000
 11
       27.814941
 21
      -26.500032
 31
        0.000000
  0
ARC
  8
LVL0000
 10
       23.304932
 20
      -37.600008
 30
        0.000000
 40
        0.500000
 50
        0.000005
 51
       90.000000
  0
ARC
  8
LVL0000
 10
       23.304932
 20
      -41.600008
 30
        0.000000
 40
        0.500000
 50
      270.000000
 51
      360.000005
  0
LINE
  8
LVL0000
 10
       23.804932
 20
      -41.600008
 30
        0.000000
 11
       23.804932
 21
      -37.600008
 31
        0.000000
  0
ARC
  8
LVL0000
 10
       18.604919
 20
      -37.600008
 30
        0.000000
 40
        0.500000
 50
       90.000000
 51
      179.999995
  0
ARC
  8
LVL0000
 10
       18.604919
 20
      -41.600008
 30
        0.000000
 40
        0.500000
 50
      179.999995
 51
      270.000000
  0
CIRCLE
  8
LVL0000
 10
       20.954956
 20
      -39.600008
 30
        0.000000
 40
        2.000000
  0
LINE
  8
LVL0000
 10
       18.104919
 20
      -41.600008
 30
        0.000000
 11
       18.104919
 21
      -37.600008
 31
        0.000000
  0
LINE
  8
LVL0000
 10
       17.904907
 20
      -43.100008
 30
        0.000000
 11
       24.004883
 21
      -43.100008
 31
        0.000000
  0
LINE
  8
LVL0000
 10
       18.604919
 20
      -42.100008
 30
        0.000000
 11
       23.304932
 21
      -42.100008
 31
        0.000000
  0
LINE
  8
LVL0000
 10
       18.604919
 20
      -37.100008
 30
        0.000000
 11
       23.304932
 21
      -37.100008
 31
        0.000000
  0
LINE
  8
LVL0000
 10
       20.247864
 20
      -40.307161
 30
        0.000000
 11
       21.662109
 21
      -38.892915
 31
        0.000000
  0
LINE
  8
LVL0000
 10
       22.369141
 20
      -41.014192
 30
        0.000000
 11
       19.540710
 21
      -38.185762
 31
        0.000000
  0
LINE
  8
LVL0000
 10
       18.559143
 20
      -31.714204
 30
        0.000000
 11
       15.730713
 21
      -28.885774
 31
        0.000000
  0
LINE
  8
LVL0000
 10
       16.437866
 20
      -31.007112
 30
        0.000000
 11
       17.852051
 21
      -29.592928
 31
        0.000000
  0
LINE
  8
LVL0000
 10
       14.794922
 20
      -27.800020
 30
        0.000000
 11
       19.494934
 21
      -27.800020
 31
        0.000000
  0
CIRCLE
  8
LVL0000
 10
       17.144897
 20
      -30.300020
 30
        0.000000
 40
        2.000000
  0
LINE
  8
LVL0000
 10
       19.994934
 20
      -32.300020
 30
        0.000000
 11
       19.994934
 21
      -28.300020
 31
        0.000000
  0
LINE
  8
LVL0000
 10
       14.294922
 20
      -32.300020
 30
        0.000000
 11
       14.294922
 21
      -28.300020
 31
        0.000000
  0
LINE
  8
LVL0000
 10
       14.094910
 20
      -33.800020
 30
        0.000000
 11
       20.194946
 21
      -33.800020
 31
        0.000000
  0
LINE
  8
LVL0000
 10
       14.794922
 20
      -32.800020
 30
        0.000000
 11
       19.494934
 21
      -32.800020
 31
        0.000000
  0
ARC
  8
LVL0000
 10
       14.794922
 20
      -32.300020
 30
        0.000000
 40
        0.500000
 50
      179.999995
 51
      270.000000
  0
ARC
  8
LVL0000
 10
       19.494934
 20
      -32.300020
 30
        0.000000
 40
        0.500000
 50
      270.000000
 51
      360.000005
  0
ARC
  8
LVL0000
 10
       14.794922
 20
      -28.300020
 30
        0.000000
 40
        0.500000
 50
       90.000000
 51
      179.999995
  0
ARC
  8
LVL0000
 10
       19.494934
 20
      -28.300020
 30
        0.000000
 40
        0.500000
 50
        0.000005
 51
       90.000000
  0
LINE
  8
LVL0000
 10
       20.194946
 20
      -35.800081
 30
        0.000000
 11
       20.194946
 21
      -26.500032
 31
        0.000000
  0
ARC
  8
LVL0000
 10
       15.684937
 20
      -37.600008
 30
        0.000000
 40
        0.500000
 50
        0.000005
 51
       90.000000
  0
ARC
  8
LVL0000
 10
       15.684937
 20
      -41.600008
 30
        0.000000
 40
        0.500000
 50
      270.000000
 51
      360.000005
  0
LINE
  8
LVL0000
 10
       16.184937
 20
      -41.600008
 30
        0.000000
 11
       16.184937
 21
      -37.600008
 31
        0.000000
  0
ARC
  8
LVL0000
 10
       10.984924
 20
      -37.600008
 30
        0.000000
 40
        0.500000
 50
       90.000000
 51
      179.999995
  0
ARC
  8
LVL0000
 10
       10.984924
 20
      -41.600008
 30
        0.000000
 40
        0.500000
 50
      179.999995
 51
      270.000000
  0
CIRCLE
  8
LVL0000
 10
       13.334961
 20
      -39.600008
 30
        0.000000
 40
        2.000000
  0
LINE
  8
LVL0000
 10
       10.484924
 20
      -41.600008
 30
        0.000000
 11
       10.484924
 21
      -37.600008
 31
        0.000000
  0
LINE
  8
LVL0000
 10
       10.284912
 20
      -43.100008
 30
        0.000000
 11
       16.384888
 21
      -43.100008
 31
        0.000000
  0
LINE
  8
LVL0000
 10
       10.984924
 20
      -42.100008
 30
        0.000000
 11
       15.684937
 21
      -42.100008
 31
        0.000000
  0
LINE
  8
LVL0000
 10
       10.984924
 20
      -37.100008
 30
        0.000000
 11
       15.684937
 21
      -37.100008
 31
        0.000000
  0
LINE
  8
LVL0000
 10
       12.627869
 20
      -40.307161
 30
        0.000000
 11
       14.042114
 21
      -38.892915
 31
        0.000000
  0
LINE
  8
LVL0000
 10
       14.749146
 20
      -41.014192
 30
        0.000000
 11
       11.920715
 21
      -38.185762
 31
        0.000000
  0
LINE
  8
LVL0000
 10
       10.939087
 20
      -31.714204
 30
        0.000000
 11
        8.110718
 21
      -28.885774
 31
        0.000000
  0
LINE
  8
LVL0000
 10
        8.817871
 20
      -31.007112
 30
        0.000000
 11
       10.232056
 21
      -29.592928
 31
        0.000000
  0
LINE
  8
LVL0000
 10
        7.174927
 20
      -27.800020
 30
        0.000000
 11
       11.874878
 21
      -27.800020
 31
        0.000000
  0
CIRCLE
  8
LVL0000
 10
        9.524902
 20
      -30.300020
 30
        0.000000
 40
        2.000000
  0
LINE
  8
LVL0000
 10
       12.374878
 20
      -32.300020
 30
        0.000000
 11
       12.374878
 21
      -28.300020
 31
        0.000000
  0
LINE
  8
LVL0000
 10
        6.674927
 20
      -32.300020
 30
        0.000000
 11
        6.674927
 21
      -28.300020
 31
        0.000000
  0
LINE
  8
LVL0000
 10
        6.474915
 20
      -33.800020
 30
        0.000000
 11
       12.574951
 21
      -33.800020
 31
        0.000000
  0
LINE
  8
LVL0000
 10
        7.174927
 20
      -32.800020
 30
        0.000000
 11
       11.874878
 21
      -32.800020
 31
        0.000000
  0
ARC
  8
LVL0000
 10
        7.174927
 20
      -32.300020
 30
        0.000000
 40
        0.500000
 50
      179.999995
 51
      270.000000
  0
ARC
  8
LVL0000
 10
       11.874878
 20
      -32.300020
 30
        0.000000
 40
        0.500000
 50
      270.000000
 51
      360.000005
  0
ARC
  8
LVL0000
 10
        7.174927
 20
      -28.300020
 30
        0.000000
 40
        0.500000
 50
       90.000000
 51
      179.999995
  0
ARC
  8
LVL0000
 10
       11.874878
 20
      -28.300020
 30
        0.000000
 40
        0.500000
 50
        0.000005
 51
       90.000000
  0
LINE
  8
LVL0000
 10
       12.574951
 20
      -35.800081
 30
        0.000000
 11
       12.574951
 21
      -26.500032
 31
        0.000000
  0
ARC
  8
LVL0000
 10
        8.064941
 20
      -37.600008
 30
        0.000000
 40
        0.500000
 50
        0.000005
 51
       90.000000
  0
ARC
  8
LVL0000
 10
        8.064941
 20
      -41.600008
 30
        0.000000
 40
        0.500000
 50
      270.000000
 51
      360.000005
  0
LINE
  8
LVL0000
 10
        8.564941
 20
      -41.600008
 30
        0.000000
 11
        8.564941
 21
      -37.600008
 31
        0.000000
  0
ARC
  8
LVL0000
 10
        3.364929
 20
      -37.600008
 30
        0.000000
 40
        0.500000
 50
       90.000000
 51
      179.999995
  0
ARC
  8
LVL0000
 10
        3.364929
 20
      -41.600008
 30
        0.000000
 40
        0.500000
 50
      179.999995
 51
      270.000000
  0
CIRCLE
  8
LVL0000
 10
        5.714905
 20
      -39.600008
 30
        0.000000
 40
        2.000000
  0
LINE
  8
LVL0000
 10
        2.864929
 20
      -41.600008
 30
        0.000000
 11
        2.864929
 21
      -37.600008
 31
        0.000000
  0
LINE
  8
LVL0000
 10
        2.664917
 20
      -43.100008
 30
        0.000000
 11
        8.764893
 21
      -43.100008
 31
        0.000000
  0
LINE
  8
LVL0000
 10
        3.364929
 20
      -42.100008
 30
        0.000000
 11
        8.064941
 21
      -42.100008
 31
        0.000000
  0
LINE
  8
LVL0000
 10
        3.364929
 20
      -37.100008
 30
        0.000000
 11
        8.064941
 21
      -37.100008
 31
        0.000000
  0
LINE
  8
LVL0000
 10
        5.007874
 20
      -40.307161
 30
        0.000000
 11
        6.422058
 21
      -38.892915
 31
        0.000000
  0
LINE
  8
LVL0000
 10
        7.129150
 20
      -41.014192
 30
        0.000000
 11
        4.300720
 21
      -38.185762
 31
        0.000000
  0
LINE
  8
LVL0000
 10
        3.319092
 20
      -31.714204
 30
        0.000000
 11
        0.490723
 21
      -28.885774
 31
        0.000000
  0
LINE
  8
LVL0000
 10
        1.197876
 20
      -31.007112
 30
        0.000000
 11
        2.612061
 21
      -29.592928
 31
        0.000000
  0
LINE
  8
LVL0000
 10
       -0.445068
 20
      -27.800020
 30
        0.000000
 11
        4.254883
 21
      -27.800020
 31
        0.000000
  0
CIRCLE
  8
LVL0000
 10
        1.904907
 20
      -30.300020
 30
        0.000000
 40
        2.000000
  0
LINE
  8
LVL0000
 10
        4.754883
 20
      -32.300020
 30
        0.000000
 11
        4.754883
 21
      -28.300020
 31
        0.000000
  0
LINE
  8
LVL0000
 10
       -0.945068
 20
      -32.300020
 30
        0.000000
 11
       -0.945068
 21
      -28.300020
 31
        0.000000
  0
LINE
  8
LVL0000
 10
       -1.145081
 20
      -33.800020
 30
        0.000000
 11
        4.954895
 21
      -33.800020
 31
        0.000000
  0
LINE
  8
LVL0000
 10
       -0.445068
 20
      -32.800020
 30
        0.000000
 11
        4.254883
 21
      -32.800020
 31
        0.000000
  0
ARC
  8
LVL0000
 10
       -0.445068
 20
      -32.300020
 30
        0.000000
 40
        0.500000
 50
      179.999995
 51
      270.000000
  0
ARC
  8
LVL0000
 10
        4.254883
 20
      -32.300020
 30
        0.000000
 40
        0.500000
 50
      270.000000
 51
      360.000005
  0
ARC
  8
LVL0000
 10
       -0.445068
 20
      -28.300020
 30
        0.000000
 40
        0.500000
 50
       90.000000
 51
      179.999995
  0
ARC
  8
LVL0000
 10
        4.254883
 20
      -28.300020
 30
        0.000000
 40
        0.500000
 50
        0.000005
 51
       90.000000
  0
LINE
  8
LVL0000
 10
        4.954895
 20
      -35.800081
 30
        0.000000
 11
        4.954895
 21
      -26.500032
 31
        0.000000
  0
ARC
  8
LVL0000
 10
        0.444946
 20
      -37.600008
 30
        0.000000
 40
        0.500000
 50
        0.000005
 51
       90.000000
  0
ARC
  8
LVL0000
 10
        0.444946
 20
      -41.600008
 30
        0.000000
 40
        0.500000
 50
      270.000000
 51
      360.000005
  0
LINE
  8
LVL0000
 10
        0.944946
 20
      -41.600008
 30
        0.000000
 11
        0.944946
 21
      -37.600008
 31
        0.000000
  0
ARC
  8
LVL0000
 10
       -4.255066
 20
      -37.600008
 30
        0.000000
 40
        0.500000
 50
       90.000000
 51
      179.999995
  0
ARC
  8
LVL0000
 10
       -4.255066
 20
      -41.600008
 30
        0.000000
 40
        0.500000
 50
      179.999995
 51
      270.000000
  0
CIRCLE
  8
LVL0000
 10
       -1.905090
 20
      -39.600008
 30
        0.000000
 40
        2.000000
  0
LINE
  8
LVL0000
 10
       -4.755066
 20
      -41.600008
 30
        0.000000
 11
       -4.755066
 21
      -37.600008
 31
        0.000000
  0
LINE
  8
LVL0000
 10
       -4.955078
 20
      -43.100008
 30
        0.000000
 11
        1.144897
 21
      -43.100008
 31
        0.000000
  0
LINE
  8
LVL0000
 10
       -4.255066
 20
      -42.100008
 30
        0.000000
 11
        0.444946
 21
      -42.100008
 31
        0.000000
  0
LINE
  8
LVL0000
 10
       -4.255066
 20
      -37.100008
 30
        0.000000
 11
        0.444946
 21
      -37.100008
 31
        0.000000
  0
LINE
  8
LVL0000
 10
       -2.612122
 20
      -40.307161
 30
        0.000000
 11
       -1.197937
 21
      -38.892915
 31
        0.000000
  0
LINE
  8
LVL0000
 10
       -0.490845
 20
      -41.014192
 30
        0.000000
 11
       -3.319275
 21
      -38.185762
 31
        0.000000
  0
LINE
  8
LVL0000
 10
       -4.300903
 20
      -31.714204
 30
        0.000000
 11
       -7.129272
 21
      -28.885774
 31
        0.000000
  0
LINE
  8
LVL0000
 10
       -6.422119
 20
      -31.007112
 30
        0.000000
 11
       -5.007935
 21
      -29.592928
 31
        0.000000
  0
LINE
  8
LVL0000
 10
       -8.065063
 20
      -27.800020
 30
        0.000000
 11
       -3.365112
 21
      -27.800020
 31
        0.000000
  0
CIRCLE
  8
LVL0000
 10
       -5.715088
 20
      -30.300020
 30
        0.000000
 40
        2.000000
  0
LINE
  8
LVL0000
 10
       -2.865112
 20
      -32.300020
 30
        0.000000
 11
       -2.865112
 21
      -28.300020
 31
        0.000000
  0
LINE
  8
LVL0000
 10
       -8.565063
 20
      -32.300020
 30
        0.000000
 11
       -8.565063
 21
      -28.300020
 31
        0.000000
  0
LINE
  8
LVL0000
 10
       -8.765137
 20
      -33.800020
 30
        0.000000
 11
       -2.665100
 21
      -33.800020
 31
        0.000000
  0
LINE
  8
LVL0000
 10
       -8.065063
 20
      -32.800020
 30
        0.000000
 11
       -3.365112
 21
      -32.800020
 31
        0.000000
  0
ARC
  8
LVL0000
 10
       -8.065063
 20
      -32.300020
 30
        0.000000
 40
        0.500000
 50
      179.999995
 51
      270.000000
  0
ARC
  8
LVL0000
 10
       -3.365112
 20
      -32.300020
 30
        0.000000
 40
        0.500000
 50
      270.000000
 51
      360.000005
  0
ARC
  8
LVL0000
 10
       -8.065063
 20
      -28.300020
 30
        0.000000
 40
        0.500000
 50
       90.000000
 51
      179.999995
  0
ARC
  8
LVL0000
 10
       -3.365112
 20
      -28.300020
 30
        0.000000
 40
        0.500000
 50
        0.000005
 51
       90.000000
  0
LINE
  8
LVL0000
 10
       -2.665100
 20
      -35.800081
 30
        0.000000
 11
       -2.665100
 21
      -26.500032
 31
        0.000000
  0
ARC
  8
LVL0000
 10
       -7.175049
 20
      -37.600008
 30
        0.000000
 40
        0.500000
 50
        0.000005
 51
       90.000000
  0
ARC
  8
LVL0000
 10
       -7.175049
 20
      -41.600008
 30
        0.000000
 40
        0.500000
 50
      270.000000
 51
      360.000005
  0
LINE
  8
LVL0000
 10
       -6.675049
 20
      -41.600008
 30
        0.000000
 11
       -6.675049
 21
      -37.600008
 31
        0.000000
  0
ARC
  8
LVL0000
 10
      -11.875122
 20
      -37.600008
 30
        0.000000
 40
        0.500000
 50
       90.000000
 51
      179.999995
  0
ARC
  8
LVL0000
 10
      -11.875122
 20
      -41.600008
 30
        0.000000
 40
        0.500000
 50
      179.999995
 51
      270.000000
  0
CIRCLE
  8
LVL0000
 10
       -9.525085
 20
      -39.600008
 30
        0.000000
 40
        2.000000
  0
LINE
  8
LVL0000
 10
      -12.375122
 20
      -41.600008
 30
        0.000000
 11
      -12.375122
 21
      -37.600008
 31
        0.000000
  0
LINE
  8
LVL0000
 10
      -12.575073
 20
      -43.100008
 30
        0.000000
 11
       -6.475098
 21
      -43.100008
 31
        0.000000
  0
LINE
  8
LVL0000
 10
      -11.875122
 20
      -42.100008
 30
        0.000000
 11
       -7.175049
 21
      -42.100008
 31
        0.000000
  0
LINE
  8
LVL0000
 10
      -11.875122
 20
      -37.100008
 30
        0.000000
 11
       -7.175049
 21
      -37.100008
 31
        0.000000
  0
LINE
  8
LVL0000
 10
      -10.232178
 20
      -40.307161
 30
        0.000000
 11
       -8.817932
 21
      -38.892915
 31
        0.000000
  0
LINE
  8
LVL0000
 10
       -8.110840
 20
      -41.014192
 30
        0.000000
 11
      -10.939331
 21
      -38.185762
 31
        0.000000
  0
LINE
  8
LVL0000
 10
      -11.920898
 20
      -31.714204
 30
        0.000000
 11
      -14.749268
 21
      -28.885774
 31
        0.000000
  0
LINE
  8
LVL0000
 10
      -14.042114
 20
      -31.007112
 30
        0.000000
 11
      -12.627930
 21
      -29.592928
 31
        0.000000
  0
LINE
  8
LVL0000
 10
      -15.685059
 20
      -27.800020
 30
        0.000000
 11
      -10.985107
 21
      -27.800020
 31
        0.000000
  0
CIRCLE
  8
LVL0000
 10
      -13.335083
 20
      -30.300020
 30
        0.000000
 40
        2.000000
  0
LINE
  8
LVL0000
 10
      -10.485107
 20
      -32.300020
 30
        0.000000
 11
      -10.485107
 21
      -28.300020
 31
        0.000000
  0
LINE
  8
LVL0000
 10
      -16.185059
 20
      -32.300020
 30
        0.000000
 11
      -16.185059
 21
      -28.300020
 31
        0.000000
  0
LINE
  8
LVL0000
 10
      -16.385132
 20
      -33.800020
 30
        0.000000
 11
      -10.285095
 21
      -33.800020
 31
        0.000000
  0
LINE
  8
LVL0000
 10
      -15.685059
 20
      -32.800020
 30
        0.000000
 11
      -10.985107
 21
      -32.800020
 31
        0.000000
  0
ARC
  8
LVL0000
 10
      -15.685059
 20
      -32.300020
 30
        0.000000
 40
        0.500000
 50
      179.999995
 51
      270.000000
  0
ARC
  8
LVL0000
 10
      -10.985107
 20
      -32.300020
 30
        0.000000
 40
        0.500000
 50
      270.000000
 51
      360.000005
  0
ARC
  8
LVL0000
 10
      -15.685059
 20
      -28.300020
 30
        0.000000
 40
        0.500000
 50
       90.000000
 51
      179.999995
  0
ARC
  8
LVL0000
 10
      -10.985107
 20
      -28.300020
 30
        0.000000
 40
        0.500000
 50
        0.000005
 51
       90.000000
  0
LINE
  8
LVL0000
 10
      -10.285095
 20
      -35.800081
 30
        0.000000
 11
      -10.285095
 21
      -26.500032
 31
        0.000000
  0
ARC
  8
LVL0000
 10
      -14.795044
 20
      -37.600008
 30
        0.000000
 40
        0.500000
 50
        0.000005
 51
       90.000000
  0
ARC
  8
LVL0000
 10
      -14.795044
 20
      -41.600008
 30
        0.000000
 40
        0.500000
 50
      270.000000
 51
      360.000005
  0
LINE
  8
LVL0000
 10
      -14.295044
 20
      -41.600008
 30
        0.000000
 11
      -14.295044
 21
      -37.600008
 31
        0.000000
  0
ARC
  8
LVL0000
 10
      -19.495117
 20
      -37.600008
 30
        0.000000
 40
        0.500000
 50
       90.000000
 51
      179.999995
  0
ARC
  8
LVL0000
 10
      -19.495117
 20
      -41.600008
 30
        0.000000
 40
        0.500000
 50
      179.999995
 51
      270.000000
  0
CIRCLE
  8
LVL0000
 10
      -17.145142
 20
      -39.600008
 30
        0.000000
 40
        2.000000
  0
LINE
  8
LVL0000
 10
      -19.995117
 20
      -41.600008
 30
        0.000000
 11
      -19.995117
 21
      -37.600008
 31
        0.000000
  0
LINE
  8
LVL0000
 10
      -20.195068
 20
      -43.100008
 30
        0.000000
 11
      -14.095093
 21
      -43.100008
 31
        0.000000
  0
LINE
  8
LVL0000
 10
      -19.495117
 20
      -42.100008
 30
        0.000000
 11
      -14.795044
 21
      -42.100008
 31
        0.000000
  0
LINE
  8
LVL0000
 10
      -19.495117
 20
      -37.100008
 30
        0.000000
 11
      -14.795044
 21
      -37.100008
 31
        0.000000
  0
LINE
  8
LVL0000
 10
      -17.852173
 20
      -40.307161
 30
        0.000000
 11
      -16.437988
 21
      -38.892915
 31
        0.000000
  0
LINE
  8
LVL0000
 10
      -15.730835
 20
      -41.014192
 30
        0.000000
 11
      -18.559326
 21
      -38.185762
 31
        0.000000
  0
LINE
  8
LVL0000
 10
      -19.540894
 20
      -31.714204
 30
        0.000000
 11
      -22.369263
 21
      -28.885774
 31
        0.000000
  0
LINE
  8
LVL0000
 10
      -21.662109
 20
      -31.007112
 30
        0.000000
 11
      -20.247925
 21
      -29.592928
 31
        0.000000
  0
LINE
  8
LVL0000
 10
      -23.305054
 20
      -27.800020
 30
        0.000000
 11
      -18.605103
 21
      -27.800020
 31
        0.000000
  0
CIRCLE
  8
LVL0000
 10
      -20.955078
 20
      -30.300020
 30
        0.000000
 40
        2.000000
  0
LINE
  8
LVL0000
 10
      -18.105103
 20
      -32.300020
 30
        0.000000
 11
      -18.105103
 21
      -28.300020
 31
        0.000000
  0
LINE
  8
LVL0000
 10
      -23.805054
 20
      -32.300020
 30
        0.000000
 11
      -23.805054
 21
      -28.300020
 31
        0.000000
  0
LINE
  8
LVL0000
 10
      -24.005127
 20
      -33.800020
 30
        0.000000
 11
      -17.905151
 21
      -33.800020
 31
        0.000000
  0
LINE
  8
LVL0000
 10
      -23.305054
 20
      -32.800020
 30
        0.000000
 11
      -18.605103
 21
      -32.800020
 31
        0.000000
  0
ARC
  8
LVL0000
 10
      -23.305054
 20
      -32.300020
 30
        0.000000
 40
        0.500000
 50
      179.999995
 51
      270.000000
  0
ARC
  8
LVL0000
 10
      -18.605103
 20
      -32.300020
 30
        0.000000
 40
        0.500000
 50
      270.000000
 51
      360.000005
  0
ARC
  8
LVL0000
 10
      -23.305054
 20
      -28.300020
 30
        0.000000
 40
        0.500000
 50
       90.000000
 51
      179.999995
  0
ARC
  8
LVL0000
 10
      -18.605103
 20
      -28.300020
 30
        0.000000
 40
        0.500000
 50
        0.000005
 51
       90.000000
  0
LINE
  8
LVL0000
 10
      -17.905151
 20
      -35.800081
 30
        0.000000
 11
      -17.905151
 21
      -26.500032
 31
        0.000000
  0
ARC
  8
LVL0000
 10
      -22.415100
 20
      -37.600008
 30
        0.000000
 40
        0.500000
 50
        0.000005
 51
       90.000000
  0
ARC
  8
LVL0000
 10
      -22.415100
 20
      -41.600008
 30
        0.000000
 40
        0.500000
 50
      270.000000
 51
      360.000005
  0
LINE
  8
LVL0000
 10
      -21.915100
 20
      -41.600008
 30
        0.000000
 11
      -21.915100
 21
      -37.600008
 31
        0.000000
  0
ARC
  8
LVL0000
 10
      -27.115112
 20
      -37.600008
 30
        0.000000
 40
        0.500000
 50
       90.000000
 51
      179.999995
  0
ARC
  8
LVL0000
 10
      -27.115112
 20
      -41.600008
 30
        0.000000
 40
        0.500000
 50
      179.999995
 51
      270.000000
  0
CIRCLE
  8
LVL0000
 10
      -24.765137
 20
      -39.600008
 30
        0.000000
 40
        2.000000
  0
LINE
  8
LVL0000
 10
      -27.615112
 20
      -41.600008
 30
        0.000000
 11
      -27.615112
 21
      -37.600008
 31
        0.000000
  0
LINE
  8
LVL0000
 10
      -27.815063
 20
      -43.100008
 30
        0.000000
 11
      -21.715088
 21
      -43.100008
 31
        0.000000
  0
LINE
  8
LVL0000
 10
      -27.115112
 20
      -42.100008
 30
        0.000000
 11
      -22.415100
 21
      -42.100008
 31
        0.000000
  0
LINE
  8
LVL0000
 10
      -27.115112
 20
      -37.100008
 30
        0.000000
 11
      -22.415100
 21
      -37.100008
 31
        0.000000
  0
LINE
  8
LVL0000
 10
      -25.472168
 20
      -40.307161
 30
        0.000000
 11
      -24.057983
 21
      -38.892915
 31
        0.000000
  0
LINE
  8
LVL0000
 10
      -23.350830
 20
      -41.014192
 30
        0.000000
 11
      -26.179321
 21
      -38.185762
 31
        0.000000
  0
LINE
  8
LVL0000
 10
      -27.160889
 20
      -31.714204
 30
        0.000000
 11
      -29.989319
 21
      -28.885774
 31
        0.000000
  0
LINE
  8
LVL0000
 10
      -29.282166
 20
      -31.007112
 30
        0.000000
 11
      -27.867920
 21
      -29.592928
 31
        0.000000
  0
LINE
  8
LVL0000
 10
      -30.925049
 20
      -27.800020
 30
        0.000000
 11
      -26.225098
 21
      -27.800020
 31
        0.000000
  0
CIRCLE
  8
LVL0000
 10
      -28.575073
 20
      -30.300020
 30
        0.000000
 40
        2.000000
  0
LINE
  8
LVL0000
 10
      -25.725098
 20
      -32.300020
 30
        0.000000
 11
      -25.725098
 21
      -28.300020
 31
        0.000000
  0
LINE
  8
LVL0000
 10
      -31.425049
 20
      -32.300020
 30
        0.000000
 11
      -31.425049
 21
      -28.300020
 31
        0.000000
  0
LINE
  8
LVL0000
 10
      -31.625122
 20
      -33.800020
 30
        0.000000
 11
      -25.525146
 21
      -33.800020
 31
        0.000000
  0
LINE
  8
LVL0000
 10
      -30.925049
 20
      -32.800020
 30
        0.000000
 11
      -26.225098
 21
      -32.800020
 31
        0.000000
  0
ARC
  8
LVL0000
 10
      -30.925049
 20
      -32.300020
 30
        0.000000
 40
        0.500000
 50
      179.999995
 51
      270.000000
  0
ARC
  8
LVL0000
 10
      -26.225098
 20
      -32.300020
 30
        0.000000
 40
        0.500000
 50
      270.000000
 51
      360.000005
  0
ARC
  8
LVL0000
 10
      -30.925049
 20
      -28.300020
 30
        0.000000
 40
        0.500000
 50
       90.000000
 51
      179.999995
  0
ARC
  8
LVL0000
 10
      -26.225098
 20
      -28.300020
 30
        0.000000
 40
        0.500000
 50
        0.000005
 51
       90.000000
  0
LINE
  8
LVL0000
 10
      -25.525146
 20
      -35.800081
 30
        0.000000
 11
      -25.525146
 21
      -26.500032
 31
        0.000000
  0
ARC
  8
LVL0000
 10
      -30.035095
 20
      -37.600008
 30
        0.000000
 40
        0.500000
 50
        0.000005
 51
       90.000000
  0
ARC
  8
LVL0000
 10
      -30.035095
 20
      -41.600008
 30
        0.000000
 40
        0.500000
 50
      270.000000
 51
      360.000005
  0
LINE
  8
LVL0000
 10
      -29.535095
 20
      -41.600008
 30
        0.000000
 11
      -29.535095
 21
      -37.600008
 31
        0.000000
  0
ARC
  8
LVL0000
 10
      -34.735107
 20
      -37.600008
 30
        0.000000
 40
        0.500000
 50
       90.000000
 51
      179.999995
  0
ARC
  8
LVL0000
 10
      -34.735107
 20
      -41.600008
 30
        0.000000
 40
        0.500000
 50
      179.999995
 51
      270.000000
  0
CIRCLE
  8
LVL0000
 10
      -32.385132
 20
      -39.600008
 30
        0.000000
 40
        2.000000
  0
LINE
  8
LVL0000
 10
      -35.235107
 20
      -41.600008
 30
        0.000000
 11
      -35.235107
 21
      -37.600008
 31
        0.000000
  0
LINE
  8
LVL0000
 10
      -35.435059
 20
      -43.100008
 30
        0.000000
 11
      -29.335083
 21
      -43.100008
 31
        0.000000
  0
LINE
  8
LVL0000
 10
      -34.735107
 20
      -42.100008
 30
        0.000000
 11
      -30.035095
 21
      -42.100008
 31
        0.000000
  0
LINE
  8
LVL0000
 10
      -34.735107
 20
      -37.100008
 30
        0.000000
 11
      -30.035095
 21
      -37.100008
 31
        0.000000
  0
LINE
  8
LVL0000
 10
      -33.092163
 20
      -40.307161
 30
        0.000000
 11
      -31.677979
 21
      -38.892915
 31
        0.000000
  0
LINE
  8
LVL0000
 10
      -30.970825
 20
      -41.014192
 30
        0.000000
 11
      -33.799316
 21
      -38.185762
 31
        0.000000
  0
LINE
  8
LVL0000
 10
      -34.780884
 20
      -31.714204
 30
        0.000000
 11
      -37.609314
 21
      -28.885774
 31
        0.000000
  0
LINE
  8
LVL0000
 10
      -36.902161
 20
      -31.007112
 30
        0.000000
 11
      -35.487915
 21
      -29.592928
 31
        0.000000
  0
LINE
  8
LVL0000
 10
      -38.545044
 20
      -27.800020
 30
        0.000000
 11
      -33.845093
 21
      -27.800020
 31
        0.000000
  0
CIRCLE
  8
LVL0000
 10
      -36.195068
 20
      -30.300020
 30
        0.000000
 40
        2.000000
  0
LINE
  8
LVL0000
 10
      -33.345093
 20
      -32.300020
 30
        0.000000
 11
      -33.345093
 21
      -28.300020
 31
        0.000000
  0
LINE
  8
LVL0000
 10
      -39.045044
 20
      -32.300020
 30
        0.000000
 11
      -39.045044
 21
      -28.300020
 31
        0.000000
  0
LINE
  8
LVL0000
 10
      -39.245117
 20
      -33.800020
 30
        0.000000
 11
      -33.145142
 21
      -33.800020
 31
        0.000000
  0
LINE
  8
LVL0000
 10
      -38.545044
 20
      -32.800020
 30
        0.000000
 11
      -33.845093
 21
      -32.800020
 31
        0.000000
  0
ARC
  8
LVL0000
 10
      -38.545044
 20
      -32.300020
 30
        0.000000
 40
        0.500000
 50
      179.999995
 51
      270.000000
  0
ARC
  8
LVL0000
 10
      -33.845093
 20
      -32.300020
 30
        0.000000
 40
        0.500000
 50
      270.000000
 51
      360.000005
  0
ARC
  8
LVL0000
 10
      -38.545044
 20
      -28.300020
 30
        0.000000
 40
        0.500000
 50
       90.000000
 51
      179.999995
  0
ARC
  8
LVL0000
 10
      -33.845093
 20
      -28.300020
 30
        0.000000
 40
        0.500000
 50
        0.000005
 51
       90.000000
  0
LINE
  8
LVL0000
 10
      -33.145142
 20
      -35.800081
 30
        0.000000
 11
      -33.145142
 21
      -26.500032
 31
        0.000000
  0
LINE
  8
LVL0000
 10
      -39.245117
 20
      -35.800081
 30
        0.000000
 11
       39.244934
 21
      -35.800081
 31
        0.000000
  0
LINE
  8
LVL0000
 10
      -39.245117
 20
      -45.000008
 30
        0.000000
 11
      -39.245117
 21
      -26.500032
 31
        0.000000
  0
LINE
  8
LVL0000
 10
      -40.900146
 20
      -45.000008
 30
        0.000000
 11
      -40.900146
 21
      -25.500032
 31
        0.000000
  0
LINE
  8
LVL0000
 10
       40.899902
 20
      -45.000008
 30
        0.000000
 11
       40.899902
 21
      -25.500032
 31
        0.000000
  0
LINE
  8
LVL0000
 10
       39.244934
 20
      -26.500032
 30
        0.000000
 11
      -39.245117
 21
      -26.500032
 31
        0.000000
  0
LINE
  8
LVL0000
 10
       55.000000
 20
       36.000000
 30
        0.000000
 11
       50.000000
 21
       36.000000
 31
        0.000000
  0
ARC
  8
LVL0000
 10
       50.000000
 20
       40.000000
 30
        0.000000
 40
        4.000000
 50
      179.999995
 51
      270.000000
  0
LINE
  8
LVL0000
 10
       46.000000
 20
       40.000000
 30
        0.000000
 11
       46.000000
 21
       45.000000
 31
        0.000000
  0
LINE
  8
LVL0000
 10
      -46.000000
 20
      -40.000000
 30
        0.000000
 11
      -46.000000
 21
      -45.000000
 31
        0.000000
  0
ARC
  8
LVL0000
 10
      -50.000000
 20
      -40.000000
 30
        0.000000
 40
        4.000000
 50
        0.000000
 51
       90.000000
  0
LINE
  8
LVL0000
 10
      -55.000000
 20
      -36.000000
 30
        0.000000
 11
      -50.000000
 21
      -36.000000
 31
        0.000000
  0
LINE
  8
LVL0000
  6
CONTINUOUS
 10
      171.999992
 20
       32.999992
 30
        0.000000
 11
      171.999992
 21
      -33.000008
 31
        0.000000
  0
LINE
  8
LVL0000
  6
CONTINUOUS
 10
      171.999992
 20
       45.000000
 30
        0.000000
 11
      171.999992
 21
       35.999992
 31
        0.000000
  0
LINE
  8
LVL0000
  6
CONTINUOUS
 10
      171.999992
 20
      -33.000008
 30
        0.000000
 11
      149.499992
 21
      -33.000008
 31
        0.000000
  0
LINE
  8
LVL0000
  6
CONTINUOUS
 10
      171.999992
 20
       32.999992
 30
        0.000000
 11
      149.499992
 21
       32.999992
 31
        0.000000
  0
LINE
  8
LVL0000
  6
CONTINUOUS
 10
      149.499992
 20
       32.999992
 30
        0.000000
 11
      149.499992
 21
      -33.000008
 31
        0.000000
  0
LINE
  8
LVL0000
  6
CONTINUOUS
 10
      152.499992
 20
       32.999992
 30
        0.000000
 11
      152.499992
 21
      -33.000008
 31
        0.000000
  0
LINE
  8
LVL0000
  6
CONTINUOUS
 10
      150.999992
 20
       32.999992
 30
        0.000000
 11
      150.999992
 21
      -33.000008
 31
        0.000000
  0
LINE
  8
LVL0000
  6
CONTINUOUS
 10
      153.999992
 20
       32.999992
 30
        0.000000
 11
      153.999992
 21
      -33.000008
 31
        0.000000
  0
LINE
  8
LVL0000
  6
CONTINUOUS
 10
      155.499992
 20
       32.999992
 30
        0.000000
 11
      155.499992
 21
      -33.000008
 31
        0.000000
  0
LINE
  8
LVL0000
  6
CONTINUOUS
 10
      158.499992
 20
       32.999992
 30
        0.000000
 11
      158.499992
 21
      -33.000008
 31
        0.000000
  0
LINE
  8
LVL0000
  6
CONTINUOUS
 10
      156.999992
 20
       32.999992
 30
        0.000000
 11
      156.999992
 21
      -33.000008
 31
        0.000000
  0
LINE
  8
LVL0000
  6
CONTINUOUS
 10
      159.999992
 20
       32.999992
 30
        0.000000
 11
      159.999992
 21
      -33.000008
 31
        0.000000
  0
LINE
  8
LVL0000
  6
CONTINUOUS
 10
      161.499992
 20
       32.999992
 30
        0.000000
 11
      161.499992
 21
      -33.000008
 31
        0.000000
  0
LINE
  8
LVL0000
  6
CONTINUOUS
 10
      164.499992
 20
       32.999992
 30
        0.000000
 11
      164.499992
 21
      -33.000008
 31
        0.000000
  0
LINE
  8
LVL0000
  6
CONTINUOUS
 10
      162.999992
 20
       32.999992
 30
        0.000000
 11
      162.999992
 21
      -33.000008
 31
        0.000000
  0
LINE
  8
LVL0000
  6
CONTINUOUS
 10
      165.999992
 20
       32.999992
 30
        0.000000
 11
      165.999992
 21
      -33.000008
 31
        0.000000
  0
LINE
  8
LVL0000
  6
CONTINUOUS
 10
      167.499992
 20
       32.999992
 30
        0.000000
 11
      167.499992
 21
      -33.000008
 31
        0.000000
  0
LINE
  8
LVL0000
  6
CONTINUOUS
 10
      170.499992
 20
       32.999992
 30
        0.000000
 11
      170.499992
 21
      -33.000008
 31
        0.000000
  0
LINE
  8
LVL0000
  6
CONTINUOUS
 10
      168.999992
 20
       32.999992
 30
        0.000000
 11
      168.999992
 21
      -33.000008
 31
        0.000000
  0
LINE
  8
LVL0000
  6
CONTINUOUS
 10
      179.999992
 20
       45.000000
 30
        0.000000
 11
      123.499992
 21
       45.000000
 31
        0.000000
  0
LINE
  8
LVL0000
  6
CONTINUOUS
 10
      -46.000015
 20
     -103.000015
 30
        0.000000
 11
      -46.000015
 21
      -97.500008
 31
        0.000000
  0
LINE
  8
LVL0000
  6
CONTINUOUS
 10
       41.249992
 20
     -131.000008
 30
        0.000000
 11
      -41.250008
 21
     -131.000008
 31
        0.000000
  0
LINE
  8
LVL0000
  6
CONTINUOUS
 10
       41.249992
 20
     -132.500008
 30
        0.000000
 11
      -41.250008
 21
     -132.500008
 31
        0.000000
  0
LINE
  8
LVL0000
  6
CONTINUOUS
 10
       41.249992
 20
     -134.000008
 30
        0.000000
 11
      -41.250008
 21
     -134.000008
 31
        0.000000
  0
LINE
  8
LVL0000
  6
CONTINUOUS
 10
       41.249992
 20
     -135.500008
 30
        0.000000
 11
      -41.250008
 21
     -135.500008
 31
        0.000000
  0
LINE
  8
LVL0000
  6
CONTINUOUS
 10
       41.249992
 20
     -137.000008
 30
        0.000000
 11
      -41.250008
 21
     -137.000008
 31
        0.000000
  0
LINE
  8
LVL0000
  6
CONTINUOUS
 10
       41.249992
 20
     -138.500008
 30
        0.000000
 11
      -41.250008
 21
     -138.500008
 31
        0.000000
  0
LINE
  8
LVL0000
  6
CONTINUOUS
 10
       41.249992
 20
     -140.000008
 30
        0.000000
 11
      -41.250008
 21
     -140.000008
 31
        0.000000
  0
LINE
  8
LVL0000
  6
CONTINUOUS
 10
       41.249992
 20
     -141.500008
 30
        0.000000
 11
      -41.250008
 21
     -141.500008
 31
        0.000000
  0
LINE
  8
LVL0000
  6
CONTINUOUS
 10
       41.249992
 20
     -143.000008
 30
        0.000000
 11
      -41.250008
 21
     -143.000008
 31
        0.000000
  0
LINE
  8
LVL0000
  6
CONTINUOUS
 10
       41.249992
 20
     -144.500008
 30
        0.000000
 11
      -41.250008
 21
     -144.500008
 31
        0.000000
  0
LINE
  8
LVL0000
  6
CONTINUOUS
 10
       41.249992
 20
     -146.000008
 30
        0.000000
 11
      -41.250008
 21
     -146.000008
 31
        0.000000
  0
LINE
  8
LVL0000
  6
CONTINUOUS
 10
       41.249992
 20
     -147.500008
 30
        0.000000
 11
      -41.250008
 21
     -147.500008
 31
        0.000000
  0
LINE
  8
LVL0000
  6
CONTINUOUS
 10
       41.249992
 20
     -149.000008
 30
        0.000000
 11
      -41.250008
 21
     -149.000008
 31
        0.000000
  0
LINE
  8
LVL0000
  6
CONTINUOUS
 10
       41.249992
 20
     -150.500008
 30
        0.000000
 11
      -41.250008
 21
     -150.500008
 31
        0.000000
  0
LINE
  8
LVL0000
  6
CONTINUOUS
 10
       41.249992
 20
     -129.500008
 30
        0.000000
 11
      -41.250008
 21
     -129.500008
 31
        0.000000
  0
LINE
  8
LVL0000
  6
CONTINUOUS
 10
       41.249992
 20
     -152.000008
 30
        0.000000
 11
      -41.250008
 21
     -152.000008
 31
        0.000000
  0
LINE
  8
LVL0000
  6
CONTINUOUS
 10
       41.249992
 20
     -152.000008
 30
        0.000000
 11
       41.249992
 21
     -129.500008
 31
        0.000000
  0
LINE
  8
LVL0000
  6
CONTINUOUS
 10
      -46.000015
 20
     -152.000008
 30
        0.000000
 11
      -55.000000
 21
     -152.000008
 31
        0.000000
  0
LINE
  8
LVL0000
  6
CONTINUOUS
 10
      -41.250008
 20
     -152.000008
 30
        0.000000
 11
      -41.250008
 21
     -129.500008
 31
        0.000000
  0
LINE
  8
LVL0000
  6
CONTINUOUS
 10
      -55.000000
 20
     -160.000008
 30
        0.000000
 11
      -55.000000
 21
     -103.500015
 31
        0.000000
  0
LINE
  8
LVL0000
  6
CONTINUOUS
 10
       52.500000
 20
      -23.700008
 30
        0.000000
 11
       52.500000
 21
      -19.100008
 31
        0.000000
  0
LINE
  8
LVL0000
  6
CONTINUOUS
 10
       52.500000
 20
      -19.100008
 30
        0.000000
 11
       55.000000
 21
      -19.100008
 31
        0.000000
  0
LINE
  8
LVL0000
  6
CONTINUOUS
 10
       53.000000
 20
       19.099992
 30
        0.000000
 11
       55.000000
 21
       19.099992
 31
        0.000000
  0
LINE
  8
LVL0000
  6
CONTINUOUS
 10
        9.999992
 20
     -131.000008
 30
        0.000000
 11
        9.999992
 21
     -129.500008
 31
        0.000000
  0
LINE
  8
LVL0000
  6
CONTINUOUS
 10
       21.499992
 20
     -131.000008
 30
        0.000000
 11
       21.499992
 21
     -129.500008
 31
        0.000000
  0
LINE
  8
LVL0000
  6
CONTINUOUS
 10
      -10.000008
 20
     -131.000008
 30
        0.000000
 11
      -10.000008
 21
     -129.500008
 31
        0.000000
  0
LINE
  8
LVL0000
  6
CONTINUOUS
 10
      -21.500008
 20
     -131.000008
 30
        0.000000
 11
      -21.500008
 21
     -129.500008
 31
        0.000000
  0
LINE
  8
LVL0000
  6
CONTINUOUS
 10
      -21.500008
 20
     -134.000008
 30
        0.000000
 11
      -21.500008
 21
     -132.500008
 31
        0.000000
  0
LINE
  8
LVL0000
  6
CONTINUOUS
 10
      -10.000008
 20
     -134.000008
 30
        0.000000
 11
      -10.000008
 21
     -132.500008
 31
        0.000000
  0
LINE
  8
LVL0000
  6
CONTINUOUS
 10
       21.499992
 20
     -134.000008
 30
        0.000000
 11
       21.499992
 21
     -132.500008
 31
        0.000000
  0
LINE
  8
LVL0000
  6
CONTINUOUS
 10
        9.999992
 20
     -134.000008
 30
        0.000000
 11
        9.999992
 21
     -132.500008
 31
        0.000000
  0
LINE
  8
LVL0000
  6
CONTINUOUS
 10
        9.999992
 20
     -137.000008
 30
        0.000000
 11
        9.999992
 21
     -135.500008
 31
        0.000000
  0
LINE
  8
LVL0000
  6
CONTINUOUS
 10
       21.499992
 20
     -137.000008
 30
        0.000000
 11
       21.499992
 21
     -135.500008
 31
        0.000000
  0
LINE
  8
LVL0000
  6
CONTINUOUS
 10
      -10.000008
 20
     -137.000008
 30
        0.000000
 11
      -10.000008
 21
     -135.500008
 31
        0.000000
  0
LINE
  8
LVL0000
  6
CONTINUOUS
 10
      -21.500008
 20
     -137.000008
 30
        0.000000
 11
      -21.500008
 21
     -135.500008
 31
        0.000000
  0
LINE
  8
LVL0000
  6
CONTINUOUS
 10
      -21.500008
 20
     -140.000008
 30
        0.000000
 11
      -21.500008
 21
     -138.500008
 31
        0.000000
  0
LINE
  8
LVL0000
  6
CONTINUOUS
 10
      -10.000008
 20
     -140.000008
 30
        0.000000
 11
      -10.000008
 21
     -138.500008
 31
        0.000000
  0
LINE
  8
LVL0000
  6
CONTINUOUS
 10
       21.499992
 20
     -140.000008
 30
        0.000000
 11
       21.499992
 21
     -138.500008
 31
        0.000000
  0
LINE
  8
LVL0000
  6
CONTINUOUS
 10
        9.999992
 20
     -140.000008
 30
        0.000000
 11
        9.999992
 21
     -138.500008
 31
        0.000000
  0
LINE
  8
LVL0000
  6
CONTINUOUS
 10
        9.999992
 20
     -143.000008
 30
        0.000000
 11
        9.999992
 21
     -141.500008
 31
        0.000000
  0
LINE
  8
LVL0000
  6
CONTINUOUS
 10
       21.499992
 20
     -143.000008
 30
        0.000000
 11
       21.499992
 21
     -141.500008
 31
        0.000000
  0
LINE
  8
LVL0000
  6
CONTINUOUS
 10
      -10.000008
 20
     -143.000008
 30
        0.000000
 11
      -10.000008
 21
     -141.500008
 31
        0.000000
  0
LINE
  8
LVL0000
  6
CONTINUOUS
 10
      -21.500008
 20
     -143.000008
 30
        0.000000
 11
      -21.500008
 21
     -141.500008
 31
        0.000000
  0
LINE
  8
LVL0000
  6
CONTINUOUS
 10
      -21.500008
 20
     -146.000008
 30
        0.000000
 11
      -21.500008
 21
     -144.500008
 31
        0.000000
  0
LINE
  8
LVL0000
  6
CONTINUOUS
 10
      -10.000008
 20
     -146.000008
 30
        0.000000
 11
      -10.000008
 21
     -144.500008
 31
        0.000000
  0
LINE
  8
LVL0000
  6
CONTINUOUS
 10
       21.499992
 20
     -146.000008
 30
        0.000000
 11
       21.499992
 21
     -144.500008
 31
        0.000000
  0
LINE
  8
LVL0000
  6
CONTINUOUS
 10
        9.999992
 20
     -146.000008
 30
        0.000000
 11
        9.999992
 21
     -144.500008
 31
        0.000000
  0
LINE
  8
LVL0000
  6
CONTINUOUS
 10
        9.999992
 20
     -149.000008
 30
        0.000000
 11
        9.999992
 21
     -147.500008
 31
        0.000000
  0
LINE
  8
LVL0000
  6
CONTINUOUS
 10
       21.499992
 20
     -149.000008
 30
        0.000000
 11
       21.499992
 21
     -147.500008
 31
        0.000000
  0
LINE
  8
LVL0000
  6
CONTINUOUS
 10
      -10.000008
 20
     -149.000008
 30
        0.000000
 11
      -10.000008
 21
     -147.500008
 31
        0.000000
  0
LINE
  8
LVL0000
  6
CONTINUOUS
 10
      -21.500008
 20
     -149.000008
 30
        0.000000
 11
      -21.500008
 21
     -147.500008
 31
        0.000000
  0
LINE
  8
LVL0000
  6
CONTINUOUS
 10
       21.499992
 20
     -152.000008
 30
        0.000000
 11
       21.499992
 21
     -150.500008
 31
        0.000000
  0
LINE
  8
LVL0000
  6
CONTINUOUS
 10
        9.999992
 20
     -152.000008
 30
        0.000000
 11
        9.999992
 21
     -150.500008
 31
        0.000000
  0
LINE
  8
LVL0000
  6
CONTINUOUS
 10
      -10.000008
 20
     -152.000008
 30
        0.000000
 11
      -10.000008
 21
     -150.500008
 31
        0.000000
  0
LINE
  8
LVL0000
  6
CONTINUOUS
 10
      -21.500008
 20
     -152.000008
 30
        0.000000
 11
      -21.500008
 21
     -150.500008
 31
        0.000000
  0
LINE
  8
LVL0000
  6
CONTINUOUS
 10
      -41.250008
 20
     -120.200015
 30
        0.000000
 11
       41.249992
 21
     -120.200015
 31
        0.000000
  0
LINE
  8
LVL0000
  6
CONTINUOUS
 10
       41.249992
 20
      -97.000008
 30
        0.000000
 11
      -41.250008
 21
      -97.000008
 31
        0.000000
  0
LINE
  8
LVL0000
  6
CONTINUOUS
 10
       41.249992
 20
      -90.000008
 30
        0.000000
 11
      -41.250008
 21
      -90.000008
 31
        0.000000
  0
LINE
  8
LVL0000
  6
CONTINUOUS
 10
      -41.250008
 20
      -97.000008
 30
        0.000000
 11
      -41.250008
 21
      -90.000008
 31
        0.000000
  0
LINE
  8
LVL0000
  6
CONTINUOUS
 10
      -55.000000
 20
     -103.500015
 30
        0.000000
 11
      -41.250008
 21
     -103.500015
 31
        0.000000
  0
LINE
  8
LVL0000
  6
CONTINUOUS
 10
      -55.000000
 20
     -103.000015
 30
        0.000000
 11
      -41.250008
 21
     -103.000015
 31
        0.000000
  0
LINE
  8
LVL0000
  6
CONTINUOUS
 10
      -41.250008
 20
     -120.200015
 30
        0.000000
 11
      -41.250008
 21
     -103.000015
 31
        0.000000
  0
LINE
  8
LVL0000
  6
CONTINUOUS
 10
      -41.250008
 20
     -103.000015
 30
        0.000000
 11
      -41.250008
 21
      -97.500008
 31
        0.000000
  0
LINE
  8
LVL0000
  6
CONTINUOUS
 10
       41.249992
 20
      -97.000008
 30
        0.000000
 11
       41.249992
 21
      -90.000008
 31
        0.000000
  0
LINE
  8
LVL0000
  6
CONTINUOUS
 10
       41.249992
 20
     -103.500015
 30
        0.000000
 11
       54.999985
 21
     -103.500015
 31
        0.000000
  0
LINE
  8
LVL0000
  6
CONTINUOUS
 10
       41.249992
 20
     -103.000015
 30
        0.000000
 11
       54.999985
 21
     -103.000015
 31
        0.000000
  0
LINE
  8
LVL0000
  6
CONTINUOUS
 10
       41.249992
 20
     -120.200015
 30
        0.000000
 11
       41.249992
 21
     -103.000015
 31
        0.000000
  0
LINE
  8
LVL0000
  6
CONTINUOUS
 10
       41.249992
 20
     -103.000015
 30
        0.000000
 11
       41.249992
 21
      -97.500008
 31
        0.000000
  0
LINE
  8
LVL0000
  6
CONTINUOUS
 10
      -46.000015
 20
     -152.000008
 30
        0.000000
 11
      -46.000015
 21
     -103.500015
 31
        0.000000
  0
ARC
  8
LVL0000
  6
CONTINUOUS
 10
      -53.055287
 20
      -85.000008
 30
        0.000000
 40
        1.000000
 50
       90.000000
 51
      176.999995
  0
LINE
  8
LVL0000
  6
CONTINUOUS
 10
      -54.500000
 20
     -103.500015
 30
        0.000000
 11
      -54.500000
 21
     -103.000015
 31
        0.000000
  0
LINE
  8
LVL0000
  6
CONTINUOUS
 10
      -55.000000
 20
     -103.000015
 30
        0.000000
 11
      -54.053917
 21
      -84.947672
 31
        0.000000
  0
ARC
  8
LVL0000
  6
CONTINUOUS
 10
      -53.311590
 20
      -89.890552
 30
        0.000000
 40
        1.000000
 50
       90.000000
 51
      176.999995
  0
LINE
  8
LVL0000
  6
CONTINUOUS
 10
      -52.700008
 20
      -85.395972
 30
        0.000000
 11
      -54.077411
 21
      -85.395972
 31
        0.000000
  0
LINE
  8
LVL0000
  6
CONTINUOUS
 10
      -52.700008
 20
      -86.291326
 30
        0.000000
 11
      -52.700008
 21
      -85.395972
 31
        0.000000
  0
LINE
  8
LVL0000
  6
CONTINUOUS
 10
      -55.000000
 20
     -160.000008
 30
        0.000000
 11
       54.999985
 21
     -160.000008
 31
        0.000000
  0
LINE
  8
LVL0000
  6
CONTINUOUS
 10
      -53.055287
 20
      -84.000008
 30
        0.000000
 11
       53.055272
 21
      -84.000008
 31
        0.000000
  0
LINE
  8
LVL0000
  6
CONTINUOUS
 10
       54.711742
 20
      -97.500008
 30
        0.000000
 11
      -54.711757
 21
      -97.500008
 31
        0.000000
  0
LINE
  8
LVL0000
  6
CONTINUOUS
 10
       53.311575
 20
      -88.890552
 30
        0.000000
 11
      -53.311590
 21
      -88.890552
 31
        0.000000
  0
LINE
  8
LVL0000
  6
CONTINUOUS
 10
       52.699992
 20
      -86.291326
 30
        0.000000
 11
      -52.700008
 21
      -86.291326
 31
        0.000000
  0
LINE
  8
LVL0000
  6
CONTINUOUS
 10
       52.699992
 20
      -86.291326
 30
        0.000000
 11
       52.699992
 21
      -85.395972
 31
        0.000000
  0
LINE
  8
LVL0000
  6
CONTINUOUS
 10
       54.999985
 20
     -152.000008
 30
        0.000000
 11
       54.999985
 21
     -103.500015
 31
        0.000000
  0
LINE
  8
LVL0000
  6
CONTINUOUS
 10
       54.999985
 20
     -152.000008
 30
        0.000000
 11
       54.999985
 21
     -160.000008
 31
        0.000000
  0
LINE
  8
LVL0000
  6
CONTINUOUS
 10
       54.499985
 20
     -103.500015
 30
        0.000000
 11
       54.499985
 21
     -103.000015
 31
        0.000000
  0
ARC
  8
LVL0000
  6
CONTINUOUS
 10
       53.055272
 20
      -85.000008
 30
        0.000000
 40
        1.000000
 50
        3.000000
 51
       90.000000
  0
LINE
  8
LVL0000
  6
CONTINUOUS
 10
       54.999985
 20
     -103.000015
 30
        0.000000
 11
       54.053902
 21
      -84.947672
 31
        0.000000
  0
ARC
  8
LVL0000
  6
CONTINUOUS
 10
       53.311575
 20
      -89.890552
 30
        0.000000
 40
        1.000000
 50
        3.000000
 51
       90.000000
  0
LINE
  8
LVL0000
  6
CONTINUOUS
 10
       54.077396
 20
      -85.395972
 30
        0.000000
 11
       52.699992
 21
      -85.395972
 31
        0.000000
  0
LINE
  8
LVL0000
  6
CONTINUOUS
 10
       -7.500008
 20
     -156.800008
 30
        0.000000
 11
       -7.500008
 21
     -160.000008
 31
        0.000000
  0
LINE
  8
LVL0000
  6
CONTINUOUS
 10
        7.499992
 20
     -156.800008
 30
        0.000000
 11
        7.499992
 21
     -160.000008
 31
        0.000000
  0
LINE
  8
LVL0000
  6
CONTINUOUS
 10
      -12.500008
 20
     -160.000008
 30
        0.000000
 11
      -12.500008
 21
     -156.800008
 31
        0.000000
  0
LINE
  8
LVL0000
  6
CONTINUOUS
 10
       12.499992
 20
     -160.000008
 30
        0.000000
 11
       12.499992
 21
     -156.800008
 31
        0.000000
  0
LINE
  8
LVL0000
  6
CONTINUOUS
 10
       12.499992
 20
     -156.800008
 30
        0.000000
 11
      -12.500008
 21
     -156.800008
 31
        0.000000
  0
LINE
  8
LVL0000
  6
CENTER
 62
  1
 10
        0.000000
 20
      -79.700036
 30
        0.000000
 11
        0.000000
 21
     -166.043602
 31
        0.000000
  0
LINE
  8
LVL0000
  6
CONTINUOUS
 10
       36.954956
 20
     -109.200015
 30
        0.000000
 11
       36.954956
 21
     -100.200015
 31
        0.000000
  0
LINE
  8
LVL0000
  6
CONTINUOUS
 10
       34.384979
 20
     -103.700015
 30
        0.000000
 11
       34.384979
 21
     -104.700015
 31
        0.000000
  0
ARC
  8
LVL0000
  6
CONTINUOUS
 10
       33.884979
 20
     -103.700015
 30
        0.000000
 40
        0.500000
 50
        0.000000
 51
       90.000000
  0
LINE
  8
LVL0000
  6
CONTINUOUS
 10
       32.634979
 20
     -103.200015
 30
        0.000000
 11
       32.634979
 21
     -103.700015
 31
        0.000000
  0
LINE
  8
LVL0000
  6
CONTINUOUS
 10
       32.634979
 20
     -103.200015
 30
        0.000000
 11
       33.884979
 21
     -103.200015
 31
        0.000000
  0
LINE
  8
LVL0000
  6
CONTINUOUS
 10
       33.884979
 20
     -104.700015
 30
        0.000000
 11
       33.884979
 21
     -105.200015
 31
        0.000000
  0
LINE
  8
LVL0000
  6
CONTINUOUS
 10
       30.884979
 20
     -103.200015
 30
        0.000000
 11
       32.134979
 21
     -103.200015
 31
        0.000000
  0
ARC
  8
LVL0000
  6
CONTINUOUS
 10
       30.884979
 20
     -103.700015
 30
        0.000000
 40
        0.500000
 50
       90.000000
 51
      180.000010
  0
LINE
  8
LVL0000
  6
CONTINUOUS
 10
       30.384979
 20
     -103.700015
 30
        0.000000
 11
       30.384979
 21
     -104.700015
 31
        0.000000
  0
LINE
  8
LVL0000
  6
CONTINUOUS
 10
       32.134979
 20
     -103.200015
 30
        0.000000
 11
       32.134979
 21
     -103.700015
 31
        0.000000
  0
LINE
  8
LVL0000
  6
CONTINUOUS
 10
       30.884979
 20
     -104.700015
 30
        0.000000
 11
       30.884979
 21
     -105.200015
 31
        0.000000
  0
LINE
  8
LVL0000
  6
CONTINUOUS
 10
       30.384979
 20
     -104.700015
 30
        0.000000
 11
       34.384979
 21
     -104.700015
 31
        0.000000
  0
LINE
  8
LVL0000
  6
CONTINUOUS
 10
       29.334991
 20
     -106.200015
 30
        0.000000
 11
       35.434982
 21
     -106.200015
 31
        0.000000
  0
LINE
  8
LVL0000
  6
CONTINUOUS
 10
       29.334991
 20
     -105.200015
 30
        0.000000
 11
       35.434982
 21
     -105.200015
 31
        0.000000
  0
LINE
  8
LVL0000
  6
CONTINUOUS
 10
       32.134979
 20
     -103.700015
 30
        0.000000
 11
       32.634979
 21
     -103.700015
 31
        0.000000
  0
LINE
  8
LVL0000
  6
CONTINUOUS
 10
       29.334961
 20
     -109.200015
 30
        0.000000
 11
       29.334961
 21
     -100.200015
 31
        0.000000
  0
LINE
  8
LVL0000
  6
CONTINUOUS
 10
       29.334991
 20
     -101.200015
 30
        0.000000
 11
       35.434982
 21
     -101.200015
 31
        0.000000
  0
LINE
  8
LVL0000
  6
CONTINUOUS
 10
       35.434982
 20
     -109.200015
 30
        0.000000
 11
       35.434982
 21
     -100.200015
 31
        0.000000
  0
LINE
  8
LVL0000
  6
CONTINUOUS
 10
       26.764984
 20
     -103.700015
 30
        0.000000
 11
       26.764984
 21
     -104.700015
 31
        0.000000
  0
ARC
  8
LVL0000
  6
CONTINUOUS
 10
       26.264984
 20
     -103.700015
 30
        0.000000
 40
        0.500000
 50
        0.000000
 51
       90.000000
  0
LINE
  8
LVL0000
  6
CONTINUOUS
 10
       25.014984
 20
     -103.200015
 30
        0.000000
 11
       25.014984
 21
     -103.700015
 31
        0.000000
  0
LINE
  8
LVL0000
  6
CONTINUOUS
 10
       25.014984
 20
     -103.200015
 30
        0.000000
 11
       26.264984
 21
     -103.200015
 31
        0.000000
  0
LINE
  8
LVL0000
  6
CONTINUOUS
 10
       26.264984
 20
     -104.700015
 30
        0.000000
 11
       26.264984
 21
     -105.200015
 31
        0.000000
  0
LINE
  8
LVL0000
  6
CONTINUOUS
 10
       23.264984
 20
     -103.200015
 30
        0.000000
 11
       24.514984
 21
     -103.200015
 31
        0.000000
  0
ARC
  8
LVL0000
  6
CONTINUOUS
 10
       23.264984
 20
     -103.700015
 30
        0.000000
 40
        0.500000
 50
       90.000000
 51
      180.000010
  0
LINE
  8
LVL0000
  6
CONTINUOUS
 10
       22.764984
 20
     -103.700015
 30
        0.000000
 11
       22.764984
 21
     -104.700015
 31
        0.000000
  0
LINE
  8
LVL0000
  6
CONTINUOUS
 10
       24.514984
 20
     -103.200015
 30
        0.000000
 11
       24.514984
 21
     -103.700015
 31
        0.000000
  0
LINE
  8
LVL0000
  6
CONTINUOUS
 10
       23.264984
 20
     -104.700015
 30
        0.000000
 11
       23.264984
 21
     -105.200015
 31
        0.000000
  0
LINE
  8
LVL0000
  6
CONTINUOUS
 10
       22.764984
 20
     -104.700015
 30
        0.000000
 11
       26.764984
 21
     -104.700015
 31
        0.000000
  0
LINE
  8
LVL0000
  6
CONTINUOUS
 10
       21.714996
 20
     -106.200015
 30
        0.000000
 11
       27.814987
 21
     -106.200015
 31
        0.000000
  0
LINE
  8
LVL0000
  6
CONTINUOUS
 10
       21.714996
 20
     -105.200015
 30
        0.000000
 11
       27.814987
 21
     -105.200015
 31
        0.000000
  0
LINE
  8
LVL0000
  6
CONTINUOUS
 10
       24.514984
 20
     -103.700015
 30
        0.000000
 11
       25.014984
 21
     -103.700015
 31
        0.000000
  0
LINE
  8
LVL0000
  6
CONTINUOUS
 10
       21.714966
 20
     -109.200015
 30
        0.000000
 11
       21.714966
 21
     -100.200015
 31
        0.000000
  0
LINE
  8
LVL0000
  6
CONTINUOUS
 10
       21.714996
 20
     -101.200015
 30
        0.000000
 11
       27.814987
 21
     -101.200015
 31
        0.000000
  0
LINE
  8
LVL0000
  6
CONTINUOUS
 10
       27.814987
 20
     -109.200015
 30
        0.000000
 11
       27.814987
 21
     -100.200015
 31
        0.000000
  0
LINE
  8
LVL0000
  6
CONTINUOUS
 10
       19.144989
 20
     -103.700015
 30
        0.000000
 11
       19.144989
 21
     -104.700015
 31
        0.000000
  0
ARC
  8
LVL0000
  6
CONTINUOUS
 10
       18.644989
 20
     -103.700015
 30
        0.000000
 40
        0.500000
 50
        0.000000
 51
       90.000000
  0
LINE
  8
LVL0000
  6
CONTINUOUS
 10
       17.394989
 20
     -103.200015
 30
        0.000000
 11
       17.394989
 21
     -103.700015
 31
        0.000000
  0
LINE
  8
LVL0000
  6
CONTINUOUS
 10
       17.394989
 20
     -103.200015
 30
        0.000000
 11
       18.644989
 21
     -103.200015
 31
        0.000000
  0
LINE
  8
LVL0000
  6
CONTINUOUS
 10
       18.644989
 20
     -104.700015
 30
        0.000000
 11
       18.644989
 21
     -105.200015
 31
        0.000000
  0
LINE
  8
LVL0000
  6
CONTINUOUS
 10
       15.644989
 20
     -103.200015
 30
        0.000000
 11
       16.894989
 21
     -103.200015
 31
        0.000000
  0
ARC
  8
LVL0000
  6
CONTINUOUS
 10
       15.644989
 20
     -103.700015
 30
        0.000000
 40
        0.500000
 50
       90.000000
 51
      180.000010
  0
LINE
  8
LVL0000
  6
CONTINUOUS
 10
       15.144989
 20
     -103.700015
 30
        0.000000
 11
       15.144989
 21
     -104.700015
 31
        0.000000
  0
LINE
  8
LVL0000
  6
CONTINUOUS
 10
       16.894989
 20
     -103.200015
 30
        0.000000
 11
       16.894989
 21
     -103.700015
 31
        0.000000
  0
LINE
  8
LVL0000
  6
CONTINUOUS
 10
       15.644989
 20
     -104.700015
 30
        0.000000
 11
       15.644989
 21
     -105.200015
 31
        0.000000
  0
LINE
  8
LVL0000
  6
CONTINUOUS
 10
       15.144989
 20
     -104.700015
 30
        0.000000
 11
       19.144989
 21
     -104.700015
 31
        0.000000
  0
LINE
  8
LVL0000
  6
CONTINUOUS
 10
       14.095001
 20
     -106.200015
 30
        0.000000
 11
       20.194992
 21
     -106.200015
 31
        0.000000
  0
LINE
  8
LVL0000
  6
CONTINUOUS
 10
       14.095001
 20
     -105.200015
 30
        0.000000
 11
       20.194992
 21
     -105.200015
 31
        0.000000
  0
LINE
  8
LVL0000
  6
CONTINUOUS
 10
       16.894989
 20
     -103.700015
 30
        0.000000
 11
       17.394989
 21
     -103.700015
 31
        0.000000
  0
LINE
  8
LVL0000
  6
CONTINUOUS
 10
       14.094971
 20
     -109.200015
 30
        0.000000
 11
       14.094971
 21
     -100.200015
 31
        0.000000
  0
LINE
  8
LVL0000
  6
CONTINUOUS
 10
       14.095001
 20
     -101.200015
 30
        0.000000
 11
       20.194992
 21
     -101.200015
 31
        0.000000
  0
LINE
  8
LVL0000
  6
CONTINUOUS
 10
       20.194992
 20
     -109.200015
 30
        0.000000
 11
       20.194992
 21
     -100.200015
 31
        0.000000
  0
LINE
  8
LVL0000
  6
CONTINUOUS
 10
       11.524994
 20
     -103.700015
 30
        0.000000
 11
       11.524994
 21
     -104.700015
 31
        0.000000
  0
ARC
  8
LVL0000
  6
CONTINUOUS
 10
       11.024994
 20
     -103.700015
 30
        0.000000
 40
        0.500000
 50
        0.000000
 51
       90.000000
  0
LINE
  8
LVL0000
  6
CONTINUOUS
 10
        9.774994
 20
     -103.200015
 30
        0.000000
 11
        9.774994
 21
     -103.700015
 31
        0.000000
  0
LINE
  8
LVL0000
  6
CONTINUOUS
 10
        9.774994
 20
     -103.200015
 30
        0.000000
 11
       11.024994
 21
     -103.200015
 31
        0.000000
  0
LINE
  8
LVL0000
  6
CONTINUOUS
 10
       11.024994
 20
     -104.700015
 30
        0.000000
 11
       11.024994
 21
     -105.200015
 31
        0.000000
  0
LINE
  8
LVL0000
  6
CONTINUOUS
 10
        8.024994
 20
     -103.200015
 30
        0.000000
 11
        9.274994
 21
     -103.200015
 31
        0.000000
  0
ARC
  8
LVL0000
  6
CONTINUOUS
 10
        8.024994
 20
     -103.700015
 30
        0.000000
 40
        0.500000
 50
       90.000000
 51
      180.000010
  0
LINE
  8
LVL0000
  6
CONTINUOUS
 10
        7.524994
 20
     -103.700015
 30
        0.000000
 11
        7.524994
 21
     -104.700015
 31
        0.000000
  0
LINE
  8
LVL0000
  6
CONTINUOUS
 10
        9.274994
 20
     -103.200015
 30
        0.000000
 11
        9.274994
 21
     -103.700015
 31
        0.000000
  0
LINE
  8
LVL0000
  6
CONTINUOUS
 10
        8.024994
 20
     -104.700015
 30
        0.000000
 11
        8.024994
 21
     -105.200015
 31
        0.000000
  0
LINE
  8
LVL0000
  6
CONTINUOUS
 10
        7.524994
 20
     -104.700015
 30
        0.000000
 11
       11.524994
 21
     -104.700015
 31
        0.000000
  0
LINE
  8
LVL0000
  6
CONTINUOUS
 10
        6.475006
 20
     -106.200015
 30
        0.000000
 11
       12.574982
 21
     -106.200015
 31
        0.000000
  0
LINE
  8
LVL0000
  6
CONTINUOUS
 10
        6.475006
 20
     -105.200015
 30
        0.000000
 11
       12.574982
 21
     -105.200015
 31
        0.000000
  0
LINE
  8
LVL0000
  6
CONTINUOUS
 10
        9.274994
 20
     -103.700015
 30
        0.000000
 11
        9.774994
 21
     -103.700015
 31
        0.000000
  0
LINE
  8
LVL0000
  6
CONTINUOUS
 10
        6.474976
 20
     -109.200015
 30
        0.000000
 11
        6.474976
 21
     -100.200015
 31
        0.000000
  0
LINE
  8
LVL0000
  6
CONTINUOUS
 10
        6.475006
 20
     -101.200015
 30
        0.000000
 11
       12.574982
 21
     -101.200015
 31
        0.000000
  0
LINE
  8
LVL0000
  6
CONTINUOUS
 10
       12.574982
 20
     -109.200015
 30
        0.000000
 11
       12.574982
 21
     -100.200015
 31
        0.000000
  0
LINE
  8
LVL0000
  6
CONTINUOUS
 10
        3.904984
 20
     -103.700015
 30
        0.000000
 11
        3.904984
 21
     -104.700015
 31
        0.000000
  0
ARC
  8
LVL0000
  6
CONTINUOUS
 10
        3.404984
 20
     -103.700015
 30
        0.000000
 40
        0.500000
 50
        0.000000
 51
       90.000000
  0
LINE
  8
LVL0000
  6
CONTINUOUS
 10
        2.154984
 20
     -103.200015
 30
        0.000000
 11
        2.154984
 21
     -103.700015
 31
        0.000000
  0
LINE
  8
LVL0000
  6
CONTINUOUS
 10
        2.154984
 20
     -103.200015
 30
        0.000000
 11
        3.404984
 21
     -103.200015
 31
        0.000000
  0
LINE
  8
LVL0000
  6
CONTINUOUS
 10
        3.404984
 20
     -104.700015
 30
        0.000000
 11
        3.404984
 21
     -105.200015
 31
        0.000000
  0
LINE
  8
LVL0000
  6
CONTINUOUS
 10
        0.404984
 20
     -103.200015
 30
        0.000000
 11
        1.654984
 21
     -103.200015
 31
        0.000000
  0
ARC
  8
LVL0000
  6
CONTINUOUS
 10
        0.404984
 20
     -103.700015
 30
        0.000000
 40
        0.500000
 50
       90.000000
 51
      180.000010
  0
LINE
  8
LVL0000
  6
CONTINUOUS
 10
       -0.095016
 20
     -103.700015
 30
        0.000000
 11
       -0.095016
 21
     -104.700015
 31
        0.000000
  0
LINE
  8
LVL0000
  6
CONTINUOUS
 10
        1.654984
 20
     -103.200015
 30
        0.000000
 11
        1.654984
 21
     -103.700015
 31
        0.000000
  0
LINE
  8
LVL0000
  6
CONTINUOUS
 10
        0.404984
 20
     -104.700015
 30
        0.000000
 11
        0.404984
 21
     -105.200015
 31
        0.000000
  0
LINE
  8
LVL0000
  6
CONTINUOUS
 10
       -0.095016
 20
     -104.700015
 30
        0.000000
 11
        3.904984
 21
     -104.700015
 31
        0.000000
  0
LINE
  8
LVL0000
  6
CONTINUOUS
 10
       -1.145004
 20
     -106.200015
 30
        0.000000
 11
        4.954987
 21
     -106.200015
 31
        0.000000
  0
LINE
  8
LVL0000
  6
CONTINUOUS
 10
       -1.145004
 20
     -105.200015
 30
        0.000000
 11
        4.954987
 21
     -105.200015
 31
        0.000000
  0
LINE
  8
LVL0000
  6
CONTINUOUS
 10
        1.654984
 20
     -103.700015
 30
        0.000000
 11
        2.154984
 21
     -103.700015
 31
        0.000000
  0
LINE
  8
LVL0000
  6
CONTINUOUS
 10
       -1.145035
 20
     -109.200015
 30
        0.000000
 11
       -1.145035
 21
     -100.200015
 31
        0.000000
  0
LINE
  8
LVL0000
  6
CONTINUOUS
 10
       -1.145004
 20
     -101.200015
 30
        0.000000
 11
        4.954987
 21
     -101.200015
 31
        0.000000
  0
LINE
  8
LVL0000
  6
CONTINUOUS
 10
        4.954987
 20
     -109.200015
 30
        0.000000
 11
        4.954987
 21
     -100.200015
 31
        0.000000
  0
LINE
  8
LVL0000
  6
CONTINUOUS
 10
       -3.715012
 20
     -103.700015
 30
        0.000000
 11
       -3.715012
 21
     -104.700015
 31
        0.000000
  0
ARC
  8
LVL0000
  6
CONTINUOUS
 10
       -4.215012
 20
     -103.700015
 30
        0.000000
 40
        0.500000
 50
        0.000000
 51
       90.000000
  0
LINE
  8
LVL0000
  6
CONTINUOUS
 10
       -5.465012
 20
     -103.200015
 30
        0.000000
 11
       -5.465012
 21
     -103.700015
 31
        0.000000
  0
LINE
  8
LVL0000
  6
CONTINUOUS
 10
       -5.465012
 20
     -103.200015
 30
        0.000000
 11
       -4.215012
 21
     -103.200015
 31
        0.000000
  0
LINE
  8
LVL0000
  6
CONTINUOUS
 10
       -4.215012
 20
     -104.700015
 30
        0.000000
 11
       -4.215012
 21
     -105.200015
 31
        0.000000
  0
LINE
  8
LVL0000
  6
CONTINUOUS
 10
       -7.215012
 20
     -103.200015
 30
        0.000000
 11
       -5.965012
 21
     -103.200015
 31
        0.000000
  0
ARC
  8
LVL0000
  6
CONTINUOUS
 10
       -7.215012
 20
     -103.700015
 30
        0.000000
 40
        0.500000
 50
       90.000000
 51
      180.000010
  0
LINE
  8
LVL0000
  6
CONTINUOUS
 10
       -7.715012
 20
     -103.700015
 30
        0.000000
 11
       -7.715012
 21
     -104.700015
 31
        0.000000
  0
LINE
  8
LVL0000
  6
CONTINUOUS
 10
       -5.965012
 20
     -103.200015
 30
        0.000000
 11
       -5.965012
 21
     -103.700015
 31
        0.000000
  0
LINE
  8
LVL0000
  6
CONTINUOUS
 10
       -7.215012
 20
     -104.700015
 30
        0.000000
 11
       -7.215012
 21
     -105.200015
 31
        0.000000
  0
LINE
  8
LVL0000
  6
CONTINUOUS
 10
       -7.715012
 20
     -104.700015
 30
        0.000000
 11
       -3.715012
 21
     -104.700015
 31
        0.000000
  0
LINE
  8
LVL0000
  6
CONTINUOUS
 10
       -8.764999
 20
     -106.200015
 30
        0.000000
 11
       -2.665009
 21
     -106.200015
 31
        0.000000
  0
LINE
  8
LVL0000
  6
CONTINUOUS
 10
       -8.764999
 20
     -105.200015
 30
        0.000000
 11
       -2.665009
 21
     -105.200015
 31
        0.000000
  0
LINE
  8
LVL0000
  6
CONTINUOUS
 10
       -5.965012
 20
     -103.700015
 30
        0.000000
 11
       -5.465012
 21
     -103.700015
 31
        0.000000
  0
LINE
  8
LVL0000
  6
CONTINUOUS
 10
       -8.765030
 20
     -109.200015
 30
        0.000000
 11
       -8.765030
 21
     -100.200015
 31
        0.000000
  0
LINE
  8
LVL0000
  6
CONTINUOUS
 10
       -8.764999
 20
     -101.200015
 30
        0.000000
 11
       -2.665009
 21
     -101.200015
 31
        0.000000
  0
LINE
  8
LVL0000
  6
CONTINUOUS
 10
       -2.665009
 20
     -109.200015
 30
        0.000000
 11
       -2.665009
 21
     -100.200015
 31
        0.000000
  0
LINE
  8
LVL0000
  6
CONTINUOUS
 10
      -11.335007
 20
     -103.700015
 30
        0.000000
 11
      -11.335007
 21
     -104.700015
 31
        0.000000
  0
ARC
  8
LVL0000
  6
CONTINUOUS
 10
      -11.835007
 20
     -103.700015
 30
        0.000000
 40
        0.500000
 50
        0.000000
 51
       90.000000
  0
LINE
  8
LVL0000
  6
CONTINUOUS
 10
      -13.085007
 20
     -103.200015
 30
        0.000000
 11
      -13.085007
 21
     -103.700015
 31
        0.000000
  0
LINE
  8
LVL0000
  6
CONTINUOUS
 10
      -13.085007
 20
     -103.200015
 30
        0.000000
 11
      -11.835007
 21
     -103.200015
 31
        0.000000
  0
LINE
  8
LVL0000
  6
CONTINUOUS
 10
      -11.835007
 20
     -104.700015
 30
        0.000000
 11
      -11.835007
 21
     -105.200015
 31
        0.000000
  0
LINE
  8
LVL0000
  6
CONTINUOUS
 10
      -14.835007
 20
     -103.200015
 30
        0.000000
 11
      -13.585007
 21
     -103.200015
 31
        0.000000
  0
ARC
  8
LVL0000
  6
CONTINUOUS
 10
      -14.835007
 20
     -103.700015
 30
        0.000000
 40
        0.500000
 50
       90.000000
 51
      180.000010
  0
LINE
  8
LVL0000
  6
CONTINUOUS
 10
      -15.335007
 20
     -103.700015
 30
        0.000000
 11
      -15.335007
 21
     -104.700015
 31
        0.000000
  0
LINE
  8
LVL0000
  6
CONTINUOUS
 10
      -13.585007
 20
     -103.200015
 30
        0.000000
 11
      -13.585007
 21
     -103.700015
 31
        0.000000
  0
LINE
  8
LVL0000
  6
CONTINUOUS
 10
      -14.835007
 20
     -104.700015
 30
        0.000000
 11
      -14.835007
 21
     -105.200015
 31
        0.000000
  0
LINE
  8
LVL0000
  6
CONTINUOUS
 10
      -15.335007
 20
     -104.700015
 30
        0.000000
 11
      -11.335007
 21
     -104.700015
 31
        0.000000
  0
LINE
  8
LVL0000
  6
CONTINUOUS
 10
      -16.384995
 20
     -106.200015
 30
        0.000000
 11
      -10.285004
 21
     -106.200015
 31
        0.000000
  0
LINE
  8
LVL0000
  6
CONTINUOUS
 10
      -16.384995
 20
     -105.200015
 30
        0.000000
 11
      -10.285004
 21
     -105.200015
 31
        0.000000
  0
LINE
  8
LVL0000
  6
CONTINUOUS
 10
      -13.585007
 20
     -103.700015
 30
        0.000000
 11
      -13.085007
 21
     -103.700015
 31
        0.000000
  0
LINE
  8
LVL0000
  6
CONTINUOUS
 10
      -16.385025
 20
     -109.200015
 30
        0.000000
 11
      -16.385025
 21
     -100.200015
 31
        0.000000
  0
LINE
  8
LVL0000
  6
CONTINUOUS
 10
      -16.384995
 20
     -101.200015
 30
        0.000000
 11
      -10.285004
 21
     -101.200015
 31
        0.000000
  0
LINE
  8
LVL0000
  6
CONTINUOUS
 10
      -10.285004
 20
     -109.200015
 30
        0.000000
 11
      -10.285004
 21
     -100.200015
 31
        0.000000
  0
LINE
  8
LVL0000
  6
CONTINUOUS
 10
      -18.955017
 20
     -103.700015
 30
        0.000000
 11
      -18.955017
 21
     -104.700015
 31
        0.000000
  0
ARC
  8
LVL0000
  6
CONTINUOUS
 10
      -19.455017
 20
     -103.700015
 30
        0.000000
 40
        0.500000
 50
        0.000000
 51
       90.000000
  0
LINE
  8
LVL0000
  6
CONTINUOUS
 10
      -20.705017
 20
     -103.200015
 30
        0.000000
 11
      -20.705017
 21
     -103.700015
 31
        0.000000
  0
LINE
  8
LVL0000
  6
CONTINUOUS
 10
      -20.705017
 20
     -103.200015
 30
        0.000000
 11
      -19.455017
 21
     -103.200015
 31
        0.000000
  0
LINE
  8
LVL0000
  6
CONTINUOUS
 10
      -19.455017
 20
     -104.700015
 30
        0.000000
 11
      -19.455017
 21
     -105.200015
 31
        0.000000
  0
LINE
  8
LVL0000
  6
CONTINUOUS
 10
      -22.455017
 20
     -103.200015
 30
        0.000000
 11
      -21.205017
 21
     -103.200015
 31
        0.000000
  0
ARC
  8
LVL0000
  6
CONTINUOUS
 10
      -22.455017
 20
     -103.700015
 30
        0.000000
 40
        0.500000
 50
       90.000000
 51
      180.000010
  0
LINE
  8
LVL0000
  6
CONTINUOUS
 10
      -22.955017
 20
     -103.700015
 30
        0.000000
 11
      -22.955017
 21
     -104.700015
 31
        0.000000
  0
LINE
  8
LVL0000
  6
CONTINUOUS
 10
      -21.205017
 20
     -103.200015
 30
        0.000000
 11
      -21.205017
 21
     -103.700015
 31
        0.000000
  0
LINE
  8
LVL0000
  6
CONTINUOUS
 10
      -22.455017
 20
     -104.700015
 30
        0.000000
 11
      -22.455017
 21
     -105.200015
 31
        0.000000
  0
LINE
  8
LVL0000
  6
CONTINUOUS
 10
      -22.955017
 20
     -104.700015
 30
        0.000000
 11
      -18.955017
 21
     -104.700015
 31
        0.000000
  0
LINE
  8
LVL0000
  6
CONTINUOUS
 10
      -24.005005
 20
     -106.200015
 30
        0.000000
 11
      -17.905014
 21
     -106.200015
 31
        0.000000
  0
LINE
  8
LVL0000
  6
CONTINUOUS
 10
      -24.005005
 20
     -105.200015
 30
        0.000000
 11
      -17.905014
 21
     -105.200015
 31
        0.000000
  0
LINE
  8
LVL0000
  6
CONTINUOUS
 10
      -21.205017
 20
     -103.700015
 30
        0.000000
 11
      -20.705017
 21
     -103.700015
 31
        0.000000
  0
LINE
  8
LVL0000
  6
CONTINUOUS
 10
      -24.005035
 20
     -109.200015
 30
        0.000000
 11
      -24.005035
 21
     -100.200015
 31
        0.000000
  0
LINE
  8
LVL0000
  6
CONTINUOUS
 10
      -24.005005
 20
     -101.200015
 30
        0.000000
 11
      -17.905014
 21
     -101.200015
 31
        0.000000
  0
LINE
  8
LVL0000
  6
CONTINUOUS
 10
      -17.905014
 20
     -109.200015
 30
        0.000000
 11
      -17.905014
 21
     -100.200015
 31
        0.000000
  0
LINE
  8
LVL0000
  6
CONTINUOUS
 10
      -25.525009
 20
     -109.200015
 30
        0.000000
 11
      -25.525009
 21
     -100.200015
 31
        0.000000
  0
LINE
  8
LVL0000
  6
CONTINUOUS
 10
      -33.145004
 20
     -109.200015
 30
        0.000000
 11
      -33.145004
 21
     -100.200015
 31
        0.000000
  0
LINE
  8
LVL0000
  6
CONTINUOUS
 10
      -34.195007
 20
     -103.700015
 30
        0.000000
 11
      -34.195007
 21
     -104.700015
 31
        0.000000
  0
LINE
  8
LVL0000
  6
CONTINUOUS
 10
      -31.625000
 20
     -101.200015
 30
        0.000000
 11
      -25.525009
 21
     -101.200015
 31
        0.000000
  0
LINE
  8
LVL0000
  6
CONTINUOUS
 10
      -31.625031
 20
     -109.200015
 30
        0.000000
 11
      -31.625031
 21
     -100.200015
 31
        0.000000
  0
LINE
  8
LVL0000
  6
CONTINUOUS
 10
      -28.825012
 20
     -103.700015
 30
        0.000000
 11
      -28.325012
 21
     -103.700015
 31
        0.000000
  0
LINE
  8
LVL0000
  6
CONTINUOUS
 10
      -31.625000
 20
     -105.200015
 30
        0.000000
 11
      -25.525009
 21
     -105.200015
 31
        0.000000
  0
LINE
  8
LVL0000
  6
CONTINUOUS
 10
      -31.625000
 20
     -106.200015
 30
        0.000000
 11
      -25.525009
 21
     -106.200015
 31
        0.000000
  0
LINE
  8
LVL0000
  6
CONTINUOUS
 10
      -30.575012
 20
     -104.700015
 30
        0.000000
 11
      -26.575012
 21
     -104.700015
 31
        0.000000
  0
LINE
  8
LVL0000
  6
CONTINUOUS
 10
      -30.075012
 20
     -104.700015
 30
        0.000000
 11
      -30.075012
 21
     -105.200015
 31
        0.000000
  0
LINE
  8
LVL0000
  6
CONTINUOUS
 10
      -28.825012
 20
     -103.200015
 30
        0.000000
 11
      -28.825012
 21
     -103.700015
 31
        0.000000
  0
LINE
  8
LVL0000
  6
CONTINUOUS
 10
      -30.575012
 20
     -103.700015
 30
        0.000000
 11
      -30.575012
 21
     -104.700015
 31
        0.000000
  0
ARC
  8
LVL0000
  6
CONTINUOUS
 10
      -30.075012
 20
     -103.700015
 30
        0.000000
 40
        0.500000
 50
       90.000000
 51
      180.000010
  0
LINE
  8
LVL0000
  6
CONTINUOUS
 10
      -30.075012
 20
     -103.200015
 30
        0.000000
 11
      -28.825012
 21
     -103.200015
 31
        0.000000
  0
LINE
  8
LVL0000
  6
CONTINUOUS
 10
      -27.075012
 20
     -104.700015
 30
        0.000000
 11
      -27.075012
 21
     -105.200015
 31
        0.000000
  0
LINE
  8
LVL0000
  6
CONTINUOUS
 10
      -28.325012
 20
     -103.200015
 30
        0.000000
 11
      -27.075012
 21
     -103.200015
 31
        0.000000
  0
LINE
  8
LVL0000
  6
CONTINUOUS
 10
      -28.325012
 20
     -103.200015
 30
        0.000000
 11
      -28.325012
 21
     -103.700015
 31
        0.000000
  0
ARC
  8
LVL0000
  6
CONTINUOUS
 10
      -27.075012
 20
     -103.700015
 30
        0.000000
 40
        0.500000
 50
        0.000000
 51
       90.000000
  0
LINE
  8
LVL0000
  6
CONTINUOUS
 10
      -26.575012
 20
     -103.700015
 30
        0.000000
 11
      -26.575012
 21
     -104.700015
 31
        0.000000
  0
LINE
  8
LVL0000
  6
CONTINUOUS
 10
      -39.244995
 20
     -101.200015
 30
        0.000000
 11
      -33.145004
 21
     -101.200015
 31
        0.000000
  0
LINE
  8
LVL0000
  6
CONTINUOUS
 10
      -36.445007
 20
     -103.700015
 30
        0.000000
 11
      -35.945007
 21
     -103.700015
 31
        0.000000
  0
LINE
  8
LVL0000
  6
CONTINUOUS
 10
      -39.244995
 20
     -105.200015
 30
        0.000000
 11
      -33.145004
 21
     -105.200015
 31
        0.000000
  0
LINE
  8
LVL0000
  6
CONTINUOUS
 10
      -39.244995
 20
     -106.200015
 30
        0.000000
 11
      -33.145004
 21
     -106.200015
 31
        0.000000
  0
LINE
  8
LVL0000
  6
CONTINUOUS
 10
      -38.195007
 20
     -104.700015
 30
        0.000000
 11
      -34.195007
 21
     -104.700015
 31
        0.000000
  0
LINE
  8
LVL0000
  6
CONTINUOUS
 10
      -37.695007
 20
     -104.700015
 30
        0.000000
 11
      -37.695007
 21
     -105.200015
 31
        0.000000
  0
LINE
  8
LVL0000
  6
CONTINUOUS
 10
      -36.445007
 20
     -103.200015
 30
        0.000000
 11
      -36.445007
 21
     -103.700015
 31
        0.000000
  0
LINE
  8
LVL0000
  6
CONTINUOUS
 10
      -38.195007
 20
     -103.700015
 30
        0.000000
 11
      -38.195007
 21
     -104.700015
 31
        0.000000
  0
ARC
  8
LVL0000
  6
CONTINUOUS
 10
      -37.695007
 20
     -103.700015
 30
        0.000000
 40
        0.500000
 50
       90.000000
 51
      180.000010
  0
LINE
  8
LVL0000
  6
CONTINUOUS
 10
      -37.695007
 20
     -103.200015
 30
        0.000000
 11
      -36.445007
 21
     -103.200015
 31
        0.000000
  0
LINE
  8
LVL0000
  6
CONTINUOUS
 10
      -34.695007
 20
     -104.700015
 30
        0.000000
 11
      -34.695007
 21
     -105.200015
 31
        0.000000
  0
LINE
  8
LVL0000
  6
CONTINUOUS
 10
      -35.945007
 20
     -103.200015
 30
        0.000000
 11
      -34.695007
 21
     -103.200015
 31
        0.000000
  0
LINE
  8
LVL0000
  6
CONTINUOUS
 10
      -35.945007
 20
     -103.200015
 30
        0.000000
 11
      -35.945007
 21
     -103.700015
 31
        0.000000
  0
ARC
  8
LVL0000
  6
CONTINUOUS
 10
      -34.695007
 20
     -103.700015
 30
        0.000000
 40
        0.500000
 50
        0.000000
 51
       90.000000
  0
LINE
  8
LVL0000
  6
CONTINUOUS
 10
       35.434998
 20
     -100.200015
 30
        0.000000
 11
       36.954956
 21
     -100.200015
 31
        0.000000
  0
LINE
  8
LVL0000
  6
CONTINUOUS
 10
       27.814987
 20
     -100.200015
 30
        0.000000
 11
       29.334961
 21
     -100.200015
 31
        0.000000
  0
LINE
  8
LVL0000
  6
CONTINUOUS
 10
       20.194992
 20
     -100.200015
 30
        0.000000
 11
       21.714966
 21
     -100.200015
 31
        0.000000
  0
LINE
  8
LVL0000
  6
CONTINUOUS
 10
       12.574997
 20
     -100.200015
 30
        0.000000
 11
       14.094971
 21
     -100.200015
 31
        0.000000
  0
LINE
  8
LVL0000
  6
CONTINUOUS
 10
        4.954987
 20
     -100.200015
 30
        0.000000
 11
        6.474976
 21
     -100.200015
 31
        0.000000
  0
LINE
  8
LVL0000
  6
CONTINUOUS
 10
       -2.665009
 20
     -100.200015
 30
        0.000000
 11
       -1.145035
 21
     -100.200015
 31
        0.000000
  0
LINE
  8
LVL0000
  6
CONTINUOUS
 10
      -10.285004
 20
     -100.200015
 30
        0.000000
 11
       -8.765030
 21
     -100.200015
 31
        0.000000
  0
LINE
  8
LVL0000
  6
CONTINUOUS
 10
      -17.904999
 20
     -100.200015
 30
        0.000000
 11
      -16.385025
 21
     -100.200015
 31
        0.000000
  0
LINE
  8
LVL0000
  6
CONTINUOUS
 10
      -25.525009
 20
     -100.200015
 30
        0.000000
 11
      -24.005035
 21
     -100.200015
 31
        0.000000
  0
LINE
  8
LVL0000
  6
CONTINUOUS
 10
      -33.145004
 20
     -100.200015
 30
        0.000000
 11
      -31.625031
 21
     -100.200015
 31
        0.000000
  0
LINE
  8
LVL0000
  6
CONTINUOUS
 10
      -40.900002
 20
     -100.200015
 30
        0.000000
 11
      -39.245026
 21
     -100.200015
 31
        0.000000
  0
LINE
  8
LVL0000
  6
CONTINUOUS
 10
      -40.900002
 20
     -120.200015
 30
        0.000000
 11
      -40.900002
 21
     -100.200015
 31
        0.000000
  0
LINE
  8
LVL0000
  6
CONTINUOUS
 10
       36.954956
 20
     -109.200015
 30
        0.000000
 11
       39.244934
 21
     -109.200015
 31
        0.000000
  0
LINE
  8
LVL0000
  6
CONTINUOUS
 10
       36.954956
 20
     -101.200015
 30
        0.000000
 11
       39.244934
 21
     -101.200015
 31
        0.000000
  0
LINE
  8
LVL0000
  6
CONTINUOUS
 10
       39.244934
 20
     -100.200015
 30
        0.000000
 11
       40.899986
 21
     -100.200015
 31
        0.000000
  0
LINE
  8
LVL0000
  6
CONTINUOUS
 10
       40.899986
 20
     -120.200015
 30
        0.000000
 11
       40.899986
 21
     -100.200015
 31
        0.000000
  0
LINE
  8
LVL0000
  6
CONTINUOUS
 10
       39.244934
 20
     -115.200015
 30
        0.000000
 11
       39.244934
 21
     -100.200015
 31
        0.000000
  0
LINE
  8
LVL0000
  6
CONTINUOUS
 10
      -39.245026
 20
     -115.200015
 30
        0.000000
 11
      -39.245026
 21
     -100.200015
 31
        0.000000
  0
LINE
  8
LVL0000
  6
CONTINUOUS
 10
      -39.244995
 20
     -115.200015
 30
        0.000000
 11
      -36.955032
 21
     -115.200015
 31
        0.000000
  0
LINE
  8
LVL0000
  6
CONTINUOUS
 10
      -36.955032
 20
     -115.200015
 30
        0.000000
 11
      -36.955032
 21
     -109.200015
 31
        0.000000
  0
LINE
  8
LVL0000
  6
CONTINUOUS
 10
       34.384979
 20
     -107.200015
 30
        0.000000
 11
       34.384979
 21
     -108.700015
 31
        0.000000
  0
LINE
  8
LVL0000
  6
CONTINUOUS
 10
       30.384979
 20
     -107.200015
 30
        0.000000
 11
       30.384979
 21
     -108.700015
 31
        0.000000
  0
LINE
  8
LVL0000
  6
CONTINUOUS
 10
       29.334991
 20
     -107.200015
 30
        0.000000
 11
       35.434982
 21
     -107.200015
 31
        0.000000
  0
LINE
  8
LVL0000
  6
CONTINUOUS
 10
       29.334991
 20
     -106.700015
 30
        0.000000
 11
       35.434982
 21
     -106.700015
 31
        0.000000
  0
LINE
  8
LVL0000
  6
CONTINUOUS
 10
       30.384979
 20
     -108.700015
 30
        0.000000
 11
       34.384979
 21
     -108.700015
 31
        0.000000
  0
LINE
  8
LVL0000
  6
CONTINUOUS
 10
       29.334991
 20
     -109.200015
 30
        0.000000
 11
       35.434982
 21
     -109.200015
 31
        0.000000
  0
LINE
  8
LVL0000
  6
CONTINUOUS
 10
       34.194946
 20
     -112.700015
 30
        0.000000
 11
       38.194946
 21
     -112.700015
 31
        0.000000
  0
LINE
  8
LVL0000
  6
CONTINUOUS
 10
       34.194946
 20
     -111.700015
 30
        0.000000
 11
       34.194946
 21
     -112.700015
 31
        0.000000
  0
LINE
  8
LVL0000
  6
CONTINUOUS
 10
       38.194946
 20
     -111.700015
 30
        0.000000
 11
       38.194946
 21
     -112.700015
 31
        0.000000
  0
LINE
  8
LVL0000
  6
CONTINUOUS
 10
       34.694946
 20
     -111.200015
 30
        0.000000
 11
       35.944946
 21
     -111.200015
 31
        0.000000
  0
ARC
  8
LVL0000
  6
CONTINUOUS
 10
       34.694946
 20
     -111.700015
 30
        0.000000
 40
        0.500000
 50
       90.000000
 51
      180.000010
  0
LINE
  8
LVL0000
  6
CONTINUOUS
 10
       35.944946
 20
     -111.200015
 30
        0.000000
 11
       35.944946
 21
     -111.700015
 31
        0.000000
  0
LINE
  8
LVL0000
  6
CONTINUOUS
 10
       33.144943
 20
     -114.200015
 30
        0.000000
 11
       39.244949
 21
     -114.200015
 31
        0.000000
  0
LINE
  8
LVL0000
  6
CONTINUOUS
 10
       33.144943
 20
     -113.200015
 30
        0.000000
 11
       39.244949
 21
     -113.200015
 31
        0.000000
  0
LINE
  8
LVL0000
  6
CONTINUOUS
 10
       33.144943
 20
     -114.700015
 30
        0.000000
 11
       39.244949
 21
     -114.700015
 31
        0.000000
  0
LINE
  8
LVL0000
  6
CONTINUOUS
 10
       34.194946
 20
     -117.200015
 30
        0.000000
 11
       38.194946
 21
     -117.200015
 31
        0.000000
  0
LINE
  8
LVL0000
  6
CONTINUOUS
 10
       34.194946
 20
     -115.200015
 30
        0.000000
 11
       34.194946
 21
     -117.200015
 31
        0.000000
  0
LINE
  8
LVL0000
  6
CONTINUOUS
 10
       38.194946
 20
     -115.200015
 30
        0.000000
 11
       38.194946
 21
     -117.200015
 31
        0.000000
  0
LINE
  8
LVL0000
  6
CONTINUOUS
 10
       33.144943
 20
     -115.200015
 30
        0.000000
 11
       39.244949
 21
     -115.200015
 31
        0.000000
  0
LINE
  8
LVL0000
  6
CONTINUOUS
 10
       33.144943
 20
     -115.200015
 30
        0.000000
 11
       33.144943
 21
     -109.200015
 31
        0.000000
  0
LINE
  8
LVL0000
  6
CONTINUOUS
 10
       34.694946
 20
     -112.700015
 30
        0.000000
 11
       34.694946
 21
     -113.200015
 31
        0.000000
  0
LINE
  8
LVL0000
  6
CONTINUOUS
 10
       37.694946
 20
     -112.700015
 30
        0.000000
 11
       37.694946
 21
     -113.200015
 31
        0.000000
  0
ARC
  8
LVL0000
  6
CONTINUOUS
 10
       37.694946
 20
     -111.700015
 30
        0.000000
 40
        0.500000
 50
        0.000000
 51
       90.000000
  0
LINE
  8
LVL0000
  6
CONTINUOUS
 10
       36.444946
 20
     -111.200015
 30
        0.000000
 11
       37.694946
 21
     -111.200015
 31
        0.000000
  0
LINE
  8
LVL0000
  6
CONTINUOUS
 10
       36.444946
 20
     -111.200015
 30
        0.000000
 11
       36.444946
 21
     -111.700015
 31
        0.000000
  0
LINE
  8
LVL0000
  6
CONTINUOUS
 10
       35.944946
 20
     -111.700015
 30
        0.000000
 11
       36.444946
 21
     -111.700015
 31
        0.000000
  0
LINE
  8
LVL0000
  6
CONTINUOUS
 10
       26.764984
 20
     -107.200015
 30
        0.000000
 11
       26.764984
 21
     -108.700015
 31
        0.000000
  0
LINE
  8
LVL0000
  6
CONTINUOUS
 10
       22.764984
 20
     -107.200015
 30
        0.000000
 11
       22.764984
 21
     -108.700015
 31
        0.000000
  0
LINE
  8
LVL0000
  6
CONTINUOUS
 10
       21.714996
 20
     -107.200015
 30
        0.000000
 11
       27.814987
 21
     -107.200015
 31
        0.000000
  0
LINE
  8
LVL0000
  6
CONTINUOUS
 10
       21.714996
 20
     -106.700015
 30
        0.000000
 11
       27.814987
 21
     -106.700015
 31
        0.000000
  0
LINE
  8
LVL0000
  6
CONTINUOUS
 10
       22.764984
 20
     -108.700015
 30
        0.000000
 11
       26.764984
 21
     -108.700015
 31
        0.000000
  0
LINE
  8
LVL0000
  6
CONTINUOUS
 10
       21.714996
 20
     -109.200015
 30
        0.000000
 11
       27.814987
 21
     -109.200015
 31
        0.000000
  0
LINE
  8
LVL0000
  6
CONTINUOUS
 10
       26.574951
 20
     -112.700015
 30
        0.000000
 11
       30.574951
 21
     -112.700015
 31
        0.000000
  0
LINE
  8
LVL0000
  6
CONTINUOUS
 10
       26.574951
 20
     -111.700015
 30
        0.000000
 11
       26.574951
 21
     -112.700015
 31
        0.000000
  0
LINE
  8
LVL0000
  6
CONTINUOUS
 10
       30.574951
 20
     -111.700015
 30
        0.000000
 11
       30.574951
 21
     -112.700015
 31
        0.000000
  0
LINE
  8
LVL0000
  6
CONTINUOUS
 10
       27.074951
 20
     -111.200015
 30
        0.000000
 11
       28.324951
 21
     -111.200015
 31
        0.000000
  0
ARC
  8
LVL0000
  6
CONTINUOUS
 10
       27.074951
 20
     -111.700015
 30
        0.000000
 40
        0.500000
 50
       90.000000
 51
      180.000010
  0
LINE
  8
LVL0000
  6
CONTINUOUS
 10
       28.324951
 20
     -111.200015
 30
        0.000000
 11
       28.324951
 21
     -111.700015
 31
        0.000000
  0
LINE
  8
LVL0000
  6
CONTINUOUS
 10
       25.524948
 20
     -114.200015
 30
        0.000000
 11
       31.624954
 21
     -114.200015
 31
        0.000000
  0
LINE
  8
LVL0000
  6
CONTINUOUS
 10
       25.524948
 20
     -113.200015
 30
        0.000000
 11
       31.624954
 21
     -113.200015
 31
        0.000000
  0
LINE
  8
LVL0000
  6
CONTINUOUS
 10
       25.524948
 20
     -114.700015
 30
        0.000000
 11
       31.624954
 21
     -114.700015
 31
        0.000000
  0
LINE
  8
LVL0000
  6
CONTINUOUS
 10
       26.574951
 20
     -117.200015
 30
        0.000000
 11
       30.574951
 21
     -117.200015
 31
        0.000000
  0
LINE
  8
LVL0000
  6
CONTINUOUS
 10
       26.574951
 20
     -115.200015
 30
        0.000000
 11
       26.574951
 21
     -117.200015
 31
        0.000000
  0
LINE
  8
LVL0000
  6
CONTINUOUS
 10
       30.574951
 20
     -115.200015
 30
        0.000000
 11
       30.574951
 21
     -117.200015
 31
        0.000000
  0
LINE
  8
LVL0000
  6
CONTINUOUS
 10
       25.524948
 20
     -115.200015
 30
        0.000000
 11
       31.624954
 21
     -115.200015
 31
        0.000000
  0
LINE
  8
LVL0000
  6
CONTINUOUS
 10
       25.524948
 20
     -115.200015
 30
        0.000000
 11
       25.524948
 21
     -109.200015
 31
        0.000000
  0
LINE
  8
LVL0000
  6
CONTINUOUS
 10
       31.624954
 20
     -115.200015
 30
        0.000000
 11
       31.624954
 21
     -109.200015
 31
        0.000000
  0
LINE
  8
LVL0000
  6
CONTINUOUS
 10
       27.074951
 20
     -112.700015
 30
        0.000000
 11
       27.074951
 21
     -113.200015
 31
        0.000000
  0
LINE
  8
LVL0000
  6
CONTINUOUS
 10
       30.074951
 20
     -112.700015
 30
        0.000000
 11
       30.074951
 21
     -113.200015
 31
        0.000000
  0
ARC
  8
LVL0000
  6
CONTINUOUS
 10
       30.074951
 20
     -111.700015
 30
        0.000000
 40
        0.500000
 50
        0.000000
 51
       90.000000
  0
LINE
  8
LVL0000
  6
CONTINUOUS
 10
       28.824951
 20
     -111.200015
 30
        0.000000
 11
       30.074951
 21
     -111.200015
 31
        0.000000
  0
LINE
  8
LVL0000
  6
CONTINUOUS
 10
       28.824951
 20
     -111.200015
 30
        0.000000
 11
       28.824951
 21
     -111.700015
 31
        0.000000
  0
LINE
  8
LVL0000
  6
CONTINUOUS
 10
       28.324951
 20
     -111.700015
 30
        0.000000
 11
       28.824951
 21
     -111.700015
 31
        0.000000
  0
LINE
  8
LVL0000
  6
CONTINUOUS
 10
       19.144989
 20
     -107.200015
 30
        0.000000
 11
       19.144989
 21
     -108.700015
 31
        0.000000
  0
LINE
  8
LVL0000
  6
CONTINUOUS
 10
       15.144989
 20
     -107.200015
 30
        0.000000
 11
       15.144989
 21
     -108.700015
 31
        0.000000
  0
LINE
  8
LVL0000
  6
CONTINUOUS
 10
       14.095001
 20
     -107.200015
 30
        0.000000
 11
       20.194992
 21
     -107.200015
 31
        0.000000
  0
LINE
  8
LVL0000
  6
CONTINUOUS
 10
       14.095001
 20
     -106.700015
 30
        0.000000
 11
       20.194992
 21
     -106.700015
 31
        0.000000
  0
LINE
  8
LVL0000
  6
CONTINUOUS
 10
       15.144989
 20
     -108.700015
 30
        0.000000
 11
       19.144989
 21
     -108.700015
 31
        0.000000
  0
LINE
  8
LVL0000
  6
CONTINUOUS
 10
       14.095001
 20
     -109.200015
 30
        0.000000
 11
       20.194992
 21
     -109.200015
 31
        0.000000
  0
LINE
  8
LVL0000
  6
CONTINUOUS
 10
       18.954956
 20
     -112.700015
 30
        0.000000
 11
       22.954956
 21
     -112.700015
 31
        0.000000
  0
LINE
  8
LVL0000
  6
CONTINUOUS
 10
       18.954956
 20
     -111.700015
 30
        0.000000
 11
       18.954956
 21
     -112.700015
 31
        0.000000
  0
LINE
  8
LVL0000
  6
CONTINUOUS
 10
       22.954956
 20
     -111.700015
 30
        0.000000
 11
       22.954956
 21
     -112.700015
 31
        0.000000
  0
LINE
  8
LVL0000
  6
CONTINUOUS
 10
       19.454956
 20
     -111.200015
 30
        0.000000
 11
       20.704956
 21
     -111.200015
 31
        0.000000
  0
ARC
  8
LVL0000
  6
CONTINUOUS
 10
       19.454956
 20
     -111.700015
 30
        0.000000
 40
        0.500000
 50
       90.000000
 51
      180.000010
  0
LINE
  8
LVL0000
  6
CONTINUOUS
 10
       20.704956
 20
     -111.200015
 30
        0.000000
 11
       20.704956
 21
     -111.700015
 31
        0.000000
  0
LINE
  8
LVL0000
  6
CONTINUOUS
 10
       17.904953
 20
     -114.200015
 30
        0.000000
 11
       24.004959
 21
     -114.200015
 31
        0.000000
  0
LINE
  8
LVL0000
  6
CONTINUOUS
 10
       17.904953
 20
     -113.200015
 30
        0.000000
 11
       24.004959
 21
     -113.200015
 31
        0.000000
  0
LINE
  8
LVL0000
  6
CONTINUOUS
 10
       17.904953
 20
     -114.700015
 30
        0.000000
 11
       24.004959
 21
     -114.700015
 31
        0.000000
  0
LINE
  8
LVL0000
  6
CONTINUOUS
 10
       18.954956
 20
     -117.200015
 30
        0.000000
 11
       22.954956
 21
     -117.200015
 31
        0.000000
  0
LINE
  8
LVL0000
  6
CONTINUOUS
 10
       18.954956
 20
     -115.200015
 30
        0.000000
 11
       18.954956
 21
     -117.200015
 31
        0.000000
  0
LINE
  8
LVL0000
  6
CONTINUOUS
 10
       22.954956
 20
     -115.200015
 30
        0.000000
 11
       22.954956
 21
     -117.200015
 31
        0.000000
  0
LINE
  8
LVL0000
  6
CONTINUOUS
 10
       17.904953
 20
     -115.200015
 30
        0.000000
 11
       24.004959
 21
     -115.200015
 31
        0.000000
  0
LINE
  8
LVL0000
  6
CONTINUOUS
 10
       17.904953
 20
     -115.200015
 30
        0.000000
 11
       17.904953
 21
     -109.200015
 31
        0.000000
  0
LINE
  8
LVL0000
  6
CONTINUOUS
 10
       24.004959
 20
     -115.200015
 30
        0.000000
 11
       24.004959
 21
     -109.200015
 31
        0.000000
  0
LINE
  8
LVL0000
  6
CONTINUOUS
 10
       19.454956
 20
     -112.700015
 30
        0.000000
 11
       19.454956
 21
     -113.200015
 31
        0.000000
  0
LINE
  8
LVL0000
  6
CONTINUOUS
 10
       22.454956
 20
     -112.700015
 30
        0.000000
 11
       22.454956
 21
     -113.200015
 31
        0.000000
  0
ARC
  8
LVL0000
  6
CONTINUOUS
 10
       22.454956
 20
     -111.700015
 30
        0.000000
 40
        0.500000
 50
        0.000000
 51
       90.000000
  0
LINE
  8
LVL0000
  6
CONTINUOUS
 10
       21.204956
 20
     -111.200015
 30
        0.000000
 11
       22.454956
 21
     -111.200015
 31
        0.000000
  0
LINE
  8
LVL0000
  6
CONTINUOUS
 10
       21.204956
 20
     -111.200015
 30
        0.000000
 11
       21.204956
 21
     -111.700015
 31
        0.000000
  0
LINE
  8
LVL0000
  6
CONTINUOUS
 10
       20.704956
 20
     -111.700015
 30
        0.000000
 11
       21.204956
 21
     -111.700015
 31
        0.000000
  0
LINE
  8
LVL0000
  6
CONTINUOUS
 10
       11.524994
 20
     -107.200015
 30
        0.000000
 11
       11.524994
 21
     -108.700015
 31
        0.000000
  0
LINE
  8
LVL0000
  6
CONTINUOUS
 10
        7.524994
 20
     -107.200015
 30
        0.000000
 11
        7.524994
 21
     -108.700015
 31
        0.000000
  0
LINE
  8
LVL0000
  6
CONTINUOUS
 10
        6.475006
 20
     -107.200015
 30
        0.000000
 11
       12.574982
 21
     -107.200015
 31
        0.000000
  0
LINE
  8
LVL0000
  6
CONTINUOUS
 10
        6.475006
 20
     -106.700015
 30
        0.000000
 11
       12.574982
 21
     -106.700015
 31
        0.000000
  0
LINE
  8
LVL0000
  6
CONTINUOUS
 10
        7.524994
 20
     -108.700015
 30
        0.000000
 11
       11.524994
 21
     -108.700015
 31
        0.000000
  0
LINE
  8
LVL0000
  6
CONTINUOUS
 10
        6.475006
 20
     -109.200015
 30
        0.000000
 11
       12.574982
 21
     -109.200015
 31
        0.000000
  0
LINE
  8
LVL0000
  6
CONTINUOUS
 10
       11.334961
 20
     -112.700015
 30
        0.000000
 11
       15.334961
 21
     -112.700015
 31
        0.000000
  0
LINE
  8
LVL0000
  6
CONTINUOUS
 10
       11.334961
 20
     -111.700015
 30
        0.000000
 11
       11.334961
 21
     -112.700015
 31
        0.000000
  0
LINE
  8
LVL0000
  6
CONTINUOUS
 10
       15.334961
 20
     -111.700015
 30
        0.000000
 11
       15.334961
 21
     -112.700015
 31
        0.000000
  0
LINE
  8
LVL0000
  6
CONTINUOUS
 10
       11.834961
 20
     -111.200015
 30
        0.000000
 11
       13.084961
 21
     -111.200015
 31
        0.000000
  0
ARC
  8
LVL0000
  6
CONTINUOUS
 10
       11.834961
 20
     -111.700015
 30
        0.000000
 40
        0.500000
 50
       90.000000
 51
      180.000010
  0
LINE
  8
LVL0000
  6
CONTINUOUS
 10
       13.084961
 20
     -111.200015
 30
        0.000000
 11
       13.084961
 21
     -111.700015
 31
        0.000000
  0
LINE
  8
LVL0000
  6
CONTINUOUS
 10
       10.284943
 20
     -114.200015
 30
        0.000000
 11
       16.384949
 21
     -114.200015
 31
        0.000000
  0
LINE
  8
LVL0000
  6
CONTINUOUS
 10
       10.284943
 20
     -113.200015
 30
        0.000000
 11
       16.384949
 21
     -113.200015
 31
        0.000000
  0
LINE
  8
LVL0000
  6
CONTINUOUS
 10
       10.284943
 20
     -114.700015
 30
        0.000000
 11
       16.384949
 21
     -114.700015
 31
        0.000000
  0
LINE
  8
LVL0000
  6
CONTINUOUS
 10
       11.334961
 20
     -117.200015
 30
        0.000000
 11
       15.334961
 21
     -117.200015
 31
        0.000000
  0
LINE
  8
LVL0000
  6
CONTINUOUS
 10
       11.334961
 20
     -115.200015
 30
        0.000000
 11
       11.334961
 21
     -117.200015
 31
        0.000000
  0
LINE
  8
LVL0000
  6
CONTINUOUS
 10
       15.334961
 20
     -115.200015
 30
        0.000000
 11
       15.334961
 21
     -117.200015
 31
        0.000000
  0
LINE
  8
LVL0000
  6
CONTINUOUS
 10
       10.284943
 20
     -115.200015
 30
        0.000000
 11
       16.384949
 21
     -115.200015
 31
        0.000000
  0
LINE
  8
LVL0000
  6
CONTINUOUS
 10
       10.284943
 20
     -115.200015
 30
        0.000000
 11
       10.284943
 21
     -109.200015
 31
        0.000000
  0
LINE
  8
LVL0000
  6
CONTINUOUS
 10
       16.384949
 20
     -115.200015
 30
        0.000000
 11
       16.384949
 21
     -109.200015
 31
        0.000000
  0
LINE
  8
LVL0000
  6
CONTINUOUS
 10
       11.834961
 20
     -112.700015
 30
        0.000000
 11
       11.834961
 21
     -113.200015
 31
        0.000000
  0
LINE
  8
LVL0000
  6
CONTINUOUS
 10
       14.834961
 20
     -112.700015
 30
        0.000000
 11
       14.834961
 21
     -113.200015
 31
        0.000000
  0
ARC
  8
LVL0000
  6
CONTINUOUS
 10
       14.834961
 20
     -111.700015
 30
        0.000000
 40
        0.500000
 50
        0.000000
 51
       90.000000
  0
LINE
  8
LVL0000
  6
CONTINUOUS
 10
       13.584961
 20
     -111.200015
 30
        0.000000
 11
       14.834961
 21
     -111.200015
 31
        0.000000
  0
LINE
  8
LVL0000
  6
CONTINUOUS
 10
       13.584961
 20
     -111.200015
 30
        0.000000
 11
       13.584961
 21
     -111.700015
 31
        0.000000
  0
LINE
  8
LVL0000
  6
CONTINUOUS
 10
       13.084961
 20
     -111.700015
 30
        0.000000
 11
       13.584961
 21
     -111.700015
 31
        0.000000
  0
LINE
  8
LVL0000
  6
CONTINUOUS
 10
        3.904984
 20
     -107.200015
 30
        0.000000
 11
        3.904984
 21
     -108.700015
 31
        0.000000
  0
LINE
  8
LVL0000
  6
CONTINUOUS
 10
       -0.095016
 20
     -107.200015
 30
        0.000000
 11
       -0.095016
 21
     -108.700015
 31
        0.000000
  0
LINE
  8
LVL0000
  6
CONTINUOUS
 10
       -1.145004
 20
     -107.200015
 30
        0.000000
 11
        4.954987
 21
     -107.200015
 31
        0.000000
  0
LINE
  8
LVL0000
  6
CONTINUOUS
 10
       -1.145004
 20
     -106.700015
 30
        0.000000
 11
        4.954987
 21
     -106.700015
 31
        0.000000
  0
LINE
  8
LVL0000
  6
CONTINUOUS
 10
       -0.095016
 20
     -108.700015
 30
        0.000000
 11
        3.904984
 21
     -108.700015
 31
        0.000000
  0
LINE
  8
LVL0000
  6
CONTINUOUS
 10
       -1.145004
 20
     -109.200015
 30
        0.000000
 11
        4.954987
 21
     -109.200015
 31
        0.000000
  0
LINE
  8
LVL0000
  6
CONTINUOUS
 10
        3.714951
 20
     -112.700015
 30
        0.000000
 11
        7.714951
 21
     -112.700015
 31
        0.000000
  0
LINE
  8
LVL0000
  6
CONTINUOUS
 10
        3.714951
 20
     -111.700015
 30
        0.000000
 11
        3.714951
 21
     -112.700015
 31
        0.000000
  0
LINE
  8
LVL0000
  6
CONTINUOUS
 10
        7.714951
 20
     -111.700015
 30
        0.000000
 11
        7.714951
 21
     -112.700015
 31
        0.000000
  0
LINE
  8
LVL0000
  6
CONTINUOUS
 10
        4.214951
 20
     -111.200015
 30
        0.000000
 11
        5.464951
 21
     -111.200015
 31
        0.000000
  0
ARC
  8
LVL0000
  6
CONTINUOUS
 10
        4.214951
 20
     -111.700015
 30
        0.000000
 40
        0.500000
 50
       90.000000
 51
      180.000010
  0
LINE
  8
LVL0000
  6
CONTINUOUS
 10
        5.464951
 20
     -111.200015
 30
        0.000000
 11
        5.464951
 21
     -111.700015
 31
        0.000000
  0
LINE
  8
LVL0000
  6
CONTINUOUS
 10
        2.664948
 20
     -114.200015
 30
        0.000000
 11
        8.764954
 21
     -114.200015
 31
        0.000000
  0
LINE
  8
LVL0000
  6
CONTINUOUS
 10
        2.664948
 20
     -113.200015
 30
        0.000000
 11
        8.764954
 21
     -113.200015
 31
        0.000000
  0
LINE
  8
LVL0000
  6
CONTINUOUS
 10
        2.664948
 20
     -114.700015
 30
        0.000000
 11
        8.764954
 21
     -114.700015
 31
        0.000000
  0
LINE
  8
LVL0000
  6
CONTINUOUS
 10
        3.714951
 20
     -117.200015
 30
        0.000000
 11
        7.714951
 21
     -117.200015
 31
        0.000000
  0
LINE
  8
LVL0000
  6
CONTINUOUS
 10
        3.714951
 20
     -115.200015
 30
        0.000000
 11
        3.714951
 21
     -117.200015
 31
        0.000000
  0
LINE
  8
LVL0000
  6
CONTINUOUS
 10
        7.714951
 20
     -115.200015
 30
        0.000000
 11
        7.714951
 21
     -117.200015
 31
        0.000000
  0
LINE
  8
LVL0000
  6
CONTINUOUS
 10
        2.664948
 20
     -115.200015
 30
        0.000000
 11
        8.764954
 21
     -115.200015
 31
        0.000000
  0
LINE
  8
LVL0000
  6
CONTINUOUS
 10
        2.664948
 20
     -115.200015
 30
        0.000000
 11
        2.664948
 21
     -109.200015
 31
        0.000000
  0
LINE
  8
LVL0000
  6
CONTINUOUS
 10
        8.764954
 20
     -115.200015
 30
        0.000000
 11
        8.764954
 21
     -109.200015
 31
        0.000000
  0
LINE
  8
LVL0000
  6
CONTINUOUS
 10
        4.214951
 20
     -112.700015
 30
        0.000000
 11
        4.214951
 21
     -113.200015
 31
        0.000000
  0
LINE
  8
LVL0000
  6
CONTINUOUS
 10
        7.214951
 20
     -112.700015
 30
        0.000000
 11
        7.214951
 21
     -113.200015
 31
        0.000000
  0
ARC
  8
LVL0000
  6
CONTINUOUS
 10
        7.214951
 20
     -111.700015
 30
        0.000000
 40
        0.500000
 50
        0.000000
 51
       90.000000
  0
LINE
  8
LVL0000
  6
CONTINUOUS
 10
        5.964951
 20
     -111.200015
 30
        0.000000
 11
        7.214951
 21
     -111.200015
 31
        0.000000
  0
LINE
  8
LVL0000
  6
CONTINUOUS
 10
        5.964951
 20
     -111.200015
 30
        0.000000
 11
        5.964951
 21
     -111.700015
 31
        0.000000
  0
LINE
  8
LVL0000
  6
CONTINUOUS
 10
        5.464951
 20
     -111.700015
 30
        0.000000
 11
        5.964951
 21
     -111.700015
 31
        0.000000
  0
LINE
  8
LVL0000
  6
CONTINUOUS
 10
       -3.715012
 20
     -107.200015
 30
        0.000000
 11
       -3.715012
 21
     -108.700015
 31
        0.000000
  0
LINE
  8
LVL0000
  6
CONTINUOUS
 10
       -7.715012
 20
     -107.200015
 30
        0.000000
 11
       -7.715012
 21
     -108.700015
 31
        0.000000
  0
LINE
  8
LVL0000
  6
CONTINUOUS
 10
       -8.764999
 20
     -107.200015
 30
        0.000000
 11
       -2.665009
 21
     -107.200015
 31
        0.000000
  0
LINE
  8
LVL0000
  6
CONTINUOUS
 10
       -8.764999
 20
     -106.700015
 30
        0.000000
 11
       -2.665009
 21
     -106.700015
 31
        0.000000
  0
LINE
  8
LVL0000
  6
CONTINUOUS
 10
       -7.715012
 20
     -108.700015
 30
        0.000000
 11
       -3.715012
 21
     -108.700015
 31
        0.000000
  0
LINE
  8
LVL0000
  6
CONTINUOUS
 10
       -8.764999
 20
     -109.200015
 30
        0.000000
 11
       -2.665009
 21
     -109.200015
 31
        0.000000
  0
LINE
  8
LVL0000
  6
CONTINUOUS
 10
       -3.905045
 20
     -112.700015
 30
        0.000000
 11
        0.094955
 21
     -112.700015
 31
        0.000000
  0
LINE
  8
LVL0000
  6
CONTINUOUS
 10
       -3.905045
 20
     -111.700015
 30
        0.000000
 11
       -3.905045
 21
     -112.700015
 31
        0.000000
  0
LINE
  8
LVL0000
  6
CONTINUOUS
 10
        0.094955
 20
     -111.700015
 30
        0.000000
 11
        0.094955
 21
     -112.700015
 31
        0.000000
  0
LINE
  8
LVL0000
  6
CONTINUOUS
 10
       -3.405045
 20
     -111.200015
 30
        0.000000
 11
       -2.155045
 21
     -111.200015
 31
        0.000000
  0
ARC
  8
LVL0000
  6
CONTINUOUS
 10
       -3.405045
 20
     -111.700015
 30
        0.000000
 40
        0.500000
 50
       90.000000
 51
      180.000010
  0
LINE
  8
LVL0000
  6
CONTINUOUS
 10
       -2.155045
 20
     -111.200015
 30
        0.000000
 11
       -2.155045
 21
     -111.700015
 31
        0.000000
  0
LINE
  8
LVL0000
  6
CONTINUOUS
 10
       -4.955048
 20
     -114.200015
 30
        0.000000
 11
        1.144958
 21
     -114.200015
 31
        0.000000
  0
LINE
  8
LVL0000
  6
CONTINUOUS
 10
       -4.955048
 20
     -113.200015
 30
        0.000000
 11
        1.144958
 21
     -113.200015
 31
        0.000000
  0
LINE
  8
LVL0000
  6
CONTINUOUS
 10
       -4.955048
 20
     -114.700015
 30
        0.000000
 11
        1.144958
 21
     -114.700015
 31
        0.000000
  0
LINE
  8
LVL0000
  6
CONTINUOUS
 10
       -3.905045
 20
     -117.200015
 30
        0.000000
 11
        0.094955
 21
     -117.200015
 31
        0.000000
  0
LINE
  8
LVL0000
  6
CONTINUOUS
 10
       -3.905045
 20
     -115.200015
 30
        0.000000
 11
       -3.905045
 21
     -117.200015
 31
        0.000000
  0
LINE
  8
LVL0000
  6
CONTINUOUS
 10
        0.094955
 20
     -115.200015
 30
        0.000000
 11
        0.094955
 21
     -117.200015
 31
        0.000000
  0
LINE
  8
LVL0000
  6
CONTINUOUS
 10
       -4.955048
 20
     -115.200015
 30
        0.000000
 11
        1.144958
 21
     -115.200015
 31
        0.000000
  0
LINE
  8
LVL0000
  6
CONTINUOUS
 10
       -4.955048
 20
     -115.200015
 30
        0.000000
 11
       -4.955048
 21
     -109.200015
 31
        0.000000
  0
LINE
  8
LVL0000
  6
CONTINUOUS
 10
        1.144958
 20
     -115.200015
 30
        0.000000
 11
        1.144958
 21
     -109.200015
 31
        0.000000
  0
LINE
  8
LVL0000
  6
CONTINUOUS
 10
       -3.405045
 20
     -112.700015
 30
        0.000000
 11
       -3.405045
 21
     -113.200015
 31
        0.000000
  0
LINE
  8
LVL0000
  6
CONTINUOUS
 10
       -0.405045
 20
     -112.700015
 30
        0.000000
 11
       -0.405045
 21
     -113.200015
 31
        0.000000
  0
ARC
  8
LVL0000
  6
CONTINUOUS
 10
       -0.405045
 20
     -111.700015
 30
        0.000000
 40
        0.500000
 50
        0.000000
 51
       90.000000
  0
LINE
  8
LVL0000
  6
CONTINUOUS
 10
       -1.655045
 20
     -111.200015
 30
        0.000000
 11
       -0.405045
 21
     -111.200015
 31
        0.000000
  0
LINE
  8
LVL0000
  6
CONTINUOUS
 10
       -1.655045
 20
     -111.200015
 30
        0.000000
 11
       -1.655045
 21
     -111.700015
 31
        0.000000
  0
LINE
  8
LVL0000
  6
CONTINUOUS
 10
       -2.155045
 20
     -111.700015
 30
        0.000000
 11
       -1.655045
 21
     -111.700015
 31
        0.000000
  0
LINE
  8
LVL0000
  6
CONTINUOUS
 10
      -11.335007
 20
     -107.200015
 30
        0.000000
 11
      -11.335007
 21
     -108.700015
 31
        0.000000
  0
LINE
  8
LVL0000
  6
CONTINUOUS
 10
      -15.335007
 20
     -107.200015
 30
        0.000000
 11
      -15.335007
 21
     -108.700015
 31
        0.000000
  0
LINE
  8
LVL0000
  6
CONTINUOUS
 10
      -16.384995
 20
     -107.200015
 30
        0.000000
 11
      -10.285004
 21
     -107.200015
 31
        0.000000
  0
LINE
  8
LVL0000
  6
CONTINUOUS
 10
      -16.384995
 20
     -106.700015
 30
        0.000000
 11
      -10.285004
 21
     -106.700015
 31
        0.000000
  0
LINE
  8
LVL0000
  6
CONTINUOUS
 10
      -15.335007
 20
     -108.700015
 30
        0.000000
 11
      -11.335007
 21
     -108.700015
 31
        0.000000
  0
LINE
  8
LVL0000
  6
CONTINUOUS
 10
      -16.384995
 20
     -109.200015
 30
        0.000000
 11
      -10.285004
 21
     -109.200015
 31
        0.000000
  0
LINE
  8
LVL0000
  6
CONTINUOUS
 10
      -11.525040
 20
     -112.700015
 30
        0.000000
 11
       -7.525040
 21
     -112.700015
 31
        0.000000
  0
LINE
  8
LVL0000
  6
CONTINUOUS
 10
      -11.525040
 20
     -111.700015
 30
        0.000000
 11
      -11.525040
 21
     -112.700015
 31
        0.000000
  0
LINE
  8
LVL0000
  6
CONTINUOUS
 10
       -7.525040
 20
     -111.700015
 30
        0.000000
 11
       -7.525040
 21
     -112.700015
 31
        0.000000
  0
LINE
  8
LVL0000
  6
CONTINUOUS
 10
      -11.025040
 20
     -111.200015
 30
        0.000000
 11
       -9.775040
 21
     -111.200015
 31
        0.000000
  0
ARC
  8
LVL0000
  6
CONTINUOUS
 10
      -11.025040
 20
     -111.700015
 30
        0.000000
 40
        0.500000
 50
       90.000000
 51
      180.000010
  0
LINE
  8
LVL0000
  6
CONTINUOUS
 10
       -9.775040
 20
     -111.200015
 30
        0.000000
 11
       -9.775040
 21
     -111.700015
 31
        0.000000
  0
LINE
  8
LVL0000
  6
CONTINUOUS
 10
      -12.575043
 20
     -114.200015
 30
        0.000000
 11
       -6.475037
 21
     -114.200015
 31
        0.000000
  0
LINE
  8
LVL0000
  6
CONTINUOUS
 10
      -12.575043
 20
     -113.200015
 30
        0.000000
 11
       -6.475037
 21
     -113.200015
 31
        0.000000
  0
LINE
  8
LVL0000
  6
CONTINUOUS
 10
      -12.575043
 20
     -114.700015
 30
        0.000000
 11
       -6.475037
 21
     -114.700015
 31
        0.000000
  0
LINE
  8
LVL0000
  6
CONTINUOUS
 10
      -11.525040
 20
     -117.200015
 30
        0.000000
 11
       -7.525040
 21
     -117.200015
 31
        0.000000
  0
LINE
  8
LVL0000
  6
CONTINUOUS
 10
      -11.525040
 20
     -115.200015
 30
        0.000000
 11
      -11.525040
 21
     -117.200015
 31
        0.000000
  0
LINE
  8
LVL0000
  6
CONTINUOUS
 10
       -7.525040
 20
     -115.200015
 30
        0.000000
 11
       -7.525040
 21
     -117.200015
 31
        0.000000
  0
LINE
  8
LVL0000
  6
CONTINUOUS
 10
      -12.575043
 20
     -115.200015
 30
        0.000000
 11
       -6.475037
 21
     -115.200015
 31
        0.000000
  0
LINE
  8
LVL0000
  6
CONTINUOUS
 10
      -12.575043
 20
     -115.200015
 30
        0.000000
 11
      -12.575043
 21
     -109.200015
 31
        0.000000
  0
LINE
  8
LVL0000
  6
CONTINUOUS
 10
       -6.475037
 20
     -115.200015
 30
        0.000000
 11
       -6.475037
 21
     -109.200015
 31
        0.000000
  0
LINE
  8
LVL0000
  6
CONTINUOUS
 10
      -11.025040
 20
     -112.700015
 30
        0.000000
 11
      -11.025040
 21
     -113.200015
 31
        0.000000
  0
LINE
  8
LVL0000
  6
CONTINUOUS
 10
       -8.025040
 20
     -112.700015
 30
        0.000000
 11
       -8.025040
 21
     -113.200015
 31
        0.000000
  0
ARC
  8
LVL0000
  6
CONTINUOUS
 10
       -8.025040
 20
     -111.700015
 30
        0.000000
 40
        0.500000
 50
        0.000000
 51
       90.000000
  0
LINE
  8
LVL0000
  6
CONTINUOUS
 10
       -9.275040
 20
     -111.200015
 30
        0.000000
 11
       -8.025040
 21
     -111.200015
 31
        0.000000
  0
LINE
  8
LVL0000
  6
CONTINUOUS
 10
       -9.275040
 20
     -111.200015
 30
        0.000000
 11
       -9.275040
 21
     -111.700015
 31
        0.000000
  0
LINE
  8
LVL0000
  6
CONTINUOUS
 10
       -9.775040
 20
     -111.700015
 30
        0.000000
 11
       -9.275040
 21
     -111.700015
 31
        0.000000
  0
LINE
  8
LVL0000
  6
CONTINUOUS
 10
      -18.955017
 20
     -107.200015
 30
        0.000000
 11
      -18.955017
 21
     -108.700015
 31
        0.000000
  0
LINE
  8
LVL0000
  6
CONTINUOUS
 10
      -22.955017
 20
     -107.200015
 30
        0.000000
 11
      -22.955017
 21
     -108.700015
 31
        0.000000
  0
LINE
  8
LVL0000
  6
CONTINUOUS
 10
      -24.005005
 20
     -107.200015
 30
        0.000000
 11
      -17.905014
 21
     -107.200015
 31
        0.000000
  0
LINE
  8
LVL0000
  6
CONTINUOUS
 10
      -24.005005
 20
     -106.700015
 30
        0.000000
 11
      -17.905014
 21
     -106.700015
 31
        0.000000
  0
LINE
  8
LVL0000
  6
CONTINUOUS
 10
      -22.955017
 20
     -108.700015
 30
        0.000000
 11
      -18.955017
 21
     -108.700015
 31
        0.000000
  0
LINE
  8
LVL0000
  6
CONTINUOUS
 10
      -24.005005
 20
     -109.200015
 30
        0.000000
 11
      -17.905014
 21
     -109.200015
 31
        0.000000
  0
LINE
  8
LVL0000
  6
CONTINUOUS
 10
      -19.145050
 20
     -112.700015
 30
        0.000000
 11
      -15.145050
 21
     -112.700015
 31
        0.000000
  0
LINE
  8
LVL0000
  6
CONTINUOUS
 10
      -19.145050
 20
     -111.700015
 30
        0.000000
 11
      -19.145050
 21
     -112.700015
 31
        0.000000
  0
LINE
  8
LVL0000
  6
CONTINUOUS
 10
      -15.145050
 20
     -111.700015
 30
        0.000000
 11
      -15.145050
 21
     -112.700015
 31
        0.000000
  0
LINE
  8
LVL0000
  6
CONTINUOUS
 10
      -18.645050
 20
     -111.200015
 30
        0.000000
 11
      -17.395050
 21
     -111.200015
 31
        0.000000
  0
ARC
  8
LVL0000
  6
CONTINUOUS
 10
      -18.645050
 20
     -111.700015
 30
        0.000000
 40
        0.500000
 50
       90.000000
 51
      180.000010
  0
LINE
  8
LVL0000
  6
CONTINUOUS
 10
      -17.395050
 20
     -111.200015
 30
        0.000000
 11
      -17.395050
 21
     -111.700015
 31
        0.000000
  0
LINE
  8
LVL0000
  6
CONTINUOUS
 10
      -20.195053
 20
     -114.200015
 30
        0.000000
 11
      -14.095047
 21
     -114.200015
 31
        0.000000
  0
LINE
  8
LVL0000
  6
CONTINUOUS
 10
      -20.195053
 20
     -113.200015
 30
        0.000000
 11
      -14.095047
 21
     -113.200015
 31
        0.000000
  0
LINE
  8
LVL0000
  6
CONTINUOUS
 10
      -20.195053
 20
     -114.700015
 30
        0.000000
 11
      -14.095047
 21
     -114.700015
 31
        0.000000
  0
LINE
  8
LVL0000
  6
CONTINUOUS
 10
      -19.145050
 20
     -117.200015
 30
        0.000000
 11
      -15.145050
 21
     -117.200015
 31
        0.000000
  0
LINE
  8
LVL0000
  6
CONTINUOUS
 10
      -19.145050
 20
     -115.200015
 30
        0.000000
 11
      -19.145050
 21
     -117.200015
 31
        0.000000
  0
LINE
  8
LVL0000
  6
CONTINUOUS
 10
      -15.145050
 20
     -115.200015
 30
        0.000000
 11
      -15.145050
 21
     -117.200015
 31
        0.000000
  0
LINE
  8
LVL0000
  6
CONTINUOUS
 10
      -20.195053
 20
     -115.200015
 30
        0.000000
 11
      -14.095047
 21
     -115.200015
 31
        0.000000
  0
LINE
  8
LVL0000
  6
CONTINUOUS
 10
      -20.195053
 20
     -115.200015
 30
        0.000000
 11
      -20.195053
 21
     -109.200015
 31
        0.000000
  0
LINE
  8
LVL0000
  6
CONTINUOUS
 10
      -14.095047
 20
     -115.200015
 30
        0.000000
 11
      -14.095047
 21
     -109.200015
 31
        0.000000
  0
LINE
  8
LVL0000
  6
CONTINUOUS
 10
      -18.645050
 20
     -112.700015
 30
        0.000000
 11
      -18.645050
 21
     -113.200015
 31
        0.000000
  0
LINE
  8
LVL0000
  6
CONTINUOUS
 10
      -15.645050
 20
     -112.700015
 30
        0.000000
 11
      -15.645050
 21
     -113.200015
 31
        0.000000
  0
ARC
  8
LVL0000
  6
CONTINUOUS
 10
      -15.645050
 20
     -111.700015
 30
        0.000000
 40
        0.500000
 50
        0.000000
 51
       90.000000
  0
LINE
  8
LVL0000
  6
CONTINUOUS
 10
      -16.895050
 20
     -111.200015
 30
        0.000000
 11
      -15.645050
 21
     -111.200015
 31
        0.000000
  0
LINE
  8
LVL0000
  6
CONTINUOUS
 10
      -16.895050
 20
     -111.200015
 30
        0.000000
 11
      -16.895050
 21
     -111.700015
 31
        0.000000
  0
LINE
  8
LVL0000
  6
CONTINUOUS
 10
      -17.395050
 20
     -111.700015
 30
        0.000000
 11
      -16.895050
 21
     -111.700015
 31
        0.000000
  0
LINE
  8
LVL0000
  6
CONTINUOUS
 10
      -25.015045
 20
     -111.700015
 30
        0.000000
 11
      -24.515045
 21
     -111.700015
 31
        0.000000
  0
LINE
  8
LVL0000
  6
CONTINUOUS
 10
      -24.515045
 20
     -111.200015
 30
        0.000000
 11
      -24.515045
 21
     -111.700015
 31
        0.000000
  0
LINE
  8
LVL0000
  6
CONTINUOUS
 10
      -24.515045
 20
     -111.200015
 30
        0.000000
 11
      -23.265045
 21
     -111.200015
 31
        0.000000
  0
ARC
  8
LVL0000
  6
CONTINUOUS
 10
      -23.265045
 20
     -111.700015
 30
        0.000000
 40
        0.500000
 50
        0.000000
 51
       90.000000
  0
LINE
  8
LVL0000
  6
CONTINUOUS
 10
      -23.265045
 20
     -112.700015
 30
        0.000000
 11
      -23.265045
 21
     -113.200015
 31
        0.000000
  0
LINE
  8
LVL0000
  6
CONTINUOUS
 10
      -26.265045
 20
     -112.700015
 30
        0.000000
 11
      -26.265045
 21
     -113.200015
 31
        0.000000
  0
LINE
  8
LVL0000
  6
CONTINUOUS
 10
      -21.715042
 20
     -115.200015
 30
        0.000000
 11
      -21.715042
 21
     -109.200015
 31
        0.000000
  0
LINE
  8
LVL0000
  6
CONTINUOUS
 10
      -27.815048
 20
     -115.200015
 30
        0.000000
 11
      -27.815048
 21
     -109.200015
 31
        0.000000
  0
LINE
  8
LVL0000
  6
CONTINUOUS
 10
      -27.815048
 20
     -115.200015
 30
        0.000000
 11
      -21.715042
 21
     -115.200015
 31
        0.000000
  0
LINE
  8
LVL0000
  6
CONTINUOUS
 10
      -22.765045
 20
     -115.200015
 30
        0.000000
 11
      -22.765045
 21
     -117.200015
 31
        0.000000
  0
LINE
  8
LVL0000
  6
CONTINUOUS
 10
      -26.765045
 20
     -115.200015
 30
        0.000000
 11
      -26.765045
 21
     -117.200015
 31
        0.000000
  0
LINE
  8
LVL0000
  6
CONTINUOUS
 10
      -26.765045
 20
     -117.200015
 30
        0.000000
 11
      -22.765045
 21
     -117.200015
 31
        0.000000
  0
LINE
  8
LVL0000
  6
CONTINUOUS
 10
      -27.815048
 20
     -114.700015
 30
        0.000000
 11
      -21.715042
 21
     -114.700015
 31
        0.000000
  0
LINE
  8
LVL0000
  6
CONTINUOUS
 10
      -27.815048
 20
     -113.200015
 30
        0.000000
 11
      -21.715042
 21
     -113.200015
 31
        0.000000
  0
LINE
  8
LVL0000
  6
CONTINUOUS
 10
      -27.815048
 20
     -114.200015
 30
        0.000000
 11
      -21.715042
 21
     -114.200015
 31
        0.000000
  0
LINE
  8
LVL0000
  6
CONTINUOUS
 10
      -25.015045
 20
     -111.200015
 30
        0.000000
 11
      -25.015045
 21
     -111.700015
 31
        0.000000
  0
ARC
  8
LVL0000
  6
CONTINUOUS
 10
      -26.265045
 20
     -111.700015
 30
        0.000000
 40
        0.500000
 50
       90.000000
 51
      180.000010
  0
LINE
  8
LVL0000
  6
CONTINUOUS
 10
      -26.265045
 20
     -111.200015
 30
        0.000000
 11
      -25.015045
 21
     -111.200015
 31
        0.000000
  0
LINE
  8
LVL0000
  6
CONTINUOUS
 10
      -22.765045
 20
     -111.700015
 30
        0.000000
 11
      -22.765045
 21
     -112.700015
 31
        0.000000
  0
LINE
  8
LVL0000
  6
CONTINUOUS
 10
      -26.765045
 20
     -111.700015
 30
        0.000000
 11
      -26.765045
 21
     -112.700015
 31
        0.000000
  0
LINE
  8
LVL0000
  6
CONTINUOUS
 10
      -26.765045
 20
     -112.700015
 30
        0.000000
 11
      -22.765045
 21
     -112.700015
 31
        0.000000
  0
LINE
  8
LVL0000
  6
CONTINUOUS
 10
      -32.635040
 20
     -111.700015
 30
        0.000000
 11
      -32.135040
 21
     -111.700015
 31
        0.000000
  0
LINE
  8
LVL0000
  6
CONTINUOUS
 10
      -32.135040
 20
     -111.200015
 30
        0.000000
 11
      -32.135040
 21
     -111.700015
 31
        0.000000
  0
LINE
  8
LVL0000
  6
CONTINUOUS
 10
      -32.135040
 20
     -111.200015
 30
        0.000000
 11
      -30.885040
 21
     -111.200015
 31
        0.000000
  0
ARC
  8
LVL0000
  6
CONTINUOUS
 10
      -30.885040
 20
     -111.700015
 30
        0.000000
 40
        0.500000
 50
        0.000000
 51
       90.000000
  0
LINE
  8
LVL0000
  6
CONTINUOUS
 10
      -30.885040
 20
     -112.700015
 30
        0.000000
 11
      -30.885040
 21
     -113.200015
 31
        0.000000
  0
LINE
  8
LVL0000
  6
CONTINUOUS
 10
      -33.885040
 20
     -112.700015
 30
        0.000000
 11
      -33.885040
 21
     -113.200015
 31
        0.000000
  0
LINE
  8
LVL0000
  6
CONTINUOUS
 10
      -29.335037
 20
     -115.200015
 30
        0.000000
 11
      -29.335037
 21
     -109.200015
 31
        0.000000
  0
LINE
  8
LVL0000
  6
CONTINUOUS
 10
      -35.435043
 20
     -115.200015
 30
        0.000000
 11
      -35.435043
 21
     -109.200015
 31
        0.000000
  0
LINE
  8
LVL0000
  6
CONTINUOUS
 10
      -35.435043
 20
     -115.200015
 30
        0.000000
 11
      -29.335037
 21
     -115.200015
 31
        0.000000
  0
LINE
  8
LVL0000
  6
CONTINUOUS
 10
      -30.385040
 20
     -115.200015
 30
        0.000000
 11
      -30.385040
 21
     -117.200015
 31
        0.000000
  0
LINE
  8
LVL0000
  6
CONTINUOUS
 10
      -34.385040
 20
     -115.200015
 30
        0.000000
 11
      -34.385040
 21
     -117.200015
 31
        0.000000
  0
LINE
  8
LVL0000
  6
CONTINUOUS
 10
      -34.385040
 20
     -117.200015
 30
        0.000000
 11
      -30.385040
 21
     -117.200015
 31
        0.000000
  0
LINE
  8
LVL0000
  6
CONTINUOUS
 10
      -35.435043
 20
     -114.700015
 30
        0.000000
 11
      -29.335037
 21
     -114.700015
 31
        0.000000
  0
LINE
  8
LVL0000
  6
CONTINUOUS
 10
      -35.435043
 20
     -113.200015
 30
        0.000000
 11
      -29.335037
 21
     -113.200015
 31
        0.000000
  0
LINE
  8
LVL0000
  6
CONTINUOUS
 10
      -35.435043
 20
     -114.200015
 30
        0.000000
 11
      -29.335037
 21
     -114.200015
 31
        0.000000
  0
LINE
  8
LVL0000
  6
CONTINUOUS
 10
      -32.635040
 20
     -111.200015
 30
        0.000000
 11
      -32.635040
 21
     -111.700015
 31
        0.000000
  0
ARC
  8
LVL0000
  6
CONTINUOUS
 10
      -33.885040
 20
     -111.700015
 30
        0.000000
 40
        0.500000
 50
       90.000000
 51
      180.000010
  0
LINE
  8
LVL0000
  6
CONTINUOUS
 10
      -33.885040
 20
     -111.200015
 30
        0.000000
 11
      -32.635040
 21
     -111.200015
 31
        0.000000
  0
LINE
  8
LVL0000
  6
CONTINUOUS
 10
      -30.385040
 20
     -111.700015
 30
        0.000000
 11
      -30.385040
 21
     -112.700015
 31
        0.000000
  0
LINE
  8
LVL0000
  6
CONTINUOUS
 10
      -34.385040
 20
     -111.700015
 30
        0.000000
 11
      -34.385040
 21
     -112.700015
 31
        0.000000
  0
LINE
  8
LVL0000
  6
CONTINUOUS
 10
      -34.385040
 20
     -112.700015
 30
        0.000000
 11
      -30.385040
 21
     -112.700015
 31
        0.000000
  0
LINE
  8
LVL0000
  6
CONTINUOUS
 10
      -31.625000
 20
     -109.200015
 30
        0.000000
 11
      -25.525009
 21
     -109.200015
 31
        0.000000
  0
LINE
  8
LVL0000
  6
CONTINUOUS
 10
      -39.244995
 20
     -109.200015
 30
        0.000000
 11
      -33.145004
 21
     -109.200015
 31
        0.000000
  0
LINE
  8
LVL0000
  6
CONTINUOUS
 10
      -30.575012
 20
     -108.700015
 30
        0.000000
 11
      -26.575012
 21
     -108.700015
 31
        0.000000
  0
LINE
  8
LVL0000
  6
CONTINUOUS
 10
      -31.625000
 20
     -106.700015
 30
        0.000000
 11
      -25.525009
 21
     -106.700015
 31
        0.000000
  0
LINE
  8
LVL0000
  6
CONTINUOUS
 10
      -31.625000
 20
     -107.200015
 30
        0.000000
 11
      -25.525009
 21
     -107.200015
 31
        0.000000
  0
LINE
  8
LVL0000
  6
CONTINUOUS
 10
      -30.575012
 20
     -107.200015
 30
        0.000000
 11
      -30.575012
 21
     -108.700015
 31
        0.000000
  0
LINE
  8
LVL0000
  6
CONTINUOUS
 10
      -26.575012
 20
     -107.200015
 30
        0.000000
 11
      -26.575012
 21
     -108.700015
 31
        0.000000
  0
LINE
  8
LVL0000
  6
CONTINUOUS
 10
      -38.195007
 20
     -108.700015
 30
        0.000000
 11
      -34.195007
 21
     -108.700015
 31
        0.000000
  0
LINE
  8
LVL0000
  6
CONTINUOUS
 10
      -39.244995
 20
     -106.700015
 30
        0.000000
 11
      -33.145004
 21
     -106.700015
 31
        0.000000
  0
LINE
  8
LVL0000
  6
CONTINUOUS
 10
      -39.244995
 20
     -107.200015
 30
        0.000000
 11
      -33.145004
 21
     -107.200015
 31
        0.000000
  0
LINE
  8
LVL0000
  6
CONTINUOUS
 10
      -38.195007
 20
     -107.200015
 30
        0.000000
 11
      -38.195007
 21
     -108.700015
 31
        0.000000
  0
LINE
  8
LVL0000
  6
CONTINUOUS
 10
      -34.195007
 20
     -107.200015
 30
        0.000000
 11
      -34.195007
 21
     -108.700015
 31
        0.000000
  0
DIMENSION
  8
LVL0000
  6
CONTINUOUS
 62
  5
  2
BLK0001
 10
      103.999992
 20
      -57.190578
 11
      139.501007
 21
      -56.590576
 13
      103.999992
 23
       -0.000089
 14
      180.000000
 24
      -45.000015
 50
        0.0
 70
  0
  0
LINE
  8
LVL0000
  6
CONTINUOUS
 10
      179.999992
 20
      -17.750015
 30
        0.000000
 11
      179.999992
 21
      -45.000015
 31
        0.000000
  0
LINE
  8
LVL0000
  6
CONTINUOUS
 10
      171.999992
 20
      -45.000015
 30
        0.000000
 11
      179.999992
 21
      -45.000015
 31
        0.000000
  0
LINE
  8
LVL0000
  6
CONTINUOUS
 10
      122.999992
 20
       45.000000
 30
        0.000000
 11
      122.999992
 21
      -45.000015
 31
        0.000000
  0
LINE
  8
LVL0000
  6
CONTINUOUS
 10
      150.999992
 20
       14.499992
 30
        0.000000
 11
      149.499992
 21
       14.499992
 31
        0.000000
  0
LINE
  8
LVL0000
  6
CONTINUOUS
 10
      150.999992
 20
        8.499992
 30
        0.000000
 11
      149.499992
 21
        8.499992
 31
        0.000000
  0
LINE
  8
LVL0000
  6
CONTINUOUS
 10
      150.999992
 20
       -8.500008
 30
        0.000000
 11
      149.499992
 21
       -8.500008
 31
        0.000000
  0
LINE
  8
LVL0000
  6
CONTINUOUS
 10
      150.999992
 20
      -14.500008
 30
        0.000000
 11
      149.499992
 21
      -14.500008
 31
        0.000000
  0
LINE
  8
LVL0000
  6
CONTINUOUS
 10
      153.999992
 20
      -14.500008
 30
        0.000000
 11
      152.499992
 21
      -14.500008
 31
        0.000000
  0
LINE
  8
LVL0000
  6
CONTINUOUS
 10
      153.999992
 20
       -8.500008
 30
        0.000000
 11
      152.499992
 21
       -8.500008
 31
        0.000000
  0
LINE
  8
LVL0000
  6
CONTINUOUS
 10
      153.999992
 20
        8.499992
 30
        0.000000
 11
      152.499992
 21
        8.499992
 31
        0.000000
  0
LINE
  8
LVL0000
  6
CONTINUOUS
 10
      153.999992
 20
       14.499992
 30
        0.000000
 11
      152.499992
 21
       14.499992
 31
        0.000000
  0
LINE
  8
LVL0000
  6
CONTINUOUS
 10
      156.999992
 20
       14.499992
 30
        0.000000
 11
      155.499992
 21
       14.499992
 31
        0.000000
  0
LINE
  8
LVL0000
  6
CONTINUOUS
 10
      156.999992
 20
        8.499992
 30
        0.000000
 11
      155.499992
 21
        8.499992
 31
        0.000000
  0
LINE
  8
LVL0000
  6
CONTINUOUS
 10
      156.999992
 20
       -8.500008
 30
        0.000000
 11
      155.499992
 21
       -8.500008
 31
        0.000000
  0
LINE
  8
LVL0000
  6
CONTINUOUS
 10
      156.999992
 20
      -14.500008
 30
        0.000000
 11
      155.499992
 21
      -14.500008
 31
        0.000000
  0
LINE
  8
LVL0000
  6
CONTINUOUS
 10
      159.999992
 20
      -14.500008
 30
        0.000000
 11
      158.499992
 21
      -14.500008
 31
        0.000000
  0
LINE
  8
LVL0000
  6
CONTINUOUS
 10
      159.999992
 20
       -8.500008
 30
        0.000000
 11
      158.499992
 21
       -8.500008
 31
        0.000000
  0
LINE
  8
LVL0000
  6
CONTINUOUS
 10
      159.999992
 20
        8.499992
 30
        0.000000
 11
      158.499992
 21
        8.499992
 31
        0.000000
  0
LINE
  8
LVL0000
  6
CONTINUOUS
 10
      159.999992
 20
       14.499992
 30
        0.000000
 11
      158.499992
 21
       14.499992
 31
        0.000000
  0
LINE
  8
LVL0000
  6
CONTINUOUS
 10
      162.999992
 20
       14.499992
 30
        0.000000
 11
      161.499992
 21
       14.499992
 31
        0.000000
  0
LINE
  8
LVL0000
  6
CONTINUOUS
 10
      162.999992
 20
        8.499992
 30
        0.000000
 11
      161.499992
 21
        8.499992
 31
        0.000000
  0
LINE
  8
LVL0000
  6
CONTINUOUS
 10
      162.999992
 20
       -8.500008
 30
        0.000000
 11
      161.499992
 21
       -8.500008
 31
        0.000000
  0
LINE
  8
LVL0000
  6
CONTINUOUS
 10
      162.999992
 20
      -14.500008
 30
        0.000000
 11
      161.499992
 21
      -14.500008
 31
        0.000000
  0
LINE
  8
LVL0000
  6
CONTINUOUS
 10
      165.999992
 20
      -14.500008
 30
        0.000000
 11
      164.499992
 21
      -14.500008
 31
        0.000000
  0
LINE
  8
LVL0000
  6
CONTINUOUS
 10
      165.999992
 20
       -8.500008
 30
        0.000000
 11
      164.499992
 21
       -8.500008
 31
        0.000000
  0
LINE
  8
LVL0000
  6
CONTINUOUS
 10
      165.999992
 20
        8.499992
 30
        0.000000
 11
      164.499992
 21
        8.499992
 31
        0.000000
  0
LINE
  8
LVL0000
  6
CONTINUOUS
 10
      165.999992
 20
       14.499992
 30
        0.000000
 11
      164.499992
 21
       14.499992
 31
        0.000000
  0
LINE
  8
LVL0000
  6
CONTINUOUS
 10
      168.999992
 20
       14.499992
 30
        0.000000
 11
      167.499992
 21
       14.499992
 31
        0.000000
  0
LINE
  8
LVL0000
  6
CONTINUOUS
 10
      168.999992
 20
        8.499992
 30
        0.000000
 11
      167.499992
 21
        8.499992
 31
        0.000000
  0
LINE
  8
LVL0000
  6
CONTINUOUS
 10
      168.999992
 20
       -8.500008
 30
        0.000000
 11
      167.499992
 21
       -8.500008
 31
        0.000000
  0
LINE
  8
LVL0000
  6
CONTINUOUS
 10
      168.999992
 20
      -14.500008
 30
        0.000000
 11
      167.499992
 21
      -14.500008
 31
        0.000000
  0
LINE
  8
LVL0000
  6
CONTINUOUS
 10
      171.999992
 20
      -14.500008
 30
        0.000000
 11
      170.499992
 21
      -14.500008
 31
        0.000000
  0
LINE
  8
LVL0000
  6
CONTINUOUS
 10
      171.999992
 20
       -8.500008
 30
        0.000000
 11
      170.499992
 21
       -8.500008
 31
        0.000000
  0
LINE
  8
LVL0000
  6
CONTINUOUS
 10
      171.999992
 20
        8.499992
 30
        0.000000
 11
      170.499992
 21
        8.499992
 31
        0.000000
  0
LINE
  8
LVL0000
  6
CONTINUOUS
 10
      171.999992
 20
       14.499992
 30
        0.000000
 11
      170.499992
 21
       14.499992
 31
        0.000000
  0
LINE
  8
LVL0000
  6
CONTINUOUS
 10
      114.549124
 20
       19.299992
 30
        0.000000
 11
      107.784670
 21
       19.299992
 31
        0.000000
  0
ARC
  8
LVL0000
  6
CONTINUOUS
 10
      233.999992
 20
       -0.000008
 30
        0.000000
 40
      121.000000
 50
      167.730097
 51
      170.965749
  0
LINE
  8
LVL0000
  6
CONTINUOUS
 10
      114.501038
 20
       18.999992
 30
        0.000000
 11
      105.395957
 21
       18.999992
 31
        0.000000
  0
ARC
  8
LVL0000
  6
CONTINUOUS
 10
       41.499992
 20
       41.865850
 30
        0.000000
 40
       76.000000
 50
      347.730102
 51
      360.000000
  0
LINE
  8
LVL0000
  6
CONTINUOUS
 10
      122.999992
 20
       35.999992
 30
        0.000000
 11
      117.273284
 21
       35.999992
 31
        0.000000
  0
LINE
  8
LVL0000
  6
CONTINUOUS
 10
      117.499992
 20
       41.865850
 30
        0.000000
 11
      117.499992
 21
       44.711757
 31
        0.000000
  0
LINE
  8
LVL0000
  6
CONTINUOUS
 10
      122.999992
 20
       45.000000
 30
        0.000000
 11
      109.843521
 21
       44.310499
 31
        0.000000
  0
ARC
  8
LVL0000
  6
CONTINUOUS
 10
      109.895857
 20
       43.311869
 30
        0.000000
 40
        1.000000
 50
       92.999997
 51
      179.904616
  0
ARC
  8
LVL0000
  6
CONTINUOUS
 10
       43.895949
 20
       43.421738
 30
        0.000000
 40
       65.000000
 50
      347.133750
 51
      359.904621
  0
ARC
  8
LVL0000
  6
CONTINUOUS
 10
      107.784670
 20
       21.299992
 30
        0.000000
 40
        2.000000
 50
      170.421035
 51
      270.000000
  0
LINE
  8
LVL0000
  6
CONTINUOUS
 10
      106.499992
 20
       -6.000008
 30
        0.000000
 11
      105.499992
 21
       -6.000008
 31
        0.000000
  0
LINE
  8
LVL0000
  6
CONTINUOUS
 10
      106.499992
 20
        5.999992
 30
        0.000000
 11
      106.499992
 21
       -6.000008
 31
        0.000000
  0
LINE
  8
LVL0000
  6
CONTINUOUS
 10
      105.499992
 20
        5.999992
 30
        0.000000
 11
      105.499992
 21
       -6.000008
 31
        0.000000
  0
LINE
  8
LVL0000
  6
CONTINUOUS
 10
      106.499992
 20
        5.999992
 30
        0.000000
 11
      105.499992
 21
        5.999992
 31
        0.000000
  0
LINE
  8
LVL0000
  6
CONTINUOUS
 10
      114.501038
 20
      -19.000008
 30
        0.000000
 11
      105.395957
 21
      -19.000008
 31
        0.000000
  0
ARC
  8
LVL0000
  6
CONTINUOUS
 10
      233.999992
 20
       -0.000008
 30
        0.000000
 40
      121.000000
 50
      189.034251
 51
      192.269903
  0
ARC
  8
LVL0000
  6
CONTINUOUS
 10
      233.999992
 20
       -0.000008
 30
        0.000000
 40
      124.400000
 50
      184.379751
 51
      188.785353
  0
ARC
  8
LVL0000
  6
CONTINUOUS
 10
      233.999992
 20
       -0.000008
 30
        0.000000
 40
      124.400000
 50
      175.620249
 51
      184.379751
  0
LINE
  8
LVL0000
  6
CONTINUOUS
 10
      114.549124
 20
      -19.300008
 30
        0.000000
 11
      107.784670
 21
      -19.300008
 31
        0.000000
  0
ARC
  8
LVL0000
  6
CONTINUOUS
 10
      107.784670
 20
      -21.300008
 30
        0.000000
 40
        2.000000
 50
       90.000000
 51
      189.578965
  0
ARC
  8
LVL0000
  6
CONTINUOUS
 10
      233.999992
 20
        0.000046
 30
        0.000000
 40
      130.000000
 50
      167.133864
 51
      192.866255
  0
ARC
  8
LVL0000
  6
CONTINUOUS
 10
      109.895857
 20
      -43.311884
 30
        0.000000
 40
        1.000000
 50
      180.095384
 51
      267.000003
  0
ARC
  8
LVL0000
  6
CONTINUOUS
 10
       43.895949
 20
      -43.421753
 30
        0.000000
 40
       65.000000
 50
        0.095379
 51
       12.866250
  0
LINE
  8
LVL0000
  6
CONTINUOUS
 10
      122.999992
 20
      -45.000015
 30
        0.000000
 11
      109.843521
 21
      -44.310514
 31
        0.000000
  0
LINE
  8
LVL0000
  6
CONTINUOUS
 10
      117.499992
 20
      -41.865865
 30
        0.000000
 11
      117.499992
 21
      -44.711772
 31
        0.000000
  0
ARC
  8
LVL0000
  6
CONTINUOUS
 10
       41.499992
 20
      -41.865865
 30
        0.000000
 40
       76.000000
 50
        0.000000
 51
       12.269898
  0
LINE
  8
LVL0000
  6
CONTINUOUS
 10
      110.999992
 20
       -9.500008
 30
        0.000000
 11
      109.963264
 21
       -9.500008
 31
        0.000000
  0
LINE
  8
LVL0000
  6
CONTINUOUS
 10
      110.999992
 20
        9.499992
 30
        0.000000
 11
      109.963264
 21
        9.499992
 31
        0.000000
  0
LINE
  8
LVL0000
  6
CONTINUOUS
 10
      110.999992
 20
        9.499992
 30
        0.000000
 11
      110.999992
 21
       -9.500008
 31
        0.000000
  0
ARC
  8
LVL0000
  6
CONTINUOUS
 10
      233.999992
 20
       -0.000008
 30
        0.000000
 40
      124.400000
 50
      171.168040
 51
      175.620249
  0
LINE
  8
LVL0000
  6
CONTINUOUS
 10
      123.499992
 20
       44.500000
 30
        0.000000
 11
      122.999992
 21
       44.500000
 31
        0.000000
  0
LINE
  8
LVL0000
  6
CONTINUOUS
 10
      123.499992
 20
      -44.500015
 30
        0.000000
 11
      122.999992
 21
      -44.500015
 31
        0.000000
  0
LINE
  8
LVL0000
  6
CONTINUOUS
 10
      125.999992
 20
      -22.900008
 30
        0.000000
 11
      125.999992
 21
      -17.100008
 31
        0.000000
  0
LINE
  8
LVL0000
  6
CONTINUOUS
 10
      127.999992
 20
      -22.900008
 30
        0.000000
 11
      127.999992
 21
      -17.100008
 31
        0.000000
  0
LINE
  8
LVL0000
  6
CONTINUOUS
 10
      127.999992
 20
      -17.100008
 30
        0.000000
 11
      125.999992
 21
      -17.100008
 31
        0.000000
  0
LINE
  8
LVL0000
  6
CONTINUOUS
 10
      127.999992
 20
      -22.900008
 30
        0.000000
 11
      125.999992
 21
      -22.900008
 31
        0.000000
  0
LINE
  8
LVL0000
  6
CONTINUOUS
 10
      127.999992
 20
       17.099992
 30
        0.000000
 11
      125.999992
 21
       17.099992
 31
        0.000000
  0
LINE
  8
LVL0000
  6
CONTINUOUS
 10
      127.999992
 20
       22.899992
 30
        0.000000
 11
      127.999992
 21
       17.099992
 31
        0.000000
  0
LINE
  8
LVL0000
  6
CONTINUOUS
 10
      125.999992
 20
       22.899992
 30
        0.000000
 11
      125.999992
 21
       17.099992
 31
        0.000000
  0
LINE
  8
LVL0000
  6
CONTINUOUS
 10
      127.999992
 20
       22.899992
 30
        0.000000
 11
      125.999992
 21
       22.899992
 31
        0.000000
  0
LINE
  8
LVL0000
  6
CONTINUOUS
 10
      147.499992
 20
      -30.000008
 30
        0.000000
 11
      128.999992
 21
      -30.000008
 31
        0.000000
  0
LINE
  8
LVL0000
  6
CONTINUOUS
 10
      147.499992
 20
       29.999992
 30
        0.000000
 11
      147.499992
 21
      -30.000008
 31
        0.000000
  0
LINE
  8
LVL0000
  6
CONTINUOUS
 10
      128.999992
 20
       29.999992
 30
        0.000000
 11
      128.999992
 21
      -30.000008
 31
        0.000000
  0
LINE
  8
LVL0000
  6
CONTINUOUS
 10
      147.499992
 20
       29.999992
 30
        0.000000
 11
      128.999992
 21
       29.999992
 31
        0.000000
  0
LINE
  8
LVL0000
  6
CONTINUOUS
 10
      171.999992
 20
       35.999992
 30
        0.000000
 11
      123.499992
 21
       35.999992
 31
        0.000000
  0
LINE
  8
LVL0000
  6
CONTINUOUS
 10
      123.499992
 20
       45.000000
 30
        0.000000
 11
      123.499992
 21
      -45.000015
 31
        0.000000
  0
LINE
  8
LVL0000
  6
CONTINUOUS
 10
      171.999992
 20
      -45.000015
 30
        0.000000
 11
      123.499992
 21
      -45.000015
 31
        0.000000
  0
LINE
  8
LVL0000
  6
CONTINUOUS
 10
      178.599992
 20
      -16.250015
 30
        0.000000
 11
      178.599992
 21
      -17.750015
 31
        0.000000
  0
LINE
  8
LVL0000
  6
CONTINUOUS
 10
      178.599992
 20
      -16.250015
 30
        0.000000
 11
      179.999992
 21
      -17.750015
 31
        0.000000
  0
LINE
  8
LVL0000
  6
CONTINUOUS
 10
      178.399992
 20
       15.750000
 30
        0.000000
 11
      177.999992
 21
       17.750000
 31
        0.000000
  0
LINE
  8
LVL0000
  6
CONTINUOUS
 10
      179.999992
 20
       15.750000
 30
        0.000000
 11
      178.399992
 21
       15.750000
 31
        0.000000
  0
LINE
  8
LVL0000
  6
CONTINUOUS
 10
      179.999992
 20
       45.000000
 30
        0.000000
 11
      179.999992
 21
       15.750000
 31
        0.000000
  0
LINE
  8
LVL0000
  6
CONTINUOUS
 10
      176.799992
 20
       17.750000
 30
        0.000000
 11
      176.799992
 21
      -17.750015
 31
        0.000000
  0
LINE
  8
LVL0000
  6
CONTINUOUS
 10
      179.999992
 20
       17.750000
 30
        0.000000
 11
      176.799992
 21
       17.750000
 31
        0.000000
  0
LINE
  8
LVL0000
  6
CONTINUOUS
 10
      179.999992
 20
      -17.750015
 30
        0.000000
 11
      176.799992
 21
      -17.750015
 31
        0.000000
  0
LINE
  8
LVL0000
  6
CONTINUOUS
 10
      176.999992
 20
      -49.000000
 30
        0.000000
 11
      179.999992
 21
      -49.000000
 31
        0.000000
  0
LINE
  8
LVL0000
  6
CONTINUOUS
 10
      179.999992
 20
      -45.000015
 30
        0.000000
 11
      179.999992
 21
      -49.000000
 31
        0.000000
  0
LINE
  8
LVL0000
  6
CONTINUOUS
 10
      176.999992
 20
      -45.000015
 30
        0.000000
 11
      176.999992
 21
      -49.000000
 31
        0.000000
  0
LINE
  8
LVL0000
  6
CENTER
 62
  1
 10
       96.285920
 20
       -0.000008
 30
        0.000000
 11
      185.916274
 21
       -0.000008
 31
        0.000000
  0
ARC
  8
LVL0000
  6
CONTINUOUS
 10
       -5.500000
 20
      -47.000000
 30
        0.000000
 40
        2.000000
 50
      179.999995
 51
      270.000000
  0
LINE
  8
LVL0000
  6
CONTINUOUS
 10
       -5.500000
 20
      -49.000000
 30
        0.000000
 11
        5.500000
 21
      -49.000000
 31
        0.000000
  0
LINE
  8
LVL0000
  6
CONTINUOUS
 10
       -7.500000
 20
      -45.000000
 30
        0.000000
 11
       -7.500000
 21
      -47.000000
 31
        0.000000
  0
ARC
  8
LVL0000
  6
CONTINUOUS
 10
        5.500000
 20
      -47.000000
 30
        0.000000
 40
        2.000000
 50
      270.000000
 51
      360.000000
  0
LINE
  8
LVL0000
  6
CONTINUOUS
 10
        7.500000
 20
      -45.000000
 30
        0.000000
 11
        7.500000
 21
      -47.000000
 31
        0.000000
  0
LINE
  8
LVL0000
  6
CONTINUOUS
 10
       -3.750000
 20
      -47.000000
 30
        0.000000
 11
       -3.750000
 21
      -45.000000
 31
        0.000000
  0
LINE
  8
LVL0000
  6
CONTINUOUS
 10
        3.750000
 20
      -47.000000
 30
        0.000000
 11
        3.750000
 21
      -45.000000
 31
        0.000000
  0
LINE
  8
LVL0000
  6
CONTINUOUS
 10
       -3.750000
 20
      -47.000000
 30
        0.000000
 11
        3.750000
 21
      -47.000000
 31
        0.000000
  0
LINE
  8
LVL0000
  6
CONTINUOUS
 10
      -48.000000
 20
      -45.000008
 30
        0.000000
 11
       48.000000
 21
      -45.000008
 31
        0.000000
  0
ARC
  8
LVL0000
  6
CONTINUOUS
 10
      -48.000000
 20
      -38.000008
 30
        0.000000
 40
        7.000000
 50
      180.000005
 51
      270.000000
  0
ARC
  8
LVL0000
  6
CONTINUOUS
 10
       48.000000
 20
      -38.000008
 30
        0.000000
 40
        7.000000
 50
      270.000000
 51
      360.000000
  0
LINE
  8
LVL0000
  6
CENTER
 62
  1
 10
        0.000000
 20
       51.862448
 30
        0.000000
 11
        0.000000
 21
      -56.681150
 31
        0.000000
  0
CIRCLE
  8
LVL0000
 10
      -50.000000
 20
      -40.000000
 30
        0.000000
 40
        2.200000
  0
DIMENSION
  8
LVL0000
  6
CONTINUOUS
 62
  5
  2
BLK0002
 10
       55.000000
 20
      -61.566784
 11
       -3.953922
 21
      -60.966782
 13
       55.000000
 23
      -38.000008
 14
      -55.000000
 24
      -38.000008
 50
        0.0
 70
  0
  0
DIMENSION
  8
LVL0000
  6
CONTINUOUS
 62
  5
  2
BLK0003
 10
       71.327362
 20
       44.999992
 11
       70.727364
 21
       -2.025331
 13
       48.000000
 23
       44.999992
 14
       48.000000
 24
      -45.000008
 50
       90.0
 70
  0
  0
LINE
  8
LVL0000
  6
CONTINUOUS
 10
       55.000000
 20
      -38.000008
 30
        0.000000
 11
       55.000000
 21
       -0.000008
 31
        0.000000
  0
LINE
  8
LVL0000
  6
CONTINUOUS
 10
      -55.000000
 20
      -38.000008
 30
        0.000000
 11
      -55.000000
 21
       -0.000008
 31
        0.000000
  0
ARC
  8
LVL0000
  6
CONTINUOUS
 10
      -48.000000
 20
       37.999992
 30
        0.000000
 40
        7.000000
 50
       90.000000
 51
      180.000005
  0
LINE
  8
LVL0000
  6
CONTINUOUS
 10
      -48.000000
 20
       44.999992
 30
        0.000000
 11
       48.000000
 21
       44.999992
 31
        0.000000
  0
ARC
  8
LVL0000
  6
CONTINUOUS
 10
       48.000000
 20
       37.999992
 30
        0.000000
 40
        7.000000
 50
        0.000000
 51
       90.000000
  0
CIRCLE
  8
LVL0000
 10
       50.000000
 20
       40.000000
 30
        0.000000
 40
        2.200000
  0
LINE
  8
LVL0000
  6
CONTINUOUS
 10
       55.000000
 20
       37.999992
 30
        0.000000
 11
       55.000000
 21
       -0.000008
 31
        0.000000
  0
LINE
  8
LVL0000
  6
CONTINUOUS
 10
      -55.000000
 20
       37.999992
 30
        0.000000
 11
      -55.000000
 21
       -0.000008
 31
        0.000000
  0
LINE
  8
LVL0000
  6
CENTER
 62
  1
 10
      -62.155935
 20
       -0.000008
 30
        0.000000
 11
       62.832974
 21
       -0.000008
 31
        0.000000
  0
ARC
  8
LVL0000
  6
CONTINUOUS
 10
       52.700000
 20
       23.699992
 30
        0.000000
 40
        0.300000
 50
        0.000000
 51
       90.000000
  0
ARC
  8
LVL0000
  6
CONTINUOUS
 10
      -52.700000
 20
       23.699992
 30
        0.000000
 40
        0.300000
 50
       90.000000
 51
      180.000005
  0
LINE
  8
LVL0000
  6
CONTINUOUS
 10
      -52.700000
 20
       23.999992
 30
        0.000000
 11
       52.700000
 21
       23.999992
 31
        0.000000
  0
LINE
  8
LVL0000
  6
CONTINUOUS
 10
       53.000000
 20
       23.699992
 30
        0.000000
 11
       53.000000
 21
       18.999992
 31
        0.000000
  0
LINE
  8
LVL0000
  6
CONTINUOUS
 10
      -53.000000
 20
       23.699992
 30
        0.000000
 11
      -53.000000
 21
       19.099992
 31
        0.000000
  0
ARC
  8
LVL0000
  6
CONTINUOUS
 10
       52.200000
 20
      -23.700008
 30
        0.000000
 40
        0.300000
 50
      270.000000
 51
      360.000000
  0
ARC
  8
LVL0000
  6
CONTINUOUS
 10
      -52.200000
 20
      -23.700008
 30
        0.000000
 40
        0.300000
 50
      180.000005
 51
      270.000000
  0
LINE
  8
LVL0000
  6
CONTINUOUS
 10
      -52.200000
 20
      -24.000008
 30
        0.000000
 11
       52.200000
 21
      -24.000008
 31
        0.000000
  0
LINE
  8
LVL0000
  6
CONTINUOUS
 10
      -52.500000
 20
      -23.700008
 30
        0.000000
 11
      -52.500000
 21
      -19.100008
 31
        0.000000
  0
TEXT
  8
LVL0000
  6
CONTINUOUS
 62
  2
 10
     -109.072213
 20
       28.995069
 30
        0.000000
 40
        5.000000
  1
JW1342K
 50
        0.000000
 41
        0.835000
 51
        0.000000
  7
STANDARD
  0
TEXT
  8
LVL0000
  6
CONTINUOUS
 62
  2
 10
     -109.072213
 20
       36.995069
 30
        0.000000
 40
        5.000000
  1
JW1324K
 50
        0.000000
 41
        0.835000
 51
        0.000000
  7
STANDARD
  0
ARC
  8
LVL0000
  6
CONTINUOUS
 10
       47.500000
 20
      -18.500008
 30
        0.000000
 40
        0.500000
 50
      270.000000
 51
      360.000000
  0
LINE
  8
LVL0000
  6
CONTINUOUS
 10
       48.000000
 20
       18.499992
 30
        0.000000
 11
       48.000000
 21
      -18.500008
 31
        0.000000
  0
ARC
  8
LVL0000
  6
CONTINUOUS
 10
       47.500000
 20
       18.499992
 30
        0.000000
 40
        0.500000
 50
        0.000000
 51
       90.000000
  0
CIRCLE
  8
LVL0000
  6
CONTINUOUS
 10
       15.300000
 20
       14.199992
 30
        0.000000
 40
        1.000000
  0
CIRCLE
  8
LVL0000
  6
CONTINUOUS
 10
       15.300000
 20
        7.099992
 30
        0.000000
 40
        1.000000
  0
CIRCLE
  8
LVL0000
  6
CONTINUOUS
 10
       15.300000
 20
       -0.000008
 30
        0.000000
 40
        1.000000
  0
CIRCLE
  8
LVL0000
  6
CONTINUOUS
 10
       15.300000
 20
       -7.100008
 30
        0.000000
 40
        1.000000
  0
CIRCLE
  8
LVL0000
  6
CONTINUOUS
 10
       15.300000
 20
      -14.200008
 30
        0.000000
 40
        1.000000
  0
CIRCLE
  8
LVL0000
  6
CONTINUOUS
 10
       19.300000
 20
      -14.200008
 30
        0.000000
 40
        1.000000
  0
CIRCLE
  8
LVL0000
  6
CONTINUOUS
 10
       19.300000
 20
       -7.100008
 30
        0.000000
 40
        1.000000
  0
CIRCLE
  8
LVL0000
  6
CONTINUOUS
 10
       19.300000
 20
       -0.000008
 30
        0.000000
 40
        1.000000
  0
CIRCLE
  8
LVL0000
  6
CONTINUOUS
 10
       19.300000
 20
        7.099992
 30
        0.000000
 40
        1.000000
  0
CIRCLE
  8
LVL0000
  6
CONTINUOUS
 10
       19.300000
 20
       14.199992
 30
        0.000000
 40
        1.000000
  0
CIRCLE
  8
LVL0000
  6
CONTINUOUS
 10
       23.300000
 20
       14.199992
 30
        0.000000
 40
        1.000000
  0
CIRCLE
  8
LVL0000
  6
CONTINUOUS
 10
       23.300000
 20
        7.099992
 30
        0.000000
 40
        1.000000
  0
CIRCLE
  8
LVL0000
  6
CONTINUOUS
 10
       23.300000
 20
       -0.000008
 30
        0.000000
 40
        1.000000
  0
CIRCLE
  8
LVL0000
  6
CONTINUOUS
 10
       23.300000
 20
       -7.100008
 30
        0.000000
 40
        1.000000
  0
CIRCLE
  8
LVL0000
  6
CONTINUOUS
 10
       23.300000
 20
      -14.200008
 30
        0.000000
 40
        1.000000
  0
CIRCLE
  8
LVL0000
  6
CONTINUOUS
 10
       27.300000
 20
      -14.200008
 30
        0.000000
 40
        1.000000
  0
CIRCLE
  8
LVL0000
  6
CONTINUOUS
 10
       27.300000
 20
       -7.100008
 30
        0.000000
 40
        1.000000
  0
CIRCLE
  8
LVL0000
  6
CONTINUOUS
 10
       27.300000
 20
       -0.000008
 30
        0.000000
 40
        1.000000
  0
CIRCLE
  8
LVL0000
  6
CONTINUOUS
 10
       27.300000
 20
        7.099992
 30
        0.000000
 40
        1.000000
  0
CIRCLE
  8
LVL0000
  6
CONTINUOUS
 10
       27.300000
 20
       14.199992
 30
        0.000000
 40
        1.000000
  0
CIRCLE
  8
LVL0000
  6
CONTINUOUS
 10
       31.300000
 20
       -7.100008
 30
        0.000000
 40
        1.000000
  0
CIRCLE
  8
LVL0000
  6
CONTINUOUS
 10
       31.300000
 20
      -14.200008
 30
        0.000000
 40
        1.000000
  0
CIRCLE
  8
LVL0000
  6
CONTINUOUS
 10
       31.300000
 20
       14.199992
 30
        0.000000
 40
        1.000000
  0
CIRCLE
  8
LVL0000
  6
CONTINUOUS
 10
       31.300000
 20
        7.099992
 30
        0.000000
 40
        1.000000
  0
CIRCLE
  8
LVL0000
  6
CONTINUOUS
 10
       35.300000
 20
        7.099992
 30
        0.000000
 40
        1.000000
  0
CIRCLE
  8
LVL0000
  6
CONTINUOUS
 10
       35.300000
 20
       14.199992
 30
        0.000000
 40
        1.000000
  0
CIRCLE
  8
LVL0000
  6
CONTINUOUS
 10
       35.300000
 20
      -14.200008
 30
        0.000000
 40
        1.000000
  0
CIRCLE
  8
LVL0000
  6
CONTINUOUS
 10
       35.300000
 20
       -7.100008
 30
        0.000000
 40
        1.000000
  0
CIRCLE
  8
LVL0000
  6
CONTINUOUS
 10
       40.000000
 20
      -10.650008
 30
        0.000000
 40
        1.000000
  0
CIRCLE
  8
LVL0000
  6
CONTINUOUS
 10
       40.000000
 20
       -3.550008
 30
        0.000000
 40
        1.000000
  0
CIRCLE
  8
LVL0000
  6
CONTINUOUS
 10
       40.000000
 20
        3.549992
 30
        0.000000
 40
        1.000000
  0
CIRCLE
  8
LVL0000
  6
CONTINUOUS
 10
       40.000000
 20
       10.649992
 30
        0.000000
 40
        1.000000
  0
LINE
  8
LVL0000
  6
CONTINUOUS
 10
      -55.000000
 20
      -19.100008
 30
        0.000000
 11
      -26.500000
 21
      -19.100008
 31
        0.000000
  0
ARC
  8
LVL0000
  6
CONTINUOUS
 10
      -26.500000
 20
      -18.600008
 30
        0.000000
 40
        0.500000
 50
      270.000000
 51
      360.000000
  0
LINE
  8
LVL0000
  6
CONTINUOUS
 10
      -55.000000
 20
       19.099992
 30
        0.000000
 11
      -26.500000
 21
       19.099992
 31
        0.000000
  0
LINE
  8
LVL0000
  6
CONTINUOUS
 10
      -26.000000
 20
       18.599992
 30
        0.000000
 11
      -26.000000
 21
      -18.600008
 31
        0.000000
  0
ARC
  8
LVL0000
  6
CONTINUOUS
 10
      -26.500000
 20
       18.599992
 30
        0.000000
 40
        0.500000
 50
        0.000000
 51
       90.000000
  0
ARC
  8
LVL0000
  6
CONTINUOUS
 10
      -22.500000
 20
       18.499992
 30
        0.000000
 40
        0.500000
 50
       90.000000
 51
      179.999995
  0
LINE
  8
LVL0000
  6
CONTINUOUS
 10
      -23.000000
 20
       18.499992
 30
        0.000000
 11
      -23.000000
 21
      -18.500008
 31
        0.000000
  0
ARC
  8
LVL0000
  6
CONTINUOUS
 10
      -22.500000
 20
      -18.500008
 30
        0.000000
 40
        0.500000
 50
      179.999995
 51
      270.000000
  0
LINE
  8
LVL0000
  6
CONTINUOUS
 10
      -22.500000
 20
      -19.000008
 30
        0.000000
 11
       47.500000
 21
      -19.000008
 31
        0.000000
  0
LINE
  8
LVL0000
  6
CONTINUOUS
 10
      -22.500000
 20
       18.999992
 30
        0.000000
 11
       47.500000
 21
       18.999992
 31
        0.000000
  0
ENDSEC
  0
EOF
