  0
SECTION
  2
HEADER
  9
$ACADVER
  1
AC1006
  9
$INSBASE
 10
0.0
 20
0.0
 30
0.0
  9
$EXTMIN
 10
     -135.812256
 20
     -135.812256
  9
$EXTMAX
 10
      169.999985
 20
       55.708946
  9
$LIMMIN
 10
     -135.812256
 20
     -135.812256
  9
$LIMMAX
 10
      169.999985
 20
       55.708946
  9
$VIEWCTR
 10
       17.093864
 20
       17.093864
  9
$ORTHOMODE
 70
     0
  9
$ANGBASE
 50
0.0
  9
$ANGDIR
 70
     0
  9
$SPLINETYPE
 70
     6
  9
$SPLINESEGS
 70
     8
9
$DIMASZ
 40
        2.500000
9
$DIMEXE
 40
        1.000000
9
$DIMEXO
 40
        1.000000
9
$DIMTXT
 40
        2.500000
9
$DIMGAP
 40
        1.000000
9
$DIMTAD
 70
1
9
$DIMTIH
 70
0
9
$DIMTOH
 70
0
  0
ENDSEC
  0
SECTION
  2
TABLES
  0
TABLE
  2
LTYPE
 70
     5
  0
LTYPE
  2
CONTINUOUS
 70
    64
  3
SOLID LINE
 72
    65
 73
     0
 40
0.0
  0
LTYPE
  2
DASHED
 70
    64
  3
-- -- -- -- -- --
 72
    65
 73
     2
 40
  0.75  
 49
  0.50  
 49
 -0.25  
  0
LTYPE
  2
DOT
 70
    64
  3
....................
 72
    65
 73
     2
 40
  0.25  
 49
  0.02  
 49
 -0.23  
  0
LTYPE
  2
CENTER
 70
    64
  3
-- . -- . -- . -- .
 72
    65
 73
    4
 40
  2.00  
 49
  1.25  
 49
 -0.25  
 49
  0.25  
 49
 -0.25  
  0
LTYPE
  2
PHANTOM
 70
    64
  3
-- .. -- .. -- ..
 72
    65
 73
    6
 40
  2.50  
 49
  1.25  
 49
 -0.25  
 49
  0.25  
 49
 -0.25  
 49
  0.25  
 49
 -0.25  
  0
ENDTAB
  0
TABLE
  2
LAYER
 70
     3
  0
LAYER
  2
0
 70
    64
 62
     3
  6
CONTINUOUS
  0
LAYER
  2
10
 70
    64
 62
     2
  6
CONTINUOUS
  0
LAYER
  2
11
 70
    64
 62
     5
  6
CONTINUOUS
  0
ENDTAB
  0
TABLE
  2
STYLE
 70
     2
  0
STYLE
  2
STANDARD
 70
    64
 40
0.0
 41
1.0
 50
0.0
 71
     0
 42
5.0
  3
ROMANS
  4
BIGFONT
  0
STYLE
  2
BIGFONT
 70
    64
 40
0.0
 41
1.0
 50
0.0
 71
     0
 42
5.0
  3
ROMANS
  4
BIGFONT
  0
ENDTAB
  0
TABLE
  2
VIEW
 70
     0
  0
ENDTAB
  0
TABLE
  2
UCS
 70
     0
  0
ENDTAB
  0
TABLE
  2
DWGMGR
 70
     0
  0
ENDTAB
  0
ENDSEC
  0
SECTION
  2
BLOCKS
  0
BLOCK
  8
0
  2
BLK0001
 70
    64
 10
        0.000000
 20
        0.000000
  0
LINE
  8
0
 10
      -45.149628
 20
       30.849902
 30
        0.000000
 11
      -38.449433
 21
       30.849902
 31
        0.000000
  0
CIRCLE
  8
0
 10
      -41.800019
 20
       34.200000
 30
        0.000000
 40
        2.750000
  0
LINE
  8
0
 10
      -42.754121
 20
       32.679492
 30
        0.000000
 11
      -43.319550
 21
       33.245166
 31
        0.000000
  0
ARC
  8
0
 10
      -41.800019
 20
       32.220019
 30
        0.000000
 40
        1.000066
 50
       45.009888
 51
      134.995044
  0
ARC
  8
0
 10
      -39.819550
 20
       34.200000
 30
        0.000000
 40
        0.999893
 50
      134.999989
 51
      225.019802
  0
ARC
  8
0
 10
      -41.800019
 20
       36.179736
 30
        0.000000
 40
        1.000066
 50
      225.009912
 51
      315.009912
  0
ARC
  8
0
 10
      -43.779511
 20
       34.200000
 30
        0.000000
 40
        0.999893
 50
      315.000022
 51
      405.004943
  0
LINE
  8
0
 10
      -42.754121
 20
       32.679492
 30
        0.000000
 11
      -42.507050
 21
       32.927050
 31
        0.000000
  0
LINE
  8
0
 10
      -43.319550
 20
       33.245166
 30
        0.000000
 11
      -43.072480
 21
       33.492724
 31
        0.000000
  0
LINE
  8
0
 10
      -40.279511
 20
       35.154589
 30
        0.000000
 11
      -40.844941
 21
       35.720263
 31
        0.000000
  0
LINE
  8
0
 10
      -40.526582
 20
       34.907031
 30
        0.000000
 11
      -40.279511
 21
       35.154589
 31
        0.000000
  0
LINE
  8
0
 10
      -41.092500
 20
       35.472705
 30
        0.000000
 11
      -40.844941
 21
       35.720263
 31
        0.000000
  0
LINE
  8
0
 10
      -43.072480
 20
       34.907031
 30
        0.000000
 11
      -44.006074
 21
       35.840869
 31
        0.000000
  0
LINE
  8
0
 10
      -42.507050
 20
       35.472705
 30
        0.000000
 11
      -43.440644
 21
       36.406543
 31
        0.000000
  0
LINE
  8
0
 10
      -40.158418
 20
       31.993212
 30
        0.000000
 11
      -41.092500
 21
       32.927050
 31
        0.000000
  0
LINE
  8
0
 10
      -39.592988
 20
       32.558886
 30
        0.000000
 11
      -40.526582
 21
       33.492724
 31
        0.000000
  0
LINE
  8
0
 10
      -45.149628
 20
       37.549853
 30
        0.000000
 11
      -38.449433
 21
       37.549853
 31
        0.000000
  0
LINE
  8
0
 10
      -38.449433
 20
       30.849902
 30
        0.000000
 11
      -38.449433
 21
       37.549853
 31
        0.000000
  0
LINE
  8
0
 10
      -45.149628
 20
       30.849902
 30
        0.000000
 11
      -45.149628
 21
       37.549853
 31
        0.000000
  0
ENDBLK
  0
BLOCK
  8
0
  2
BLK0002
 70
    64
 10
        0.000000
 20
        0.000000
  0
LINE
  8
0
 10
      -36.249628
 20
       30.849902
 30
        0.000000
 11
      -29.549433
 21
       30.849902
 31
        0.000000
  0
CIRCLE
  8
0
 10
      -32.900019
 20
       34.200000
 30
        0.000000
 40
        2.750000
  0
LINE
  8
0
 10
      -33.854121
 20
       32.679492
 30
        0.000000
 11
      -34.419550
 21
       33.245166
 31
        0.000000
  0
ARC
  8
0
 10
      -32.900019
 20
       32.220019
 30
        0.000000
 40
        1.000066
 50
       45.009888
 51
      134.995044
  0
ARC
  8
0
 10
      -30.919550
 20
       34.200000
 30
        0.000000
 40
        0.999893
 50
      134.999989
 51
      225.019802
  0
ARC
  8
0
 10
      -32.900019
 20
       36.179736
 30
        0.000000
 40
        1.000066
 50
      225.009912
 51
      315.009912
  0
ARC
  8
0
 10
      -34.879511
 20
       34.200000
 30
        0.000000
 40
        0.999893
 50
      315.000022
 51
      405.004943
  0
LINE
  8
0
 10
      -33.854121
 20
       32.679492
 30
        0.000000
 11
      -33.607050
 21
       32.927050
 31
        0.000000
  0
LINE
  8
0
 10
      -34.419550
 20
       33.245166
 30
        0.000000
 11
      -34.172480
 21
       33.492724
 31
        0.000000
  0
LINE
  8
0
 10
      -31.379511
 20
       35.154589
 30
        0.000000
 11
      -31.944941
 21
       35.720263
 31
        0.000000
  0
LINE
  8
0
 10
      -31.626582
 20
       34.907031
 30
        0.000000
 11
      -31.379511
 21
       35.154589
 31
        0.000000
  0
LINE
  8
0
 10
      -32.192500
 20
       35.472705
 30
        0.000000
 11
      -31.944941
 21
       35.720263
 31
        0.000000
  0
LINE
  8
0
 10
      -34.172480
 20
       34.907031
 30
        0.000000
 11
      -35.106074
 21
       35.840869
 31
        0.000000
  0
LINE
  8
0
 10
      -33.607050
 20
       35.472705
 30
        0.000000
 11
      -34.540644
 21
       36.406543
 31
        0.000000
  0
LINE
  8
0
 10
      -31.258418
 20
       31.993212
 30
        0.000000
 11
      -32.192500
 21
       32.927050
 31
        0.000000
  0
LINE
  8
0
 10
      -30.692988
 20
       32.558886
 30
        0.000000
 11
      -31.626582
 21
       33.492724
 31
        0.000000
  0
LINE
  8
0
 10
      -36.249628
 20
       37.549853
 30
        0.000000
 11
      -29.549433
 21
       37.549853
 31
        0.000000
  0
LINE
  8
0
 10
      -29.549433
 20
       30.849902
 30
        0.000000
 11
      -29.549433
 21
       37.549853
 31
        0.000000
  0
LINE
  8
0
 10
      -36.249628
 20
       30.849902
 30
        0.000000
 11
      -36.249628
 21
       37.549853
 31
        0.000000
  0
ENDBLK
  0
BLOCK
  8
0
  2
BLK0003
 70
    64
 10
        0.000000
 20
        0.000000
  0
LINE
  8
0
 10
      -23.849628
 20
       30.849902
 30
        0.000000
 11
      -17.149433
 21
       30.849902
 31
        0.000000
  0
CIRCLE
  8
0
 10
      -20.500019
 20
       34.200000
 30
        0.000000
 40
        2.750000
  0
LINE
  8
0
 10
      -21.454121
 20
       32.679492
 30
        0.000000
 11
      -22.019550
 21
       33.245166
 31
        0.000000
  0
ARC
  8
0
 10
      -20.500019
 20
       32.220019
 30
        0.000000
 40
        1.000066
 50
       45.009888
 51
      134.995044
  0
ARC
  8
0
 10
      -18.519550
 20
       34.200000
 30
        0.000000
 40
        0.999893
 50
      134.999989
 51
      225.019802
  0
ARC
  8
0
 10
      -20.500019
 20
       36.179736
 30
        0.000000
 40
        1.000066
 50
      225.009912
 51
      315.009912
  0
ARC
  8
0
 10
      -22.479511
 20
       34.200000
 30
        0.000000
 40
        0.999893
 50
      315.000022
 51
      405.004943
  0
LINE
  8
0
 10
      -21.454121
 20
       32.679492
 30
        0.000000
 11
      -21.207050
 21
       32.927050
 31
        0.000000
  0
LINE
  8
0
 10
      -22.019550
 20
       33.245166
 30
        0.000000
 11
      -21.772480
 21
       33.492724
 31
        0.000000
  0
LINE
  8
0
 10
      -18.979511
 20
       35.154589
 30
        0.000000
 11
      -19.544941
 21
       35.720263
 31
        0.000000
  0
LINE
  8
0
 10
      -19.226582
 20
       34.907031
 30
        0.000000
 11
      -18.979511
 21
       35.154589
 31
        0.000000
  0
LINE
  8
0
 10
      -19.792500
 20
       35.472705
 30
        0.000000
 11
      -19.544941
 21
       35.720263
 31
        0.000000
  0
LINE
  8
0
 10
      -21.772480
 20
       34.907031
 30
        0.000000
 11
      -22.706074
 21
       35.840869
 31
        0.000000
  0
LINE
  8
0
 10
      -21.207050
 20
       35.472705
 30
        0.000000
 11
      -22.140644
 21
       36.406543
 31
        0.000000
  0
LINE
  8
0
 10
      -18.858418
 20
       31.993212
 30
        0.000000
 11
      -19.792500
 21
       32.927050
 31
        0.000000
  0
LINE
  8
0
 10
      -18.292988
 20
       32.558886
 30
        0.000000
 11
      -19.226582
 21
       33.492724
 31
        0.000000
  0
LINE
  8
0
 10
      -23.849628
 20
       37.549853
 30
        0.000000
 11
      -17.149433
 21
       37.549853
 31
        0.000000
  0
LINE
  8
0
 10
      -17.149433
 20
       30.849902
 30
        0.000000
 11
      -17.149433
 21
       37.549853
 31
        0.000000
  0
LINE
  8
0
 10
      -23.849628
 20
       30.849902
 30
        0.000000
 11
      -23.849628
 21
       37.549853
 31
        0.000000
  0
ENDBLK
  0
BLOCK
  8
0
  2
BLK0004
 70
    64
 10
        0.000000
 20
        0.000000
  0
LINE
  8
0
 10
      -14.949628
 20
       30.849902
 30
        0.000000
 11
       -8.249433
 21
       30.849902
 31
        0.000000
  0
CIRCLE
  8
0
 10
      -11.600019
 20
       34.200000
 30
        0.000000
 40
        2.750000
  0
LINE
  8
0
 10
      -12.554121
 20
       32.679492
 30
        0.000000
 11
      -13.119550
 21
       33.245166
 31
        0.000000
  0
ARC
  8
0
 10
      -11.600019
 20
       32.220019
 30
        0.000000
 40
        1.000066
 50
       45.009888
 51
      134.995044
  0
ARC
  8
0
 10
       -9.619550
 20
       34.200000
 30
        0.000000
 40
        0.999893
 50
      134.999989
 51
      225.019802
  0
ARC
  8
0
 10
      -11.600019
 20
       36.179736
 30
        0.000000
 40
        1.000066
 50
      225.009912
 51
      315.009912
  0
ARC
  8
0
 10
      -13.579511
 20
       34.200000
 30
        0.000000
 40
        0.999893
 50
      315.000022
 51
      405.004943
  0
LINE
  8
0
 10
      -12.554121
 20
       32.679492
 30
        0.000000
 11
      -12.307050
 21
       32.927050
 31
        0.000000
  0
LINE
  8
0
 10
      -13.119550
 20
       33.245166
 30
        0.000000
 11
      -12.872480
 21
       33.492724
 31
        0.000000
  0
LINE
  8
0
 10
      -10.079511
 20
       35.154589
 30
        0.000000
 11
      -10.644941
 21
       35.720263
 31
        0.000000
  0
LINE
  8
0
 10
      -10.326582
 20
       34.907031
 30
        0.000000
 11
      -10.079511
 21
       35.154589
 31
        0.000000
  0
LINE
  8
0
 10
      -10.892500
 20
       35.472705
 30
        0.000000
 11
      -10.644941
 21
       35.720263
 31
        0.000000
  0
LINE
  8
0
 10
      -12.872480
 20
       34.907031
 30
        0.000000
 11
      -13.806074
 21
       35.840869
 31
        0.000000
  0
LINE
  8
0
 10
      -12.307050
 20
       35.472705
 30
        0.000000
 11
      -13.240644
 21
       36.406543
 31
        0.000000
  0
LINE
  8
0
 10
       -9.958418
 20
       31.993212
 30
        0.000000
 11
      -10.892500
 21
       32.927050
 31
        0.000000
  0
LINE
  8
0
 10
       -9.392988
 20
       32.558886
 30
        0.000000
 11
      -10.326582
 21
       33.492724
 31
        0.000000
  0
LINE
  8
0
 10
      -14.949628
 20
       37.549853
 30
        0.000000
 11
       -8.249433
 21
       37.549853
 31
        0.000000
  0
LINE
  8
0
 10
       -8.249433
 20
       30.849902
 30
        0.000000
 11
       -8.249433
 21
       37.549853
 31
        0.000000
  0
LINE
  8
0
 10
      -14.949628
 20
       30.849902
 30
        0.000000
 11
      -14.949628
 21
       37.549853
 31
        0.000000
  0
ENDBLK
  0
BLOCK
  8
0
  2
BLK0005
 70
    64
 10
        0.000000
 20
        0.000000
  0
LINE
  8
0
 10
       -6.049628
 20
       30.849902
 30
        0.000000
 11
        0.650567
 21
       30.849902
 31
        0.000000
  0
CIRCLE
  8
0
 10
       -2.700019
 20
       34.200000
 30
        0.000000
 40
        2.750000
  0
LINE
  8
0
 10
       -3.654121
 20
       32.679492
 30
        0.000000
 11
       -4.219550
 21
       33.245166
 31
        0.000000
  0
ARC
  8
0
 10
       -2.700019
 20
       32.220019
 30
        0.000000
 40
        1.000066
 50
       45.009888
 51
      134.995044
  0
ARC
  8
0
 10
       -0.719550
 20
       34.200000
 30
        0.000000
 40
        0.999893
 50
      134.999989
 51
      225.019802
  0
ARC
  8
0
 10
       -2.700019
 20
       36.179736
 30
        0.000000
 40
        1.000066
 50
      225.009912
 51
      315.009912
  0
ARC
  8
0
 10
       -4.679511
 20
       34.200000
 30
        0.000000
 40
        0.999893
 50
      315.000022
 51
      405.004943
  0
LINE
  8
0
 10
       -3.654121
 20
       32.679492
 30
        0.000000
 11
       -3.407050
 21
       32.927050
 31
        0.000000
  0
LINE
  8
0
 10
       -4.219550
 20
       33.245166
 30
        0.000000
 11
       -3.972480
 21
       33.492724
 31
        0.000000
  0
LINE
  8
0
 10
       -1.179511
 20
       35.154589
 30
        0.000000
 11
       -1.744941
 21
       35.720263
 31
        0.000000
  0
LINE
  8
0
 10
       -1.426582
 20
       34.907031
 30
        0.000000
 11
       -1.179511
 21
       35.154589
 31
        0.000000
  0
LINE
  8
0
 10
       -1.992500
 20
       35.472705
 30
        0.000000
 11
       -1.744941
 21
       35.720263
 31
        0.000000
  0
LINE
  8
0
 10
       -3.972480
 20
       34.907031
 30
        0.000000
 11
       -4.906074
 21
       35.840869
 31
        0.000000
  0
LINE
  8
0
 10
       -3.407050
 20
       35.472705
 30
        0.000000
 11
       -4.340644
 21
       36.406543
 31
        0.000000
  0
LINE
  8
0
 10
       -1.058418
 20
       31.993212
 30
        0.000000
 11
       -1.992500
 21
       32.927050
 31
        0.000000
  0
LINE
  8
0
 10
       -0.492988
 20
       32.558886
 30
        0.000000
 11
       -1.426582
 21
       33.492724
 31
        0.000000
  0
LINE
  8
0
 10
       -6.049628
 20
       37.549853
 30
        0.000000
 11
        0.650567
 21
       37.549853
 31
        0.000000
  0
LINE
  8
0
 10
        0.650567
 20
       30.849902
 30
        0.000000
 11
        0.650567
 21
       37.549853
 31
        0.000000
  0
LINE
  8
0
 10
       -6.049628
 20
       30.849902
 30
        0.000000
 11
       -6.049628
 21
       37.549853
 31
        0.000000
  0
ENDBLK
  0
BLOCK
  8
0
  2
BLK0006
 70
    64
 10
        0.000000
 20
        0.000000
  0
LINE
  8
0
 10
        2.850372
 20
       30.849902
 30
        0.000000
 11
        9.550567
 21
       30.849902
 31
        0.000000
  0
CIRCLE
  8
0
 10
        6.199981
 20
       34.200000
 30
        0.000000
 40
        2.750000
  0
LINE
  8
0
 10
        5.245879
 20
       32.679492
 30
        0.000000
 11
        4.680450
 21
       33.245166
 31
        0.000000
  0
ARC
  8
0
 10
        6.199981
 20
       32.220019
 30
        0.000000
 40
        1.000066
 50
       45.009888
 51
      134.995044
  0
ARC
  8
0
 10
        8.180450
 20
       34.200000
 30
        0.000000
 40
        0.999893
 50
      134.999989
 51
      225.019802
  0
ARC
  8
0
 10
        6.199981
 20
       36.179736
 30
        0.000000
 40
        1.000066
 50
      225.009912
 51
      315.009912
  0
ARC
  8
0
 10
        4.220489
 20
       34.200000
 30
        0.000000
 40
        0.999893
 50
      315.000022
 51
      405.004943
  0
LINE
  8
0
 10
        5.245879
 20
       32.679492
 30
        0.000000
 11
        5.492950
 21
       32.927050
 31
        0.000000
  0
LINE
  8
0
 10
        4.680450
 20
       33.245166
 30
        0.000000
 11
        4.927520
 21
       33.492724
 31
        0.000000
  0
LINE
  8
0
 10
        7.720489
 20
       35.154589
 30
        0.000000
 11
        7.155059
 21
       35.720263
 31
        0.000000
  0
LINE
  8
0
 10
        7.473418
 20
       34.907031
 30
        0.000000
 11
        7.720489
 21
       35.154589
 31
        0.000000
  0
LINE
  8
0
 10
        6.907500
 20
       35.472705
 30
        0.000000
 11
        7.155059
 21
       35.720263
 31
        0.000000
  0
LINE
  8
0
 10
        4.927520
 20
       34.907031
 30
        0.000000
 11
        3.993926
 21
       35.840869
 31
        0.000000
  0
LINE
  8
0
 10
        5.492950
 20
       35.472705
 30
        0.000000
 11
        4.559356
 21
       36.406543
 31
        0.000000
  0
LINE
  8
0
 10
        7.841582
 20
       31.993212
 30
        0.000000
 11
        6.907500
 21
       32.927050
 31
        0.000000
  0
LINE
  8
0
 10
        8.407012
 20
       32.558886
 30
        0.000000
 11
        7.473418
 21
       33.492724
 31
        0.000000
  0
LINE
  8
0
 10
        2.850372
 20
       37.549853
 30
        0.000000
 11
        9.550567
 21
       37.549853
 31
        0.000000
  0
LINE
  8
0
 10
        9.550567
 20
       30.849902
 30
        0.000000
 11
        9.550567
 21
       37.549853
 31
        0.000000
  0
LINE
  8
0
 10
        2.850372
 20
       30.849902
 30
        0.000000
 11
        2.850372
 21
       37.549853
 31
        0.000000
  0
ENDBLK
  0
BLOCK
  8
0
  2
BLK0007
 70
    64
 10
        0.000000
 20
        0.000000
  0
LINE
  8
0
 10
       11.750372
 20
       30.849902
 30
        0.000000
 11
       18.450567
 21
       30.849902
 31
        0.000000
  0
CIRCLE
  8
0
 10
       15.099981
 20
       34.200000
 30
        0.000000
 40
        2.750000
  0
LINE
  8
0
 10
       14.145879
 20
       32.679492
 30
        0.000000
 11
       13.580450
 21
       33.245166
 31
        0.000000
  0
ARC
  8
0
 10
       15.099981
 20
       32.220019
 30
        0.000000
 40
        1.000066
 50
       45.009888
 51
      134.995044
  0
ARC
  8
0
 10
       17.080450
 20
       34.200000
 30
        0.000000
 40
        0.999893
 50
      134.999989
 51
      225.019802
  0
ARC
  8
0
 10
       15.099981
 20
       36.179736
 30
        0.000000
 40
        1.000066
 50
      225.009912
 51
      315.009912
  0
ARC
  8
0
 10
       13.120489
 20
       34.200000
 30
        0.000000
 40
        0.999893
 50
      315.000022
 51
      405.004943
  0
LINE
  8
0
 10
       14.145879
 20
       32.679492
 30
        0.000000
 11
       14.392950
 21
       32.927050
 31
        0.000000
  0
LINE
  8
0
 10
       13.580450
 20
       33.245166
 30
        0.000000
 11
       13.827520
 21
       33.492724
 31
        0.000000
  0
LINE
  8
0
 10
       16.620489
 20
       35.154589
 30
        0.000000
 11
       16.055059
 21
       35.720263
 31
        0.000000
  0
LINE
  8
0
 10
       16.373418
 20
       34.907031
 30
        0.000000
 11
       16.620489
 21
       35.154589
 31
        0.000000
  0
LINE
  8
0
 10
       15.807500
 20
       35.472705
 30
        0.000000
 11
       16.055059
 21
       35.720263
 31
        0.000000
  0
LINE
  8
0
 10
       13.827520
 20
       34.907031
 30
        0.000000
 11
       12.893926
 21
       35.840869
 31
        0.000000
  0
LINE
  8
0
 10
       14.392950
 20
       35.472705
 30
        0.000000
 11
       13.459356
 21
       36.406543
 31
        0.000000
  0
LINE
  8
0
 10
       16.741582
 20
       31.993212
 30
        0.000000
 11
       15.807500
 21
       32.927050
 31
        0.000000
  0
LINE
  8
0
 10
       17.307012
 20
       32.558886
 30
        0.000000
 11
       16.373418
 21
       33.492724
 31
        0.000000
  0
LINE
  8
0
 10
       11.750372
 20
       37.549853
 30
        0.000000
 11
       18.450567
 21
       37.549853
 31
        0.000000
  0
LINE
  8
0
 10
       18.450567
 20
       30.849902
 30
        0.000000
 11
       18.450567
 21
       37.549853
 31
        0.000000
  0
LINE
  8
0
 10
       11.750372
 20
       30.849902
 30
        0.000000
 11
       11.750372
 21
       37.549853
 31
        0.000000
  0
ENDBLK
  0
BLOCK
  8
0
  2
BLK0008
 70
    64
 10
        0.000000
 20
        0.000000
  0
LINE
  8
0
 10
       20.650372
 20
       30.849902
 30
        0.000000
 11
       27.350567
 21
       30.849902
 31
        0.000000
  0
CIRCLE
  8
0
 10
       23.999981
 20
       34.200000
 30
        0.000000
 40
        2.750000
  0
LINE
  8
0
 10
       23.045879
 20
       32.679492
 30
        0.000000
 11
       22.480450
 21
       33.245166
 31
        0.000000
  0
ARC
  8
0
 10
       23.999981
 20
       32.220019
 30
        0.000000
 40
        1.000066
 50
       45.009888
 51
      134.995044
  0
ARC
  8
0
 10
       25.980450
 20
       34.200000
 30
        0.000000
 40
        0.999893
 50
      134.999989
 51
      225.019802
  0
ARC
  8
0
 10
       23.999981
 20
       36.179736
 30
        0.000000
 40
        1.000066
 50
      225.009912
 51
      315.009912
  0
ARC
  8
0
 10
       22.020489
 20
       34.200000
 30
        0.000000
 40
        0.999893
 50
      315.000022
 51
      405.004943
  0
LINE
  8
0
 10
       23.045879
 20
       32.679492
 30
        0.000000
 11
       23.292950
 21
       32.927050
 31
        0.000000
  0
LINE
  8
0
 10
       22.480450
 20
       33.245166
 30
        0.000000
 11
       22.727520
 21
       33.492724
 31
        0.000000
  0
LINE
  8
0
 10
       25.520489
 20
       35.154589
 30
        0.000000
 11
       24.955059
 21
       35.720263
 31
        0.000000
  0
LINE
  8
0
 10
       25.273418
 20
       34.907031
 30
        0.000000
 11
       25.520489
 21
       35.154589
 31
        0.000000
  0
LINE
  8
0
 10
       24.707500
 20
       35.472705
 30
        0.000000
 11
       24.955059
 21
       35.720263
 31
        0.000000
  0
LINE
  8
0
 10
       22.727520
 20
       34.907031
 30
        0.000000
 11
       21.793926
 21
       35.840869
 31
        0.000000
  0
LINE
  8
0
 10
       23.292950
 20
       35.472705
 30
        0.000000
 11
       22.359356
 21
       36.406543
 31
        0.000000
  0
LINE
  8
0
 10
       25.641582
 20
       31.993212
 30
        0.000000
 11
       24.707500
 21
       32.927050
 31
        0.000000
  0
LINE
  8
0
 10
       26.207012
 20
       32.558886
 30
        0.000000
 11
       25.273418
 21
       33.492724
 31
        0.000000
  0
LINE
  8
0
 10
       20.650372
 20
       37.549853
 30
        0.000000
 11
       27.350567
 21
       37.549853
 31
        0.000000
  0
LINE
  8
0
 10
       27.350567
 20
       30.849902
 30
        0.000000
 11
       27.350567
 21
       37.549853
 31
        0.000000
  0
LINE
  8
0
 10
       20.650372
 20
       30.849902
 30
        0.000000
 11
       20.650372
 21
       37.549853
 31
        0.000000
  0
ENDBLK
  0
BLOCK
  8
0
  2
BLK0009
 70
    64
 10
        0.000000
 20
        0.000000
  0
LINE
  8
0
 10
       29.550372
 20
       30.849902
 30
        0.000000
 11
       36.250567
 21
       30.849902
 31
        0.000000
  0
CIRCLE
  8
0
 10
       32.899981
 20
       34.200000
 30
        0.000000
 40
        2.750000
  0
LINE
  8
0
 10
       31.945879
 20
       32.679492
 30
        0.000000
 11
       31.380450
 21
       33.245166
 31
        0.000000
  0
ARC
  8
0
 10
       32.899981
 20
       32.220019
 30
        0.000000
 40
        1.000066
 50
       45.009888
 51
      134.995044
  0
ARC
  8
0
 10
       34.880450
 20
       34.200000
 30
        0.000000
 40
        0.999893
 50
      134.999989
 51
      225.019802
  0
ARC
  8
0
 10
       32.899981
 20
       36.179736
 30
        0.000000
 40
        1.000066
 50
      225.009912
 51
      315.009912
  0
ARC
  8
0
 10
       30.920489
 20
       34.200000
 30
        0.000000
 40
        0.999893
 50
      315.000022
 51
      405.004943
  0
LINE
  8
0
 10
       31.945879
 20
       32.679492
 30
        0.000000
 11
       32.192950
 21
       32.927050
 31
        0.000000
  0
LINE
  8
0
 10
       31.380450
 20
       33.245166
 30
        0.000000
 11
       31.627520
 21
       33.492724
 31
        0.000000
  0
LINE
  8
0
 10
       34.420489
 20
       35.154589
 30
        0.000000
 11
       33.855059
 21
       35.720263
 31
        0.000000
  0
LINE
  8
0
 10
       34.173418
 20
       34.907031
 30
        0.000000
 11
       34.420489
 21
       35.154589
 31
        0.000000
  0
LINE
  8
0
 10
       33.607500
 20
       35.472705
 30
        0.000000
 11
       33.855059
 21
       35.720263
 31
        0.000000
  0
LINE
  8
0
 10
       31.627520
 20
       34.907031
 30
        0.000000
 11
       30.693926
 21
       35.840869
 31
        0.000000
  0
LINE
  8
0
 10
       32.192950
 20
       35.472705
 30
        0.000000
 11
       31.259356
 21
       36.406543
 31
        0.000000
  0
LINE
  8
0
 10
       34.541582
 20
       31.993212
 30
        0.000000
 11
       33.607500
 21
       32.927050
 31
        0.000000
  0
LINE
  8
0
 10
       35.107012
 20
       32.558886
 30
        0.000000
 11
       34.173418
 21
       33.492724
 31
        0.000000
  0
LINE
  8
0
 10
       29.550372
 20
       37.549853
 30
        0.000000
 11
       36.250567
 21
       37.549853
 31
        0.000000
  0
LINE
  8
0
 10
       36.250567
 20
       30.849902
 30
        0.000000
 11
       36.250567
 21
       37.549853
 31
        0.000000
  0
LINE
  8
0
 10
       29.550372
 20
       30.849902
 30
        0.000000
 11
       29.550372
 21
       37.549853
 31
        0.000000
  0
ENDBLK
  0
BLOCK
  8
0
  2
BLK0010
 70
    64
 10
        0.000000
 20
        0.000000
  0
LINE
  8
0
 10
       38.450372
 20
       30.849902
 30
        0.000000
 11
       45.150567
 21
       30.849902
 31
        0.000000
  0
CIRCLE
  8
0
 10
       41.799981
 20
       34.200000
 30
        0.000000
 40
        2.750000
  0
LINE
  8
0
 10
       40.845879
 20
       32.679492
 30
        0.000000
 11
       40.280450
 21
       33.245166
 31
        0.000000
  0
ARC
  8
0
 10
       41.799981
 20
       32.220019
 30
        0.000000
 40
        1.000066
 50
       45.009888
 51
      134.995044
  0
ARC
  8
0
 10
       43.780450
 20
       34.200000
 30
        0.000000
 40
        0.999893
 50
      134.999989
 51
      225.019802
  0
ARC
  8
0
 10
       41.799981
 20
       36.179736
 30
        0.000000
 40
        1.000066
 50
      225.009912
 51
      315.009912
  0
ARC
  8
0
 10
       39.820489
 20
       34.200000
 30
        0.000000
 40
        0.999893
 50
      315.000022
 51
      405.004943
  0
LINE
  8
0
 10
       40.845879
 20
       32.679492
 30
        0.000000
 11
       41.092950
 21
       32.927050
 31
        0.000000
  0
LINE
  8
0
 10
       40.280450
 20
       33.245166
 30
        0.000000
 11
       40.527520
 21
       33.492724
 31
        0.000000
  0
LINE
  8
0
 10
       43.320489
 20
       35.154589
 30
        0.000000
 11
       42.755059
 21
       35.720263
 31
        0.000000
  0
LINE
  8
0
 10
       43.073418
 20
       34.907031
 30
        0.000000
 11
       43.320489
 21
       35.154589
 31
        0.000000
  0
LINE
  8
0
 10
       42.507500
 20
       35.472705
 30
        0.000000
 11
       42.755059
 21
       35.720263
 31
        0.000000
  0
LINE
  8
0
 10
       40.527520
 20
       34.907031
 30
        0.000000
 11
       39.593926
 21
       35.840869
 31
        0.000000
  0
LINE
  8
0
 10
       41.092950
 20
       35.472705
 30
        0.000000
 11
       40.159356
 21
       36.406543
 31
        0.000000
  0
LINE
  8
0
 10
       43.441582
 20
       31.993212
 30
        0.000000
 11
       42.507500
 21
       32.927050
 31
        0.000000
  0
LINE
  8
0
 10
       44.007012
 20
       32.558886
 30
        0.000000
 11
       43.073418
 21
       33.492724
 31
        0.000000
  0
LINE
  8
0
 10
       38.450372
 20
       37.549853
 30
        0.000000
 11
       45.150567
 21
       37.549853
 31
        0.000000
  0
LINE
  8
0
 10
       45.150567
 20
       30.849902
 30
        0.000000
 11
       45.150567
 21
       37.549853
 31
        0.000000
  0
LINE
  8
0
 10
       38.450372
 20
       30.849902
 30
        0.000000
 11
       38.450372
 21
       37.549853
 31
        0.000000
  0
ENDBLK
  0
BLOCK
  8
0
  2
BLK0011
 70
    64
 10
        0.000000
 20
        0.000000
  0
TEXT
  8
11
 10
       81.806679
 20
       -5.000011
 30
        0.000000
 40
        2.500000
  1
６７．８
 50
       90.000000
 41
        1.000000
 51
        0.000000
  7
BIGFONT
  0
LINE
  8
11
 10
       65.600021
 20
      -33.900024
 30
        0.000000
 11
       83.806679
 21
      -33.900024
 31
        0.000000
  0
LINE
  8
11
 10
      -58.400021
 20
       33.900002
 30
        0.000000
 11
       83.806679
 21
       33.900002
 31
        0.000000
  0
LINE
  8
11
 10
       82.152184
 20
      -31.400024
 30
        0.000000
 11
       82.806679
 21
      -33.900024
 31
        0.000000
  0
LINE
  8
11
 10
       82.806679
 20
      -33.900024
 30
        0.000000
 11
       83.461174
 21
      -31.400024
 31
        0.000000
  0
LINE
  8
11
 10
       83.461174
 20
       31.400002
 30
        0.000000
 11
       82.806679
 21
       33.900002
 31
        0.000000
  0
LINE
  8
11
 10
       82.806679
 20
       33.900002
 30
        0.000000
 11
       82.152184
 21
       31.400002
 31
        0.000000
  0
LINE
  8
11
 10
       82.806679
 20
      -33.900024
 30
        0.000000
 11
       82.806679
 21
       33.900002
 31
        0.000000
  0
ENDBLK
  0
BLOCK
  8
0
  2
BLK0012
 70
    64
 10
        0.000000
 20
        0.000000
  0
TEXT
  8
11
 10
       87.665977
 20
       -2.500000
 30
        0.000000
 40
        2.500000
  1
８０
 50
       90.000000
 41
        1.000000
 51
        0.000000
  7
BIGFONT
  0
LINE
  8
11
 10
       68.500015
 20
       40.000000
 30
        0.000000
 11
       89.665977
 21
       40.000000
 31
        0.000000
  0
LINE
  8
11
 10
       68.500015
 20
      -40.000000
 30
        0.000000
 11
       89.665977
 21
      -40.000000
 31
        0.000000
  0
LINE
  8
11
 10
       89.320473
 20
       37.500000
 30
        0.000000
 11
       88.665977
 21
       40.000000
 31
        0.000000
  0
LINE
  8
11
 10
       88.665977
 20
       40.000000
 30
        0.000000
 11
       88.011482
 21
       37.500000
 31
        0.000000
  0
LINE
  8
11
 10
       88.011482
 20
      -37.500000
 30
        0.000000
 11
       88.665977
 21
      -40.000000
 31
        0.000000
  0
LINE
  8
11
 10
       88.665977
 20
      -40.000000
 30
        0.000000
 11
       89.320473
 21
      -37.500000
 31
        0.000000
  0
LINE
  8
11
 10
       88.665977
 20
       40.000000
 30
        0.000000
 11
       88.665977
 21
      -40.000000
 31
        0.000000
  0
ENDBLK
  0
BLOCK
  8
0
  2
BLK0013
 70
    64
 10
        0.000000
 20
        0.000000
  0
TEXT
  8
11
 10
       -3.750050
 20
      -60.584709
 30
        0.000000
 40
        2.500000
  1
１４０
 50
        0.000000
 41
        1.000000
 51
        0.000000
  7
BIGFONT
  0
LINE
  8
11
 10
      -70.000015
 20
      -38.500000
 30
        0.000000
 11
      -70.000015
 21
      -62.584709
 31
        0.000000
  0
LINE
  8
11
 10
       69.999916
 20
      -38.500000
 30
        0.000000
 11
       69.999916
 21
      -62.584709
 31
        0.000000
  0
LINE
  8
11
 10
      -67.500015
 20
      -60.930210
 30
        0.000000
 11
      -70.000015
 21
      -61.584709
 31
        0.000000
  0
LINE
  8
11
 10
      -70.000015
 20
      -61.584709
 30
        0.000000
 11
      -67.500015
 21
      -62.239208
 31
        0.000000
  0
LINE
  8
11
 10
       67.499916
 20
      -62.239208
 30
        0.000000
 11
       69.999916
 21
      -61.584709
 31
        0.000000
  0
LINE
  8
11
 10
       69.999916
 20
      -61.584709
 30
        0.000000
 11
       67.499916
 21
      -60.930210
 31
        0.000000
  0
LINE
  8
11
 10
      -70.000015
 20
      -61.584709
 30
        0.000000
 11
       69.999916
 21
      -61.584709
 31
        0.000000
  0
ENDBLK
  0
BLOCK
  8
0
  2
BLK0014
 70
    64
 10
        0.000000
 20
        0.000000
  0
TEXT
  8
11
 10
       -3.750000
 20
      -54.105770
 30
        0.000000
 40
        2.500000
  1
１２４
 50
        0.000000
 41
        1.000000
 51
        0.000000
  7
BIGFONT
  0
LINE
  8
11
 10
      -62.000019
 20
       30.300001
 30
        0.000000
 11
      -62.000019
 21
      -56.105770
 31
        0.000000
  0
LINE
  8
11
 10
       62.000019
 20
      -37.500023
 30
        0.000000
 11
       62.000019
 21
      -56.105770
 31
        0.000000
  0
LINE
  8
11
 10
      -59.500019
 20
      -54.451271
 30
        0.000000
 11
      -62.000019
 21
      -55.105770
 31
        0.000000
  0
LINE
  8
11
 10
      -62.000019
 20
      -55.105770
 30
        0.000000
 11
      -59.500019
 21
      -55.760269
 31
        0.000000
  0
LINE
  8
11
 10
       59.500019
 20
      -55.760269
 30
        0.000000
 11
       62.000019
 21
      -55.105770
 31
        0.000000
  0
LINE
  8
11
 10
       62.000019
 20
      -55.105770
 30
        0.000000
 11
       59.500019
 21
      -54.451271
 31
        0.000000
  0
LINE
  8
11
 10
      -62.000019
 20
      -55.105770
 30
        0.000000
 11
       62.000019
 21
      -55.105770
 31
        0.000000
  0
ENDBLK
  0
BLOCK
  8
0
  2
BLK0015
 70
    64
 10
        0.000000
 20
        0.000000
  0
TEXT
  8
11
 10
      135.202469
 20
      -55.669308
 30
        0.000000
 40
        2.500000
  1
６１．２
 50
        0.000000
 41
        1.000000
 51
        0.000000
  7
BIGFONT
  0
LINE
  8
11
 10
      169.999985
 20
      -44.499611
 30
        0.000000
 11
      169.999985
 21
      -57.669308
 31
        0.000000
  0
LINE
  8
11
 10
      108.799942
 20
       -1.000000
 30
        0.000000
 11
      108.799942
 21
      -57.669308
 31
        0.000000
  0
LINE
  8
11
 10
      167.499985
 20
      -57.323807
 30
        0.000000
 11
      169.999985
 21
      -56.669308
 31
        0.000000
  0
LINE
  8
11
 10
      169.999985
 20
      -56.669308
 30
        0.000000
 11
      167.499985
 21
      -56.014809
 31
        0.000000
  0
LINE
  8
11
 10
      111.299942
 20
      -56.014809
 30
        0.000000
 11
      108.799942
 21
      -56.669308
 31
        0.000000
  0
LINE
  8
11
 10
      108.799942
 20
      -56.669308
 30
        0.000000
 11
      111.299942
 21
      -57.323807
 31
        0.000000
  0
LINE
  8
11
 10
      169.999985
 20
      -56.669308
 30
        0.000000
 11
      108.799942
 21
      -56.669308
 31
        0.000000
  0
ENDBLK
  0
BLOCK
  8
0
  2
BLK0016
 70
    64
 10
        0.000000
 20
        0.000000
  0
LINE
  8
0
 10
       38.450372
 20
      -30.849902
 30
        0.000000
 11
       45.150567
 21
      -30.849902
 31
        0.000000
  0
CIRCLE
  8
0
 10
       41.799981
 20
      -34.200000
 30
        0.000000
 40
        2.750000
  0
LINE
  8
0
 10
       40.845879
 20
      -32.679492
 30
        0.000000
 11
       40.280450
 21
      -33.245166
 31
        0.000000
  0
ARC
  8
0
 10
       41.799981
 20
      -32.220019
 30
        0.000000
 40
        1.000066
 50
      225.004956
 51
      314.990112
  0
ARC
  8
0
 10
       43.780450
 20
      -34.200000
 30
        0.000000
 40
        0.999893
 50
      134.980198
 51
      225.000011
  0
ARC
  8
0
 10
       41.799981
 20
      -36.179736
 30
        0.000000
 40
        1.000066
 50
       44.990088
 51
      134.990088
  0
ARC
  8
0
 10
       39.820489
 20
      -34.200000
 30
        0.000000
 40
        0.999893
 50
      314.995057
 51
      404.999978
  0
LINE
  8
0
 10
       40.845879
 20
      -32.679492
 30
        0.000000
 11
       41.092950
 21
      -32.927050
 31
        0.000000
  0
LINE
  8
0
 10
       40.280450
 20
      -33.245166
 30
        0.000000
 11
       40.527520
 21
      -33.492724
 31
        0.000000
  0
LINE
  8
0
 10
       43.320489
 20
      -35.154589
 30
        0.000000
 11
       42.755059
 21
      -35.720263
 31
        0.000000
  0
LINE
  8
0
 10
       43.073418
 20
      -34.907031
 30
        0.000000
 11
       43.320489
 21
      -35.154589
 31
        0.000000
  0
LINE
  8
0
 10
       42.507500
 20
      -35.472705
 30
        0.000000
 11
       42.755059
 21
      -35.720263
 31
        0.000000
  0
LINE
  8
0
 10
       40.527520
 20
      -34.907031
 30
        0.000000
 11
       39.593926
 21
      -35.840869
 31
        0.000000
  0
LINE
  8
0
 10
       41.092950
 20
      -35.472705
 30
        0.000000
 11
       40.159356
 21
      -36.406543
 31
        0.000000
  0
LINE
  8
0
 10
       43.441582
 20
      -31.993212
 30
        0.000000
 11
       42.507500
 21
      -32.927050
 31
        0.000000
  0
LINE
  8
0
 10
       44.007012
 20
      -32.558886
 30
        0.000000
 11
       43.073418
 21
      -33.492724
 31
        0.000000
  0
LINE
  8
0
 10
       38.450372
 20
      -37.549853
 30
        0.000000
 11
       45.150567
 21
      -37.549853
 31
        0.000000
  0
LINE
  8
0
 10
       45.150567
 20
      -30.849902
 30
        0.000000
 11
       45.150567
 21
      -37.549853
 31
        0.000000
  0
LINE
  8
0
 10
       38.450372
 20
      -30.849902
 30
        0.000000
 11
       38.450372
 21
      -37.549853
 31
        0.000000
  0
ENDBLK
  0
BLOCK
  8
0
  2
BLK0017
 70
    64
 10
        0.000000
 20
        0.000000
  0
LINE
  8
0
 10
       29.550372
 20
      -30.849902
 30
        0.000000
 11
       36.250567
 21
      -30.849902
 31
        0.000000
  0
CIRCLE
  8
0
 10
       32.899981
 20
      -34.200000
 30
        0.000000
 40
        2.750000
  0
LINE
  8
0
 10
       31.945879
 20
      -32.679492
 30
        0.000000
 11
       31.380450
 21
      -33.245166
 31
        0.000000
  0
ARC
  8
0
 10
       32.899981
 20
      -32.220019
 30
        0.000000
 40
        1.000066
 50
      225.004956
 51
      314.990112
  0
ARC
  8
0
 10
       34.880450
 20
      -34.200000
 30
        0.000000
 40
        0.999893
 50
      134.980198
 51
      225.000011
  0
ARC
  8
0
 10
       32.899981
 20
      -36.179736
 30
        0.000000
 40
        1.000066
 50
       44.990088
 51
      134.990088
  0
ARC
  8
0
 10
       30.920489
 20
      -34.200000
 30
        0.000000
 40
        0.999893
 50
      314.995057
 51
      404.999978
  0
LINE
  8
0
 10
       31.945879
 20
      -32.679492
 30
        0.000000
 11
       32.192950
 21
      -32.927050
 31
        0.000000
  0
LINE
  8
0
 10
       31.380450
 20
      -33.245166
 30
        0.000000
 11
       31.627520
 21
      -33.492724
 31
        0.000000
  0
LINE
  8
0
 10
       34.420489
 20
      -35.154589
 30
        0.000000
 11
       33.855059
 21
      -35.720263
 31
        0.000000
  0
LINE
  8
0
 10
       34.173418
 20
      -34.907031
 30
        0.000000
 11
       34.420489
 21
      -35.154589
 31
        0.000000
  0
LINE
  8
0
 10
       33.607500
 20
      -35.472705
 30
        0.000000
 11
       33.855059
 21
      -35.720263
 31
        0.000000
  0
LINE
  8
0
 10
       31.627520
 20
      -34.907031
 30
        0.000000
 11
       30.693926
 21
      -35.840869
 31
        0.000000
  0
LINE
  8
0
 10
       32.192950
 20
      -35.472705
 30
        0.000000
 11
       31.259356
 21
      -36.406543
 31
        0.000000
  0
LINE
  8
0
 10
       34.541582
 20
      -31.993212
 30
        0.000000
 11
       33.607500
 21
      -32.927050
 31
        0.000000
  0
LINE
  8
0
 10
       35.107012
 20
      -32.558886
 30
        0.000000
 11
       34.173418
 21
      -33.492724
 31
        0.000000
  0
LINE
  8
0
 10
       29.550372
 20
      -37.549853
 30
        0.000000
 11
       36.250567
 21
      -37.549853
 31
        0.000000
  0
LINE
  8
0
 10
       36.250567
 20
      -30.849902
 30
        0.000000
 11
       36.250567
 21
      -37.549853
 31
        0.000000
  0
LINE
  8
0
 10
       29.550372
 20
      -30.849902
 30
        0.000000
 11
       29.550372
 21
      -37.549853
 31
        0.000000
  0
ENDBLK
  0
BLOCK
  8
0
  2
BLK0018
 70
    64
 10
        0.000000
 20
        0.000000
  0
LINE
  8
0
 10
       20.650372
 20
      -30.849902
 30
        0.000000
 11
       27.350567
 21
      -30.849902
 31
        0.000000
  0
CIRCLE
  8
0
 10
       23.999981
 20
      -34.200000
 30
        0.000000
 40
        2.750000
  0
LINE
  8
0
 10
       23.045879
 20
      -32.679492
 30
        0.000000
 11
       22.480450
 21
      -33.245166
 31
        0.000000
  0
ARC
  8
0
 10
       23.999981
 20
      -32.220019
 30
        0.000000
 40
        1.000066
 50
      225.004956
 51
      314.990112
  0
ARC
  8
0
 10
       25.980450
 20
      -34.200000
 30
        0.000000
 40
        0.999893
 50
      134.980198
 51
      225.000011
  0
ARC
  8
0
 10
       23.999981
 20
      -36.179736
 30
        0.000000
 40
        1.000066
 50
       44.990088
 51
      134.990088
  0
ARC
  8
0
 10
       22.020489
 20
      -34.200000
 30
        0.000000
 40
        0.999893
 50
      314.995057
 51
      404.999978
  0
LINE
  8
0
 10
       23.045879
 20
      -32.679492
 30
        0.000000
 11
       23.292950
 21
      -32.927050
 31
        0.000000
  0
LINE
  8
0
 10
       22.480450
 20
      -33.245166
 30
        0.000000
 11
       22.727520
 21
      -33.492724
 31
        0.000000
  0
LINE
  8
0
 10
       25.520489
 20
      -35.154589
 30
        0.000000
 11
       24.955059
 21
      -35.720263
 31
        0.000000
  0
LINE
  8
0
 10
       25.273418
 20
      -34.907031
 30
        0.000000
 11
       25.520489
 21
      -35.154589
 31
        0.000000
  0
LINE
  8
0
 10
       24.707500
 20
      -35.472705
 30
        0.000000
 11
       24.955059
 21
      -35.720263
 31
        0.000000
  0
LINE
  8
0
 10
       22.727520
 20
      -34.907031
 30
        0.000000
 11
       21.793926
 21
      -35.840869
 31
        0.000000
  0
LINE
  8
0
 10
       23.292950
 20
      -35.472705
 30
        0.000000
 11
       22.359356
 21
      -36.406543
 31
        0.000000
  0
LINE
  8
0
 10
       25.641582
 20
      -31.993212
 30
        0.000000
 11
       24.707500
 21
      -32.927050
 31
        0.000000
  0
LINE
  8
0
 10
       26.207012
 20
      -32.558886
 30
        0.000000
 11
       25.273418
 21
      -33.492724
 31
        0.000000
  0
LINE
  8
0
 10
       20.650372
 20
      -37.549853
 30
        0.000000
 11
       27.350567
 21
      -37.549853
 31
        0.000000
  0
LINE
  8
0
 10
       27.350567
 20
      -30.849902
 30
        0.000000
 11
       27.350567
 21
      -37.549853
 31
        0.000000
  0
LINE
  8
0
 10
       20.650372
 20
      -30.849902
 30
        0.000000
 11
       20.650372
 21
      -37.549853
 31
        0.000000
  0
ENDBLK
  0
BLOCK
  8
0
  2
BLK0019
 70
    64
 10
        0.000000
 20
        0.000000
  0
LINE
  8
0
 10
       11.750372
 20
      -30.849902
 30
        0.000000
 11
       18.450567
 21
      -30.849902
 31
        0.000000
  0
CIRCLE
  8
0
 10
       15.099981
 20
      -34.200000
 30
        0.000000
 40
        2.750000
  0
LINE
  8
0
 10
       14.145879
 20
      -32.679492
 30
        0.000000
 11
       13.580450
 21
      -33.245166
 31
        0.000000
  0
ARC
  8
0
 10
       15.099981
 20
      -32.220019
 30
        0.000000
 40
        1.000066
 50
      225.004956
 51
      314.990112
  0
ARC
  8
0
 10
       17.080450
 20
      -34.200000
 30
        0.000000
 40
        0.999893
 50
      134.980198
 51
      225.000011
  0
ARC
  8
0
 10
       15.099981
 20
      -36.179736
 30
        0.000000
 40
        1.000066
 50
       44.990088
 51
      134.990088
  0
ARC
  8
0
 10
       13.120489
 20
      -34.200000
 30
        0.000000
 40
        0.999893
 50
      314.995057
 51
      404.999978
  0
LINE
  8
0
 10
       14.145879
 20
      -32.679492
 30
        0.000000
 11
       14.392950
 21
      -32.927050
 31
        0.000000
  0
LINE
  8
0
 10
       13.580450
 20
      -33.245166
 30
        0.000000
 11
       13.827520
 21
      -33.492724
 31
        0.000000
  0
LINE
  8
0
 10
       16.620489
 20
      -35.154589
 30
        0.000000
 11
       16.055059
 21
      -35.720263
 31
        0.000000
  0
LINE
  8
0
 10
       16.373418
 20
      -34.907031
 30
        0.000000
 11
       16.620489
 21
      -35.154589
 31
        0.000000
  0
LINE
  8
0
 10
       15.807500
 20
      -35.472705
 30
        0.000000
 11
       16.055059
 21
      -35.720263
 31
        0.000000
  0
LINE
  8
0
 10
       13.827520
 20
      -34.907031
 30
        0.000000
 11
       12.893926
 21
      -35.840869
 31
        0.000000
  0
LINE
  8
0
 10
       14.392950
 20
      -35.472705
 30
        0.000000
 11
       13.459356
 21
      -36.406543
 31
        0.000000
  0
LINE
  8
0
 10
       16.741582
 20
      -31.993212
 30
        0.000000
 11
       15.807500
 21
      -32.927050
 31
        0.000000
  0
LINE
  8
0
 10
       17.307012
 20
      -32.558886
 30
        0.000000
 11
       16.373418
 21
      -33.492724
 31
        0.000000
  0
LINE
  8
0
 10
       11.750372
 20
      -37.549853
 30
        0.000000
 11
       18.450567
 21
      -37.549853
 31
        0.000000
  0
LINE
  8
0
 10
       18.450567
 20
      -30.849902
 30
        0.000000
 11
       18.450567
 21
      -37.549853
 31
        0.000000
  0
LINE
  8
0
 10
       11.750372
 20
      -30.849902
 30
        0.000000
 11
       11.750372
 21
      -37.549853
 31
        0.000000
  0
ENDBLK
  0
BLOCK
  8
0
  2
BLK0020
 70
    64
 10
        0.000000
 20
        0.000000
  0
LINE
  8
0
 10
        2.850372
 20
      -30.849902
 30
        0.000000
 11
        9.550567
 21
      -30.849902
 31
        0.000000
  0
CIRCLE
  8
0
 10
        6.199981
 20
      -34.200000
 30
        0.000000
 40
        2.750000
  0
LINE
  8
0
 10
        5.245879
 20
      -32.679492
 30
        0.000000
 11
        4.680450
 21
      -33.245166
 31
        0.000000
  0
ARC
  8
0
 10
        6.199981
 20
      -32.220019
 30
        0.000000
 40
        1.000066
 50
      225.004956
 51
      314.990112
  0
ARC
  8
0
 10
        8.180450
 20
      -34.200000
 30
        0.000000
 40
        0.999893
 50
      134.980198
 51
      225.000011
  0
ARC
  8
0
 10
        6.199981
 20
      -36.179736
 30
        0.000000
 40
        1.000066
 50
       44.990088
 51
      134.990088
  0
ARC
  8
0
 10
        4.220489
 20
      -34.200000
 30
        0.000000
 40
        0.999893
 50
      314.995057
 51
      404.999978
  0
LINE
  8
0
 10
        5.245879
 20
      -32.679492
 30
        0.000000
 11
        5.492950
 21
      -32.927050
 31
        0.000000
  0
LINE
  8
0
 10
        4.680450
 20
      -33.245166
 30
        0.000000
 11
        4.927520
 21
      -33.492724
 31
        0.000000
  0
LINE
  8
0
 10
        7.720489
 20
      -35.154589
 30
        0.000000
 11
        7.155059
 21
      -35.720263
 31
        0.000000
  0
LINE
  8
0
 10
        7.473418
 20
      -34.907031
 30
        0.000000
 11
        7.720489
 21
      -35.154589
 31
        0.000000
  0
LINE
  8
0
 10
        6.907500
 20
      -35.472705
 30
        0.000000
 11
        7.155059
 21
      -35.720263
 31
        0.000000
  0
LINE
  8
0
 10
        4.927520
 20
      -34.907031
 30
        0.000000
 11
        3.993926
 21
      -35.840869
 31
        0.000000
  0
LINE
  8
0
 10
        5.492950
 20
      -35.472705
 30
        0.000000
 11
        4.559356
 21
      -36.406543
 31
        0.000000
  0
LINE
  8
0
 10
        7.841582
 20
      -31.993212
 30
        0.000000
 11
        6.907500
 21
      -32.927050
 31
        0.000000
  0
LINE
  8
0
 10
        8.407012
 20
      -32.558886
 30
        0.000000
 11
        7.473418
 21
      -33.492724
 31
        0.000000
  0
LINE
  8
0
 10
        2.850372
 20
      -37.549853
 30
        0.000000
 11
        9.550567
 21
      -37.549853
 31
        0.000000
  0
LINE
  8
0
 10
        9.550567
 20
      -30.849902
 30
        0.000000
 11
        9.550567
 21
      -37.549853
 31
        0.000000
  0
LINE
  8
0
 10
        2.850372
 20
      -30.849902
 30
        0.000000
 11
        2.850372
 21
      -37.549853
 31
        0.000000
  0
ENDBLK
  0
BLOCK
  8
0
  2
BLK0021
 70
    64
 10
        0.000000
 20
        0.000000
  0
LINE
  8
0
 10
       -6.049628
 20
      -30.849902
 30
        0.000000
 11
        0.650567
 21
      -30.849902
 31
        0.000000
  0
CIRCLE
  8
0
 10
       -2.700019
 20
      -34.200000
 30
        0.000000
 40
        2.750000
  0
LINE
  8
0
 10
       -3.654121
 20
      -32.679492
 30
        0.000000
 11
       -4.219550
 21
      -33.245166
 31
        0.000000
  0
ARC
  8
0
 10
       -2.700019
 20
      -32.220019
 30
        0.000000
 40
        1.000066
 50
      225.004956
 51
      314.990112
  0
ARC
  8
0
 10
       -0.719550
 20
      -34.200000
 30
        0.000000
 40
        0.999893
 50
      134.980198
 51
      225.000011
  0
ARC
  8
0
 10
       -2.700019
 20
      -36.179736
 30
        0.000000
 40
        1.000066
 50
       44.990088
 51
      134.990088
  0
ARC
  8
0
 10
       -4.679511
 20
      -34.200000
 30
        0.000000
 40
        0.999893
 50
      314.995057
 51
      404.999978
  0
LINE
  8
0
 10
       -3.654121
 20
      -32.679492
 30
        0.000000
 11
       -3.407050
 21
      -32.927050
 31
        0.000000
  0
LINE
  8
0
 10
       -4.219550
 20
      -33.245166
 30
        0.000000
 11
       -3.972480
 21
      -33.492724
 31
        0.000000
  0
LINE
  8
0
 10
       -1.179511
 20
      -35.154589
 30
        0.000000
 11
       -1.744941
 21
      -35.720263
 31
        0.000000
  0
LINE
  8
0
 10
       -1.426582
 20
      -34.907031
 30
        0.000000
 11
       -1.179511
 21
      -35.154589
 31
        0.000000
  0
LINE
  8
0
 10
       -1.992500
 20
      -35.472705
 30
        0.000000
 11
       -1.744941
 21
      -35.720263
 31
        0.000000
  0
LINE
  8
0
 10
       -3.972480
 20
      -34.907031
 30
        0.000000
 11
       -4.906074
 21
      -35.840869
 31
        0.000000
  0
LINE
  8
0
 10
       -3.407050
 20
      -35.472705
 30
        0.000000
 11
       -4.340644
 21
      -36.406543
 31
        0.000000
  0
LINE
  8
0
 10
       -1.058418
 20
      -31.993212
 30
        0.000000
 11
       -1.992500
 21
      -32.927050
 31
        0.000000
  0
LINE
  8
0
 10
       -0.492988
 20
      -32.558886
 30
        0.000000
 11
       -1.426582
 21
      -33.492724
 31
        0.000000
  0
LINE
  8
0
 10
       -6.049628
 20
      -37.549853
 30
        0.000000
 11
        0.650567
 21
      -37.549853
 31
        0.000000
  0
LINE
  8
0
 10
        0.650567
 20
      -30.849902
 30
        0.000000
 11
        0.650567
 21
      -37.549853
 31
        0.000000
  0
LINE
  8
0
 10
       -6.049628
 20
      -30.849902
 30
        0.000000
 11
       -6.049628
 21
      -37.549853
 31
        0.000000
  0
ENDBLK
  0
BLOCK
  8
0
  2
BLK0022
 70
    64
 10
        0.000000
 20
        0.000000
  0
LINE
  8
0
 10
      -14.949628
 20
      -30.849902
 30
        0.000000
 11
       -8.249433
 21
      -30.849902
 31
        0.000000
  0
CIRCLE
  8
0
 10
      -11.600019
 20
      -34.200000
 30
        0.000000
 40
        2.750000
  0
LINE
  8
0
 10
      -12.554121
 20
      -32.679492
 30
        0.000000
 11
      -13.119550
 21
      -33.245166
 31
        0.000000
  0
ARC
  8
0
 10
      -11.600019
 20
      -32.220019
 30
        0.000000
 40
        1.000066
 50
      225.004956
 51
      314.990112
  0
ARC
  8
0
 10
       -9.619550
 20
      -34.200000
 30
        0.000000
 40
        0.999893
 50
      134.980198
 51
      225.000011
  0
ARC
  8
0
 10
      -11.600019
 20
      -36.179736
 30
        0.000000
 40
        1.000066
 50
       44.990088
 51
      134.990088
  0
ARC
  8
0
 10
      -13.579511
 20
      -34.200000
 30
        0.000000
 40
        0.999893
 50
      314.995057
 51
      404.999978
  0
LINE
  8
0
 10
      -12.554121
 20
      -32.679492
 30
        0.000000
 11
      -12.307050
 21
      -32.927050
 31
        0.000000
  0
LINE
  8
0
 10
      -13.119550
 20
      -33.245166
 30
        0.000000
 11
      -12.872480
 21
      -33.492724
 31
        0.000000
  0
LINE
  8
0
 10
      -10.079511
 20
      -35.154589
 30
        0.000000
 11
      -10.644941
 21
      -35.720263
 31
        0.000000
  0
LINE
  8
0
 10
      -10.326582
 20
      -34.907031
 30
        0.000000
 11
      -10.079511
 21
      -35.154589
 31
        0.000000
  0
LINE
  8
0
 10
      -10.892500
 20
      -35.472705
 30
        0.000000
 11
      -10.644941
 21
      -35.720263
 31
        0.000000
  0
LINE
  8
0
 10
      -12.872480
 20
      -34.907031
 30
        0.000000
 11
      -13.806074
 21
      -35.840869
 31
        0.000000
  0
LINE
  8
0
 10
      -12.307050
 20
      -35.472705
 30
        0.000000
 11
      -13.240644
 21
      -36.406543
 31
        0.000000
  0
LINE
  8
0
 10
       -9.958418
 20
      -31.993212
 30
        0.000000
 11
      -10.892500
 21
      -32.927050
 31
        0.000000
  0
LINE
  8
0
 10
       -9.392988
 20
      -32.558886
 30
        0.000000
 11
      -10.326582
 21
      -33.492724
 31
        0.000000
  0
LINE
  8
0
 10
      -14.949628
 20
      -37.549853
 30
        0.000000
 11
       -8.249433
 21
      -37.549853
 31
        0.000000
  0
LINE
  8
0
 10
       -8.249433
 20
      -30.849902
 30
        0.000000
 11
       -8.249433
 21
      -37.549853
 31
        0.000000
  0
LINE
  8
0
 10
      -14.949628
 20
      -30.849902
 30
        0.000000
 11
      -14.949628
 21
      -37.549853
 31
        0.000000
  0
ENDBLK
  0
BLOCK
  8
0
  2
BLK0023
 70
    64
 10
        0.000000
 20
        0.000000
  0
LINE
  8
0
 10
      -23.849628
 20
      -30.849902
 30
        0.000000
 11
      -17.149433
 21
      -30.849902
 31
        0.000000
  0
CIRCLE
  8
0
 10
      -20.500019
 20
      -34.200000
 30
        0.000000
 40
        2.750000
  0
LINE
  8
0
 10
      -21.454121
 20
      -32.679492
 30
        0.000000
 11
      -22.019550
 21
      -33.245166
 31
        0.000000
  0
ARC
  8
0
 10
      -20.500019
 20
      -32.220019
 30
        0.000000
 40
        1.000066
 50
      225.004956
 51
      314.990112
  0
ARC
  8
0
 10
      -18.519550
 20
      -34.200000
 30
        0.000000
 40
        0.999893
 50
      134.980198
 51
      225.000011
  0
ARC
  8
0
 10
      -20.500019
 20
      -36.179736
 30
        0.000000
 40
        1.000066
 50
       44.990088
 51
      134.990088
  0
ARC
  8
0
 10
      -22.479511
 20
      -34.200000
 30
        0.000000
 40
        0.999893
 50
      314.995057
 51
      404.999978
  0
LINE
  8
0
 10
      -21.454121
 20
      -32.679492
 30
        0.000000
 11
      -21.207050
 21
      -32.927050
 31
        0.000000
  0
LINE
  8
0
 10
      -22.019550
 20
      -33.245166
 30
        0.000000
 11
      -21.772480
 21
      -33.492724
 31
        0.000000
  0
LINE
  8
0
 10
      -18.979511
 20
      -35.154589
 30
        0.000000
 11
      -19.544941
 21
      -35.720263
 31
        0.000000
  0
LINE
  8
0
 10
      -19.226582
 20
      -34.907031
 30
        0.000000
 11
      -18.979511
 21
      -35.154589
 31
        0.000000
  0
LINE
  8
0
 10
      -19.792500
 20
      -35.472705
 30
        0.000000
 11
      -19.544941
 21
      -35.720263
 31
        0.000000
  0
LINE
  8
0
 10
      -21.772480
 20
      -34.907031
 30
        0.000000
 11
      -22.706074
 21
      -35.840869
 31
        0.000000
  0
LINE
  8
0
 10
      -21.207050
 20
      -35.472705
 30
        0.000000
 11
      -22.140644
 21
      -36.406543
 31
        0.000000
  0
LINE
  8
0
 10
      -18.858418
 20
      -31.993212
 30
        0.000000
 11
      -19.792500
 21
      -32.927050
 31
        0.000000
  0
LINE
  8
0
 10
      -18.292988
 20
      -32.558886
 30
        0.000000
 11
      -19.226582
 21
      -33.492724
 31
        0.000000
  0
LINE
  8
0
 10
      -23.849628
 20
      -37.549853
 30
        0.000000
 11
      -17.149433
 21
      -37.549853
 31
        0.000000
  0
LINE
  8
0
 10
      -17.149433
 20
      -30.849902
 30
        0.000000
 11
      -17.149433
 21
      -37.549853
 31
        0.000000
  0
LINE
  8
0
 10
      -23.849628
 20
      -30.849902
 30
        0.000000
 11
      -23.849628
 21
      -37.549853
 31
        0.000000
  0
ENDBLK
  0
BLOCK
  8
0
  2
BLK0024
 70
    64
 10
        0.000000
 20
        0.000000
  0
LINE
  8
0
 10
      -36.249628
 20
      -30.849902
 30
        0.000000
 11
      -29.549433
 21
      -30.849902
 31
        0.000000
  0
CIRCLE
  8
0
 10
      -32.900019
 20
      -34.200000
 30
        0.000000
 40
        2.750000
  0
LINE
  8
0
 10
      -33.854121
 20
      -32.679492
 30
        0.000000
 11
      -34.419550
 21
      -33.245166
 31
        0.000000
  0
ARC
  8
0
 10
      -32.900019
 20
      -32.220019
 30
        0.000000
 40
        1.000066
 50
      225.004956
 51
      314.990112
  0
ARC
  8
0
 10
      -30.919550
 20
      -34.200000
 30
        0.000000
 40
        0.999893
 50
      134.980198
 51
      225.000011
  0
ARC
  8
0
 10
      -32.900019
 20
      -36.179736
 30
        0.000000
 40
        1.000066
 50
       44.990088
 51
      134.990088
  0
ARC
  8
0
 10
      -34.879511
 20
      -34.200000
 30
        0.000000
 40
        0.999893
 50
      314.995057
 51
      404.999978
  0
LINE
  8
0
 10
      -33.854121
 20
      -32.679492
 30
        0.000000
 11
      -33.607050
 21
      -32.927050
 31
        0.000000
  0
LINE
  8
0
 10
      -34.419550
 20
      -33.245166
 30
        0.000000
 11
      -34.172480
 21
      -33.492724
 31
        0.000000
  0
LINE
  8
0
 10
      -31.379511
 20
      -35.154589
 30
        0.000000
 11
      -31.944941
 21
      -35.720263
 31
        0.000000
  0
LINE
  8
0
 10
      -31.626582
 20
      -34.907031
 30
        0.000000
 11
      -31.379511
 21
      -35.154589
 31
        0.000000
  0
LINE
  8
0
 10
      -32.192500
 20
      -35.472705
 30
        0.000000
 11
      -31.944941
 21
      -35.720263
 31
        0.000000
  0
LINE
  8
0
 10
      -34.172480
 20
      -34.907031
 30
        0.000000
 11
      -35.106074
 21
      -35.840869
 31
        0.000000
  0
LINE
  8
0
 10
      -33.607050
 20
      -35.472705
 30
        0.000000
 11
      -34.540644
 21
      -36.406543
 31
        0.000000
  0
LINE
  8
0
 10
      -31.258418
 20
      -31.993212
 30
        0.000000
 11
      -32.192500
 21
      -32.927050
 31
        0.000000
  0
LINE
  8
0
 10
      -30.692988
 20
      -32.558886
 30
        0.000000
 11
      -31.626582
 21
      -33.492724
 31
        0.000000
  0
LINE
  8
0
 10
      -36.249628
 20
      -37.549853
 30
        0.000000
 11
      -29.549433
 21
      -37.549853
 31
        0.000000
  0
LINE
  8
0
 10
      -29.549433
 20
      -30.849902
 30
        0.000000
 11
      -29.549433
 21
      -37.549853
 31
        0.000000
  0
LINE
  8
0
 10
      -36.249628
 20
      -30.849902
 30
        0.000000
 11
      -36.249628
 21
      -37.549853
 31
        0.000000
  0
ENDBLK
  0
BLOCK
  8
0
  2
BLK0025
 70
    64
 10
        0.000000
 20
        0.000000
  0
LINE
  8
0
 10
      -45.149628
 20
      -30.849902
 30
        0.000000
 11
      -38.449433
 21
      -30.849902
 31
        0.000000
  0
CIRCLE
  8
0
 10
      -41.800019
 20
      -34.200000
 30
        0.000000
 40
        2.750000
  0
LINE
  8
0
 10
      -42.754121
 20
      -32.679492
 30
        0.000000
 11
      -43.319550
 21
      -33.245166
 31
        0.000000
  0
ARC
  8
0
 10
      -41.800019
 20
      -32.220019
 30
        0.000000
 40
        1.000066
 50
      225.004956
 51
      314.990112
  0
ARC
  8
0
 10
      -39.819550
 20
      -34.200000
 30
        0.000000
 40
        0.999893
 50
      134.980198
 51
      225.000011
  0
ARC
  8
0
 10
      -41.800019
 20
      -36.179736
 30
        0.000000
 40
        1.000066
 50
       44.990088
 51
      134.990088
  0
ARC
  8
0
 10
      -43.779511
 20
      -34.200000
 30
        0.000000
 40
        0.999893
 50
      314.995057
 51
      404.999978
  0
LINE
  8
0
 10
      -42.754121
 20
      -32.679492
 30
        0.000000
 11
      -42.507050
 21
      -32.927050
 31
        0.000000
  0
LINE
  8
0
 10
      -43.319550
 20
      -33.245166
 30
        0.000000
 11
      -43.072480
 21
      -33.492724
 31
        0.000000
  0
LINE
  8
0
 10
      -40.279511
 20
      -35.154589
 30
        0.000000
 11
      -40.844941
 21
      -35.720263
 31
        0.000000
  0
LINE
  8
0
 10
      -40.526582
 20
      -34.907031
 30
        0.000000
 11
      -40.279511
 21
      -35.154589
 31
        0.000000
  0
LINE
  8
0
 10
      -41.092500
 20
      -35.472705
 30
        0.000000
 11
      -40.844941
 21
      -35.720263
 31
        0.000000
  0
LINE
  8
0
 10
      -43.072480
 20
      -34.907031
 30
        0.000000
 11
      -44.006074
 21
      -35.840869
 31
        0.000000
  0
LINE
  8
0
 10
      -42.507050
 20
      -35.472705
 30
        0.000000
 11
      -43.440644
 21
      -36.406543
 31
        0.000000
  0
LINE
  8
0
 10
      -40.158418
 20
      -31.993212
 30
        0.000000
 11
      -41.092500
 21
      -32.927050
 31
        0.000000
  0
LINE
  8
0
 10
      -39.592988
 20
      -32.558886
 30
        0.000000
 11
      -40.526582
 21
      -33.492724
 31
        0.000000
  0
LINE
  8
0
 10
      -45.149628
 20
      -37.549853
 30
        0.000000
 11
      -38.449433
 21
      -37.549853
 31
        0.000000
  0
LINE
  8
0
 10
      -38.449433
 20
      -30.849902
 30
        0.000000
 11
      -38.449433
 21
      -37.549853
 31
        0.000000
  0
LINE
  8
0
 10
      -45.149628
 20
      -30.849902
 30
        0.000000
 11
      -45.149628
 21
      -37.549853
 31
        0.000000
  0
ENDBLK
  0
ENDSEC
  0
SECTION
  2
ENTITIES
  0
LINE
  8
0
 10
      -16.799824
 20
      -39.000000
 30
        0.000000
 11
      -24.199727
 21
      -39.000000
 31
        0.000000
  0
LINE
  8
0
 10
      -16.799824
 20
       39.000000
 30
        0.000000
 11
      -24.199727
 21
       39.000000
 31
        0.000000
  0
LINE
  8
0
 10
      -16.799824
 20
       38.399902
 30
        0.000000
 11
      -24.199727
 21
       38.399902
 31
        0.000000
  0
INSERT
  8
0
 62
  2
  2
BLK0001
 10
        0.000000
 20
        0.000000
  0
INSERT
  8
0
 62
  2
  2
BLK0002
 10
        0.000000
 20
        0.000000
  0
INSERT
  8
0
 62
  2
  2
BLK0003
 10
        0.000000
 20
        0.000000
  0
INSERT
  8
0
 62
  2
  2
BLK0004
 10
        0.000000
 20
        0.000000
  0
INSERT
  8
0
 62
  2
  2
BLK0005
 10
        0.000000
 20
        0.000000
  0
INSERT
  8
0
 62
  2
  2
BLK0006
 10
        0.000000
 20
        0.000000
  0
INSERT
  8
0
 62
  2
  2
BLK0007
 10
        0.000000
 20
        0.000000
  0
INSERT
  8
0
 62
  2
  2
BLK0008
 10
        0.000000
 20
        0.000000
  0
INSERT
  8
0
 62
  2
  2
BLK0009
 10
        0.000000
 20
        0.000000
  0
INSERT
  8
0
 62
  2
  2
BLK0010
 10
        0.000000
 20
        0.000000
  0
CIRCLE
  8
0
 10
       50.699981
 20
       34.200000
 30
        0.000000
 40
        2.750000
  0
LINE
  8
0
 10
       52.220489
 20
       35.154589
 30
        0.000000
 11
       51.655059
 21
       35.720263
 31
        0.000000
  0
LINE
  8
0
 10
       51.407500
 20
       35.472705
 30
        0.000000
 11
       51.655059
 21
       35.720263
 31
        0.000000
  0
LINE
  8
0
 10
       49.427520
 20
       34.907031
 30
        0.000000
 11
       48.493926
 21
       35.840869
 31
        0.000000
  0
LINE
  8
0
 10
       49.992950
 20
       35.472705
 30
        0.000000
 11
       49.059356
 21
       36.406543
 31
        0.000000
  0
LINE
  8
0
 10
       47.350372
 20
       37.549853
 30
        0.000000
 11
       54.050567
 21
       37.549853
 31
        0.000000
  0
LINE
  8
0
 10
       54.050567
 20
       30.849902
 30
        0.000000
 11
       54.050567
 21
       37.549853
 31
        0.000000
  0
LINE
  8
0
 10
       47.350372
 20
       30.849902
 30
        0.000000
 11
       47.350372
 21
       37.549853
 31
        0.000000
  0
CIRCLE
  8
0
 10
      -50.700019
 20
       34.200000
 30
        0.000000
 40
        2.750000
  0
LINE
  8
0
 10
      -49.179511
 20
       35.154589
 30
        0.000000
 11
      -49.744941
 21
       35.720263
 31
        0.000000
  0
LINE
  8
0
 10
      -49.992500
 20
       35.472705
 30
        0.000000
 11
      -49.744941
 21
       35.720263
 31
        0.000000
  0
LINE
  8
0
 10
      -51.972480
 20
       34.907031
 30
        0.000000
 11
      -52.906074
 21
       35.840869
 31
        0.000000
  0
LINE
  8
0
 10
      -51.407050
 20
       35.472705
 30
        0.000000
 11
      -52.340644
 21
       36.406543
 31
        0.000000
  0
LINE
  8
0
 10
      -54.049628
 20
       37.549853
 30
        0.000000
 11
      -47.349433
 21
       37.549853
 31
        0.000000
  0
LINE
  8
0
 10
      -47.349433
 20
       30.849902
 30
        0.000000
 11
      -47.349433
 21
       37.549853
 31
        0.000000
  0
LINE
  8
0
 10
      -54.049628
 20
       30.849902
 30
        0.000000
 11
      -54.049628
 21
       37.549853
 31
        0.000000
  0
LINE
  8
0
 10
       46.999981
 20
       29.900002
 30
        0.000000
 11
       46.999981
 21
       40.000000
 31
        0.000000
  0
LINE
  8
0
 10
       38.099981
 20
       29.900002
 30
        0.000000
 11
       38.099981
 21
       40.000000
 31
        0.000000
  0
LINE
  8
0
 10
       45.499981
 20
       29.900002
 30
        0.000000
 11
       45.499981
 21
       40.000000
 31
        0.000000
  0
LINE
  8
0
 10
       36.599981
 20
       29.900002
 30
        0.000000
 11
       36.599981
 21
       40.000000
 31
        0.000000
  0
LINE
  8
0
 10
       29.199981
 20
       29.900002
 30
        0.000000
 11
       29.199981
 21
       40.000000
 31
        0.000000
  0
LINE
  8
0
 10
       20.299981
 20
       29.900002
 30
        0.000000
 11
       20.299981
 21
       40.000000
 31
        0.000000
  0
LINE
  8
0
 10
       27.699981
 20
       29.900002
 30
        0.000000
 11
       27.699981
 21
       40.000000
 31
        0.000000
  0
LINE
  8
0
 10
       18.799981
 20
       29.900002
 30
        0.000000
 11
       18.799981
 21
       40.000000
 31
        0.000000
  0
LINE
  8
0
 10
       11.399981
 20
       29.900002
 30
        0.000000
 11
       11.399981
 21
       40.000000
 31
        0.000000
  0
LINE
  8
0
 10
        2.499981
 20
       29.900002
 30
        0.000000
 11
        2.499981
 21
       40.000000
 31
        0.000000
  0
LINE
  8
0
 10
        9.899981
 20
       29.900002
 30
        0.000000
 11
        9.899981
 21
       40.000000
 31
        0.000000
  0
LINE
  8
0
 10
        0.999981
 20
       29.900002
 30
        0.000000
 11
        0.999981
 21
       40.000000
 31
        0.000000
  0
LINE
  8
0
 10
       -6.400019
 20
       29.900002
 30
        0.000000
 11
       -6.400019
 21
       40.000000
 31
        0.000000
  0
LINE
  8
0
 10
      -15.300019
 20
       29.900002
 30
        0.000000
 11
      -15.300019
 21
       40.000000
 31
        0.000000
  0
LINE
  8
0
 10
       -7.900019
 20
       29.900002
 30
        0.000000
 11
       -7.900019
 21
       40.000000
 31
        0.000000
  0
LINE
  8
0
 10
      -16.800019
 20
       29.900002
 30
        0.000000
 11
      -16.800019
 21
       40.000000
 31
        0.000000
  0
LINE
  8
0
 10
      -24.200019
 20
       29.900002
 30
        0.000000
 11
      -24.200019
 21
       40.000000
 31
        0.000000
  0
LINE
  8
0
 10
      -29.200019
 20
       29.900002
 30
        0.000000
 11
      -29.200019
 21
       40.000000
 31
        0.000000
  0
LINE
  8
0
 10
      -38.100019
 20
       29.900002
 30
        0.000000
 11
      -38.100019
 21
       40.000000
 31
        0.000000
  0
LINE
  8
0
 10
      -36.600019
 20
       29.900002
 30
        0.000000
 11
      -36.600019
 21
       40.000000
 31
        0.000000
  0
LINE
  8
0
 10
      -45.500019
 20
       29.900002
 30
        0.000000
 11
      -45.500019
 21
       40.000000
 31
        0.000000
  0
LINE
  8
0
 10
      -47.000019
 20
       29.900002
 30
        0.000000
 11
      -47.000019
 21
       40.000000
 31
        0.000000
  0
LINE
  8
0
 10
       54.316457
 20
       38.399902
 30
        0.000000
 11
       47.000225
 21
       38.399902
 31
        0.000000
  0
LINE
  8
0
 10
       54.347905
 20
       39.000000
 30
        0.000000
 11
       47.000225
 21
       39.000000
 31
        0.000000
  0
LINE
  8
0
 10
      -47.000019
 20
       39.000000
 30
        0.000000
 11
      -54.347005
 21
       39.000000
 31
        0.000000
  0
LINE
  8
0
 10
      -47.000019
 20
       38.399902
 30
        0.000000
 11
      -54.315542
 21
       38.399902
 31
        0.000000
  0
LINE
  8
0
 10
      -38.100019
 20
       38.399902
 30
        0.000000
 11
      -45.500019
 21
       38.399902
 31
        0.000000
  0
LINE
  8
0
 10
      -38.100019
 20
       39.000000
 30
        0.000000
 11
      -45.500019
 21
       39.000000
 31
        0.000000
  0
LINE
  8
0
 10
      -29.200019
 20
       39.000000
 30
        0.000000
 11
      -36.600019
 21
       39.000000
 31
        0.000000
  0
LINE
  8
0
 10
      -29.200019
 20
       38.399902
 30
        0.000000
 11
      -36.600019
 21
       38.399902
 31
        0.000000
  0
LINE
  8
0
 10
       -7.900019
 20
       38.399902
 30
        0.000000
 11
      -15.300019
 21
       38.399902
 31
        0.000000
  0
LINE
  8
0
 10
       -7.900019
 20
       39.000000
 30
        0.000000
 11
      -15.300019
 21
       39.000000
 31
        0.000000
  0
LINE
  8
0
 10
        0.999981
 20
       38.399902
 30
        0.000000
 11
       -6.400019
 21
       38.399902
 31
        0.000000
  0
LINE
  8
0
 10
        0.999981
 20
       39.000000
 30
        0.000000
 11
       -6.400019
 21
       39.000000
 31
        0.000000
  0
LINE
  8
0
 10
        9.899981
 20
       38.399902
 30
        0.000000
 11
        2.499981
 21
       38.399902
 31
        0.000000
  0
LINE
  8
0
 10
        9.899981
 20
       39.000000
 30
        0.000000
 11
        2.499981
 21
       39.000000
 31
        0.000000
  0
LINE
  8
0
 10
       18.799981
 20
       38.399902
 30
        0.000000
 11
       11.399981
 21
       38.399902
 31
        0.000000
  0
LINE
  8
0
 10
       18.799981
 20
       39.000000
 30
        0.000000
 11
       11.399981
 21
       39.000000
 31
        0.000000
  0
LINE
  8
0
 10
       27.699981
 20
       38.399902
 30
        0.000000
 11
       20.299981
 21
       38.399902
 31
        0.000000
  0
LINE
  8
0
 10
       27.699981
 20
       39.000000
 30
        0.000000
 11
       20.299981
 21
       39.000000
 31
        0.000000
  0
LINE
  8
0
 10
       36.599981
 20
       38.399902
 30
        0.000000
 11
       29.199981
 21
       38.399902
 31
        0.000000
  0
LINE
  8
0
 10
       36.599981
 20
       39.000000
 30
        0.000000
 11
       29.199981
 21
       39.000000
 31
        0.000000
  0
LINE
  8
0
 10
       45.499981
 20
       38.399902
 30
        0.000000
 11
       38.099981
 21
       38.399902
 31
        0.000000
  0
LINE
  8
0
 10
       45.499981
 20
       39.000000
 30
        0.000000
 11
       38.099981
 21
       39.000000
 31
        0.000000
  0
LINE
  8
0
 10
      -48.492988
 20
       32.558886
 30
        0.000000
 11
      -49.426582
 21
       33.492724
 31
        0.000000
  0
LINE
  8
0
 10
      -49.058418
 20
       31.993212
 30
        0.000000
 11
      -49.992500
 21
       32.927050
 31
        0.000000
  0
LINE
  8
0
 10
      -49.426582
 20
       34.907031
 30
        0.000000
 11
      -49.179511
 21
       35.154589
 31
        0.000000
  0
LINE
  8
0
 10
      -52.219550
 20
       33.245166
 30
        0.000000
 11
      -51.972480
 21
       33.492724
 31
        0.000000
  0
LINE
  8
0
 10
      -51.654121
 20
       32.679492
 30
        0.000000
 11
      -51.407050
 21
       32.927050
 31
        0.000000
  0
ARC
  8
0
 10
      -52.679511
 20
       34.200000
 30
        0.000000
 40
        0.999893
 50
      315.000022
 51
      405.004943
  0
ARC
  8
0
 10
      -50.700019
 20
       36.179736
 30
        0.000000
 40
        1.000066
 50
      225.009912
 51
      315.009912
  0
ARC
  8
0
 10
      -48.719550
 20
       34.200000
 30
        0.000000
 40
        0.999893
 50
      134.999989
 51
      225.019802
  0
ARC
  8
0
 10
      -50.700019
 20
       32.220019
 30
        0.000000
 40
        1.000066
 50
       45.009888
 51
      134.995044
  0
LINE
  8
0
 10
      -51.654121
 20
       32.679492
 30
        0.000000
 11
      -52.219550
 21
       33.245166
 31
        0.000000
  0
LINE
  8
0
 10
      -54.049628
 20
       30.849902
 30
        0.000000
 11
      -47.349433
 21
       30.849902
 31
        0.000000
  0
LINE
  8
0
 10
       52.907012
 20
       32.558886
 30
        0.000000
 11
       51.973418
 21
       33.492724
 31
        0.000000
  0
LINE
  8
0
 10
       52.341582
 20
       31.993212
 30
        0.000000
 11
       51.407500
 21
       32.927050
 31
        0.000000
  0
LINE
  8
0
 10
       51.973418
 20
       34.907031
 30
        0.000000
 11
       52.220489
 21
       35.154589
 31
        0.000000
  0
LINE
  8
0
 10
       49.180450
 20
       33.245166
 30
        0.000000
 11
       49.427520
 21
       33.492724
 31
        0.000000
  0
LINE
  8
0
 10
       49.745879
 20
       32.679492
 30
        0.000000
 11
       49.992950
 21
       32.927050
 31
        0.000000
  0
ARC
  8
0
 10
       48.720489
 20
       34.200000
 30
        0.000000
 40
        0.999893
 50
      315.000022
 51
      405.004943
  0
ARC
  8
0
 10
       50.699981
 20
       36.179736
 30
        0.000000
 40
        1.000066
 50
      225.009912
 51
      315.009912
  0
ARC
  8
0
 10
       52.680450
 20
       34.200000
 30
        0.000000
 40
        0.999893
 50
      134.999989
 51
      225.019802
  0
ARC
  8
0
 10
       50.699981
 20
       32.220019
 30
        0.000000
 40
        1.000066
 50
       45.009888
 51
      134.995044
  0
LINE
  8
0
 10
       49.745879
 20
       32.679492
 30
        0.000000
 11
       49.180450
 21
       33.245166
 31
        0.000000
  0
LINE
  8
0
 10
       47.350372
 20
       30.849902
 30
        0.000000
 11
       54.050567
 21
       30.849902
 31
        0.000000
  0
LINE
  8
0
 10
      -64.600018
 20
       33.900002
 30
        0.000000
 11
      -59.400021
 21
       33.900002
 31
        0.000000
  0
CIRCLE
  8
0
 10
      -62.000019
 20
       33.900002
 30
        0.000000
 40
        4.000000
  0
CIRCLE
  8
0
 10
      -62.000019
 20
       33.900002
 30
        0.000000
 40
        2.000000
  0
LINE
  8
0
 10
      -62.000019
 20
       36.500001
 30
        0.000000
 11
      -62.000019
 21
       31.300002
 31
        0.000000
  0
LINE
  8
0
 10
       69.999962
 20
      -95.812134
 30
        0.000000
 11
       53.499981
 21
      -95.812134
 31
        0.000000
  0
LINE
  8
0
 10
      -46.970385
 20
      -95.812500
 30
        0.000000
 11
      -54.400160
 21
      -95.812500
 31
        0.000000
  0
LINE
  8
0
 10
      -54.400164
 20
      -95.812256
 30
        0.000000
 11
      -69.600117
 21
      -95.812256
 31
        0.000000
  0
LINE
  8
0
 10
      -54.399926
 20
      -96.812256
 30
        0.000000
 11
      -54.399926
 21
      -95.812134
 31
        0.000000
  0
CIRCLE
  8
0
 10
       -8.750019
 20
       -2.000000
 30
        0.000000
 40
        1.550049
  0
CIRCLE
  8
0
 10
       -2.750019
 20
       -2.000000
 30
        0.000000
 40
        1.550049
  0
CIRCLE
  8
0
 10
        3.249981
 20
       -2.000000
 30
        0.000000
 40
        1.550049
  0
CIRCLE
  8
0
 10
        9.249981
 20
       -2.000000
 30
        0.000000
 40
        1.550049
  0
CIRCLE
  8
0
 10
       15.249981
 20
       -2.000000
 30
        0.000000
 40
        1.550049
  0
CIRCLE
  8
0
 10
       21.249981
 20
       -2.000000
 30
        0.000000
 40
        1.550049
  0
CIRCLE
  8
0
 10
       27.249981
 20
       -2.000000
 30
        0.000000
 40
        1.550049
  0
CIRCLE
  8
0
 10
       33.249981
 20
       -2.000000
 30
        0.000000
 40
        1.550049
  0
ARC
  8
0
 10
      -67.500019
 20
       37.500000
 30
        0.000000
 40
        2.500000
 50
       90.000000
 51
      180.000020
  0
LINE
  8
0
 10
       36.499981
 20
      -29.900024
 30
        0.000000
 11
       34.999981
 21
      -29.900024
 31
        0.000000
  0
LINE
  8
0
 10
       27.999981
 20
      -29.900024
 30
        0.000000
 11
       26.499981
 21
      -29.900024
 31
        0.000000
  0
LINE
  8
0
 10
       19.499981
 20
      -29.900024
 30
        0.000000
 11
       17.999981
 21
      -29.900024
 31
        0.000000
  0
LINE
  8
0
 10
       10.999981
 20
      -29.900024
 30
        0.000000
 11
        9.499981
 21
      -29.900024
 31
        0.000000
  0
LINE
  8
0
 10
        2.499981
 20
      -29.900024
 30
        0.000000
 11
        0.999981
 21
      -29.900024
 31
        0.000000
  0
LINE
  8
0
 10
       -6.000019
 20
      -29.900024
 30
        0.000000
 11
       -7.500019
 21
      -29.900024
 31
        0.000000
  0
LINE
  8
0
 10
      -14.500019
 20
      -29.900024
 30
        0.000000
 11
      -16.000019
 21
      -29.900024
 31
        0.000000
  0
LINE
  8
0
 10
      -23.000019
 20
      -29.900024
 30
        0.000000
 11
      -28.000019
 21
      -29.900024
 31
        0.000000
  0
LINE
  8
0
 10
      -52.000019
 20
      -29.900024
 30
        0.000000
 11
      -53.500019
 21
      -29.900024
 31
        0.000000
  0
LINE
  8
0
 10
      -43.500019
 20
      -29.900024
 30
        0.000000
 11
      -45.000019
 21
      -29.900024
 31
        0.000000
  0
LINE
  8
0
 10
      -35.000019
 20
      -29.900024
 30
        0.000000
 11
      -36.500019
 21
      -29.900024
 31
        0.000000
  0
CIRCLE
  8
0
 10
      -34.000019
 20
       11.000033
 30
        0.000000
 40
        7.000000
  0
CIRCLE
  8
0
 10
      -34.000019
 20
      -10.999967
 30
        0.000000
 40
        5.949707
  0
CIRCLE
  8
0
 10
      -34.000019
 20
      -10.999967
 30
        0.000000
 40
        7.000000
  0
CIRCLE
  8
0
 10
      -34.000019
 20
       11.000033
 30
        0.000000
 40
        8.000000
  0
CIRCLE
  8
0
 10
      -31.450215
 20
       -9.999967
 30
        0.000000
 40
        0.500000
  0
CIRCLE
  8
0
 10
      -31.450215
 20
      -11.999967
 30
        0.000000
 40
        0.500000
  0
CIRCLE
  8
0
 10
      -33.000019
 20
      -10.999967
 30
        0.000000
 40
        0.500000
  0
CIRCLE
  8
0
 10
      -33.000019
 20
       -8.499967
 30
        0.000000
 40
        0.500000
  0
CIRCLE
  8
0
 10
      -35.000019
 20
       -8.499967
 30
        0.000000
 40
        0.500000
  0
CIRCLE
  8
0
 10
      -35.000019
 20
      -10.999967
 30
        0.000000
 40
        0.500000
  0
CIRCLE
  8
0
 10
      -35.000019
 20
      -13.499967
 30
        0.000000
 40
        0.500000
  0
CIRCLE
  8
0
 10
      -33.000019
 20
      -13.499967
 30
        0.000000
 40
        0.500000
  0
CIRCLE
  8
0
 10
      -36.550312
 20
      -11.999967
 30
        0.000000
 40
        0.500000
  0
CIRCLE
  8
0
 10
      -36.550312
 20
       -9.999967
 30
        0.000000
 40
        0.500000
  0
CIRCLE
  8
0
 10
      -34.000019
 20
      -10.999967
 30
        0.000000
 40
        4.800293
  0
CIRCLE
  8
0
 10
      -34.000019
 20
      -10.999967
 30
        0.000000
 40
        3.800293
  0
CIRCLE
  8
0
 10
      -34.000019
 20
       11.000033
 30
        0.000000
 40
        5.949707
  0
CIRCLE
  8
0
 10
      -34.000019
 20
       11.000033
 30
        0.000000
 40
        4.800293
  0
CIRCLE
  8
0
 10
      -34.000019
 20
       11.000033
 30
        0.000000
 40
        3.800293
  0
CIRCLE
  8
0
 10
      -31.450215
 20
       12.000033
 30
        0.000000
 40
        0.500000
  0
CIRCLE
  8
0
 10
      -31.450215
 20
       10.000033
 30
        0.000000
 40
        0.500000
  0
CIRCLE
  8
0
 10
      -33.000019
 20
       11.000033
 30
        0.000000
 40
        0.500000
  0
CIRCLE
  8
0
 10
      -33.000019
 20
       13.500033
 30
        0.000000
 40
        0.500000
  0
CIRCLE
  8
0
 10
      -33.000019
 20
        8.500033
 30
        0.000000
 40
        0.500000
  0
CIRCLE
  8
0
 10
      -35.000019
 20
       13.500033
 30
        0.000000
 40
        0.500000
  0
CIRCLE
  8
0
 10
      -35.000019
 20
       11.000033
 30
        0.000000
 40
        0.500000
  0
CIRCLE
  8
0
 10
      -35.000019
 20
        8.500033
 30
        0.000000
 40
        0.500000
  0
CIRCLE
  8
0
 10
      -36.550312
 20
       10.000033
 30
        0.000000
 40
        0.500000
  0
CIRCLE
  8
0
 10
      -36.550312
 20
       12.000033
 30
        0.000000
 40
        0.500000
  0
LINE
  8
0
 10
      -70.000019
 20
      -37.500000
 30
        0.000000
 11
      -70.000019
 21
       37.500000
 31
        0.000000
  0
LINE
  8
0
 10
      -54.399434
 20
       29.900046
 30
        0.000000
 11
      -54.399434
 21
       40.000044
 31
        0.000000
  0
LINE
  8
0
 10
      -54.399434
 20
      -40.000000
 30
        0.000000
 11
      -54.399434
 21
      -29.900002
 31
        0.000000
  0
LINE
  8
0
 10
       54.400310
 20
      -40.000000
 30
        0.000000
 11
       54.400310
 21
      -29.900002
 31
        0.000000
  0
LINE
  8
0
 10
       54.400310
 20
       29.900002
 30
        0.000000
 11
       54.400310
 21
       40.000000
 31
        0.000000
  0
TEXT
  8
10
 10
      -74.950969
 20
       55.708945
 30
        0.000000
 40
        5.000000
  1
ＤＳ－３２Ｄ
 50
        0.000000
 41
        1.000000
 51
        0.000000
  7
BIGFONT
  0
DIMENSION
  8
11
 62
  3
  2
BLK0011
 10
       82.806679
 20
      -33.900024
 11
       81.806679
 21
       -5.000011
 13
       64.600021
 23
      -33.900024
 14
      -59.400021
 24
       33.900002
 50
       90.0
 70
  0
  0
DIMENSION
  8
11
 62
  3
  2
BLK0012
 10
       88.665977
 20
       40.000000
 11
       87.665977
 21
       -2.500000
 13
       67.500015
 23
       40.000000
 14
       67.500015
 24
      -40.000000
 50
       90.0
 70
  0
  0
DIMENSION
  8
11
 62
  3
  2
BLK0013
 10
      -70.000015
 20
      -61.584709
 11
       -3.750050
 21
      -60.584709
 13
      -70.000015
 23
      -37.500000
 14
       69.999916
 24
      -37.500000
 50
        0.0
 70
  0
  0
DIMENSION
  8
11
 62
  3
  2
BLK0014
 10
      -62.000019
 20
      -55.105770
 11
       -3.750000
 21
      -54.105770
 13
      -62.000019
 23
       31.300001
 14
       62.000019
 24
      -36.500023
 50
        0.0
 70
  0
  0
CIRCLE
  8
0
 10
       62.000019
 20
      -33.900024
 30
        0.000000
 40
        2.000000
  0
CIRCLE
  8
0
 10
       62.000019
 20
      -33.900024
 30
        0.000000
 40
        4.000000
  0
LINE
  8
0
 10
       59.400021
 20
      -33.900024
 30
        0.000000
 11
       64.600018
 21
      -33.900024
 31
        0.000000
  0
LINE
  8
0
 10
       62.000019
 20
      -31.300024
 30
        0.000000
 11
       62.000019
 21
      -36.500023
 31
        0.000000
  0
LINE
  8
0
 10
       67.500019
 20
       40.000000
 30
        0.000000
 11
      -67.500019
 21
       40.000000
 31
        0.000000
  0
ARC
  8
0
 10
       67.500019
 20
       37.500000
 30
        0.000000
 40
        2.500000
 50
        0.000000
 51
       90.000000
  0
LINE
  8
0
 10
      -70.000019
 20
       29.900002
 30
        0.000000
 11
       70.000019
 21
       29.900002
 31
        0.000000
  0
LINE
  8
0
 10
       39.200664
 20
       21.400146
 30
        0.000000
 11
       70.000019
 21
       21.400146
 31
        0.000000
  0
LINE
  8
0
 10
       39.200664
 20
       -1.500000
 30
        0.000000
 11
       70.000019
 21
       -1.500000
 31
        0.000000
  0
LINE
  8
0
 10
       70.000019
 20
      -29.900046
 30
        0.000000
 11
      -70.000019
 21
      -29.900046
 31
        0.000000
  0
LINE
  8
0
 10
       70.000019
 20
      -37.500000
 30
        0.000000
 11
       70.000019
 21
       37.500000
 31
        0.000000
  0
ARC
  8
0
 10
       67.500019
 20
      -37.500000
 30
        0.000000
 40
        2.500000
 50
      270.000000
 51
      360.000000
  0
LINE
  8
0
 10
       67.500019
 20
      -40.000000
 30
        0.000000
 11
      -67.500019
 21
      -40.000000
 31
        0.000000
  0
CIRCLE
  8
0
 10
      -34.000019
 20
      -10.999998
 30
        0.000000
 40
        8.000000
  0
LINE
  8
0
 10
      -67.318882
 20
      -17.000000
 30
        0.000000
 11
      -67.318882
 21
       17.000000
 31
        0.000000
  0
LINE
  8
0
 10
      -69.322590
 20
      -17.000000
 30
        0.000000
 11
      -69.322590
 21
       17.000000
 31
        0.000000
  0
ARC
  8
0
 10
      -50.000019
 20
       19.500000
 30
        0.000000
 40
        2.000000
 50
        0.000000
 51
       90.000000
  0
LINE
  8
0
 10
      -48.000019
 20
      -19.500000
 30
        0.000000
 11
      -48.000019
 21
       19.500000
 31
        0.000000
  0
LINE
  8
0
 10
      -63.999989
 20
       21.500000
 30
        0.000000
 11
      -50.000019
 21
       21.500000
 31
        0.000000
  0
ARC
  8
0
 10
      -63.999989
 20
       19.500000
 30
        0.000000
 40
        2.000000
 50
       90.000000
 51
      180.000020
  0
LINE
  8
0
 10
      -65.999989
 20
       17.000000
 30
        0.000000
 11
      -65.999989
 21
       19.500000
 31
        0.000000
  0
ARC
  8
0
 10
      -50.000019
 20
      -19.500000
 30
        0.000000
 40
        2.000000
 50
      270.000000
 51
      360.000000
  0
LINE
  8
0
 10
      -63.999989
 20
      -21.500000
 30
        0.000000
 11
      -50.000019
 21
      -21.500000
 31
        0.000000
  0
ARC
  8
0
 10
      -63.999989
 20
      -19.500000
 30
        0.000000
 40
        2.000000
 50
      180.000020
 51
      270.000000
  0
LINE
  8
0
 10
      -65.999989
 20
      -19.500000
 30
        0.000000
 11
      -65.999989
 21
      -17.000000
 31
        0.000000
  0
LINE
  8
0
 10
      -69.322590
 20
      -17.000000
 30
        0.000000
 11
      -65.999989
 21
      -17.000000
 31
        0.000000
  0
LINE
  8
0
 10
      -69.322590
 20
       17.000000
 30
        0.000000
 11
      -65.999989
 21
       17.000000
 31
        0.000000
  0
CIRCLE
  8
0
 10
      -58.419972
 20
        8.229996
 30
        0.000000
 40
        0.500000
  0
CIRCLE
  8
0
 10
      -58.419972
 20
        2.740005
 30
        0.000000
 40
        0.500000
  0
CIRCLE
  8
0
 10
      -58.419972
 20
        5.490005
 30
        0.000000
 40
        0.500000
  0
CIRCLE
  8
0
 10
      -58.419972
 20
        0.000000
 30
        0.000000
 40
        0.500000
  0
CIRCLE
  8
0
 10
      -58.419972
 20
       -2.740006
 30
        0.000000
 40
        0.500000
  0
CIRCLE
  8
0
 10
      -58.419972
 20
       -5.490005
 30
        0.000000
 40
        0.500000
  0
CIRCLE
  8
0
 10
      -58.419972
 20
       -8.229996
 30
        0.000000
 40
        0.500000
  0
CIRCLE
  8
0
 10
      -55.580006
 20
       -9.600006
 30
        0.000000
 40
        0.500000
  0
CIRCLE
  8
0
 10
      -55.580006
 20
       -6.860001
 30
        0.000000
 40
        0.500000
  0
CIRCLE
  8
0
 10
      -55.580006
 20
       -4.110001
 30
        0.000000
 40
        0.500000
  0
CIRCLE
  8
0
 10
      -55.580006
 20
       -1.369995
 30
        0.000000
 40
        0.500000
  0
CIRCLE
  8
0
 10
      -55.580006
 20
        1.369995
 30
        0.000000
 40
        0.500000
  0
CIRCLE
  8
0
 10
      -55.580006
 20
        4.110001
 30
        0.000000
 40
        0.500000
  0
CIRCLE
  8
0
 10
      -55.580006
 20
        6.860001
 30
        0.000000
 40
        0.500000
  0
CIRCLE
  8
0
 10
      -55.580006
 20
        9.600006
 30
        0.000000
 40
        0.500000
  0
LINE
  8
0
 10
      -62.299977
 20
      -19.550003
 30
        0.000000
 11
      -51.700001
 21
      -19.550003
 31
        0.000000
  0
LINE
  8
0
 10
      -63.299977
 20
       18.550003
 30
        0.000000
 11
      -63.299977
 21
      -18.550003
 31
        0.000000
  0
LINE
  8
0
 10
      -62.299977
 20
       19.550003
 30
        0.000000
 11
      -51.700001
 21
       19.550003
 31
        0.000000
  0
LINE
  8
0
 10
      -50.700001
 20
       18.550003
 30
        0.000000
 11
      -50.700001
 21
      -18.550003
 31
        0.000000
  0
ARC
  8
0
 10
      -51.700001
 20
      -18.550003
 30
        0.000000
 40
        1.000000
 50
      270.000000
 51
      360.000000
  0
ARC
  8
0
 10
      -62.299977
 20
      -18.550003
 30
        0.000000
 40
        1.000000
 50
      180.000020
 51
      270.000000
  0
ARC
  8
0
 10
      -62.299977
 20
       18.550003
 30
        0.000000
 40
        1.000000
 50
       90.000000
 51
      180.000020
  0
ARC
  8
0
 10
      -51.700001
 20
       18.550003
 30
        0.000000
 40
        1.000000
 50
        0.000000
 51
       90.000000
  0
LINE
  8
0
 10
      -59.499989
 20
       18.103378
 30
        0.000000
 11
      -59.499989
 21
       15.216629
 31
        0.000000
  0
LINE
  8
0
 10
      -56.999989
 20
       19.546753
 30
        0.000000
 11
      -59.499989
 21
       18.103378
 31
        0.000000
  0
LINE
  8
0
 10
      -54.499989
 20
       18.103378
 30
        0.000000
 11
      -56.999989
 21
       19.546753
 31
        0.000000
  0
LINE
  8
0
 10
      -54.499989
 20
       15.216629
 30
        0.000000
 11
      -54.499989
 21
       18.103378
 31
        0.000000
  0
LINE
  8
0
 10
      -56.999989
 20
       13.773254
 30
        0.000000
 11
      -54.499989
 21
       15.216629
 31
        0.000000
  0
LINE
  8
0
 10
      -59.499989
 20
       15.216629
 30
        0.000000
 11
      -56.999989
 21
       13.773254
 31
        0.000000
  0
LINE
  8
0
 10
      -59.499989
 20
      -15.216629
 30
        0.000000
 11
      -59.499989
 21
      -18.103378
 31
        0.000000
  0
LINE
  8
0
 10
      -56.999989
 20
      -13.773254
 30
        0.000000
 11
      -59.499989
 21
      -15.216629
 31
        0.000000
  0
LINE
  8
0
 10
      -54.499989
 20
      -15.216629
 30
        0.000000
 11
      -56.999989
 21
      -13.773254
 31
        0.000000
  0
LINE
  8
0
 10
      -54.499989
 20
      -18.103378
 30
        0.000000
 11
      -54.499989
 21
      -15.216629
 31
        0.000000
  0
LINE
  8
0
 10
      -56.999989
 20
      -19.546753
 30
        0.000000
 11
      -54.499989
 21
      -18.103378
 31
        0.000000
  0
LINE
  8
0
 10
      -59.499989
 20
      -18.103378
 30
        0.000000
 11
      -56.999989
 21
      -19.546753
 31
        0.000000
  0
CIRCLE
  8
0
 10
      -56.999989
 20
       16.660004
 30
        0.000000
 40
        1.299988
  0
CIRCLE
  8
0
 10
      -56.999989
 20
      -16.660004
 30
        0.000000
 40
        1.299988
  0
ARC
  8
0
 10
      -59.309987
 20
       -9.855698
 30
        0.000000
 40
        1.599976
 50
      180.000020
 51
      260.000066
  0
LINE
  8
0
 10
      -54.689991
 20
      -12.295029
 30
        0.000000
 11
      -59.587819
 21
      -11.431381
 31
        0.000000
  0
ARC
  8
0
 10
      -54.689991
 20
      -10.694992
 30
        0.000000
 40
        1.599976
 50
      270.000000
 51
      360.000000
  0
LINE
  8
0
 10
      -53.090016
 20
      -10.694992
 30
        0.000000
 11
      -53.090016
 21
       10.694992
 31
        0.000000
  0
ARC
  8
0
 10
      -54.689991
 20
       10.694992
 30
        0.000000
 40
        1.599976
 50
        0.000000
 51
       90.000000
  0
LINE
  8
0
 10
      -54.689991
 20
       12.295029
 30
        0.000000
 11
      -59.587819
 21
       11.431381
 31
        0.000000
  0
ARC
  8
0
 10
      -59.309987
 20
        9.855698
 30
        0.000000
 40
        1.599990
 50
       99.999869
 51
      180.000020
  0
LINE
  8
0
 10
      -60.910023
 20
       -9.855698
 30
        0.000000
 11
      -60.910023
 21
        9.855698
 31
        0.000000
  0
CIRCLE
  8
0
 10
       33.249981
 20
        5.599854
 30
        0.000000
 40
        1.550049
  0
CIRCLE
  8
0
 10
       27.249981
 20
        5.599854
 30
        0.000000
 40
        1.550049
  0
CIRCLE
  8
0
 10
       21.249981
 20
        5.599854
 30
        0.000000
 40
        1.550049
  0
CIRCLE
  8
0
 10
       15.249981
 20
        5.599854
 30
        0.000000
 40
        1.550049
  0
CIRCLE
  8
0
 10
        9.249981
 20
        5.599854
 30
        0.000000
 40
        1.550049
  0
CIRCLE
  8
0
 10
        3.249981
 20
        5.599854
 30
        0.000000
 40
        1.550049
  0
CIRCLE
  8
0
 10
       -2.750019
 20
        5.599854
 30
        0.000000
 40
        1.550049
  0
CIRCLE
  8
0
 10
       -8.750019
 20
        5.599854
 30
        0.000000
 40
        1.550049
  0
LINE
  8
0
 10
        4.249981
 20
      -41.400146
 30
        0.000000
 11
        4.249981
 21
      -40.000000
 31
        0.000000
  0
LINE
  8
0
 10
        4.249981
 20
      -41.400146
 30
        0.000000
 11
        1.299785
 21
      -41.400146
 31
        0.000000
  0
LINE
  8
0
 10
        4.748027
 20
      -43.500000
 30
        0.000000
 11
       -4.749043
 21
      -43.500000
 31
        0.000000
  0
LINE
  8
0
 10
        9.499492
 20
      -40.000000
 30
        0.000000
 11
        6.065410
 21
      -43.005127
 31
        0.000000
  0
ARC
  8
0
 10
        4.748027
 20
      -41.500000
 30
        0.000000
 40
        2.000000
 50
      270.000000
 51
      311.200170
  0
LINE
  8
0
 10
       -9.500508
 20
      -40.000000
 30
        0.000000
 11
       -6.065937
 21
      -43.005249
 31
        0.000000
  0
ARC
  8
0
 10
       -4.749043
 20
      -41.500000
 30
        0.000000
 40
        1.999996
 50
      228.818370
 51
      270.000000
  0
LINE
  8
0
 10
       -4.250019
 20
      -41.400146
 30
        0.000000
 11
       -4.250019
 21
      -40.000000
 31
        0.000000
  0
LINE
  8
0
 10
       -1.300312
 20
      -41.400146
 30
        0.000000
 11
       -4.250019
 21
      -41.400146
 31
        0.000000
  0
ARC
  8
0
 10
       -0.000019
 20
      -41.400146
 30
        0.000000
 40
        1.300293
 50
      180.000020
 51
      270.000000
  0
ARC
  8
0
 10
       -0.000019
 20
      -41.400146
 30
        0.000000
 40
        1.299927
 50
      270.000000
 51
      360.000000
  0
LINE
  8
0
 10
       38.200664
 20
        8.900146
 30
        0.000000
 11
       38.200664
 21
       20.400146
 31
        0.000000
  0
ARC
  8
0
 10
       35.700664
 20
        9.900146
 30
        0.000000
 40
        1.000000
 50
      180.000020
 51
      270.000000
  0
LINE
  8
0
 10
       35.700664
 20
        8.900146
 30
        0.000000
 11
       38.200664
 21
        8.900146
 31
        0.000000
  0
LINE
  8
0
 10
       34.700664
 20
        9.900146
 30
        0.000000
 11
       34.700664
 21
       18.400146
 31
        0.000000
  0
ARC
  8
0
 10
       35.700664
 20
       18.400146
 30
        0.000000
 40
        1.000000
 50
       90.000000
 51
      180.000020
  0
LINE
  8
0
 10
       35.700664
 20
       19.400146
 30
        0.000000
 11
       38.200664
 21
       19.400146
 31
        0.000000
  0
LINE
  8
0
 10
       38.200664
 20
       -0.500000
 30
        0.000000
 11
       38.200664
 21
        8.900146
 31
        0.000000
  0
ARC
  8
0
 10
       39.200664
 20
       20.400146
 30
        0.000000
 40
        1.000000
 50
       90.000000
 51
      180.000020
  0
ARC
  8
0
 10
       39.200664
 20
       -0.500000
 30
        0.000000
 40
        1.000000
 50
      180.000034
 51
      270.000000
  0
LINE
  8
0
 10
      -65.299824
 20
       29.899902
 30
        0.000000
 11
      -65.299824
 21
       31.639404
 31
        0.000000
  0
LINE
  8
0
 10
      -65.299824
 20
       36.160400
 30
        0.000000
 11
      -65.299824
 21
       38.300049
 31
        0.000000
  0
LINE
  8
0
 10
       65.300212
 20
      -38.300049
 30
        0.000000
 11
       65.300212
 21
      -36.160645
 31
        0.000000
  0
LINE
  8
0
 10
       65.300212
 20
      -31.639648
 30
        0.000000
 11
       65.300212
 21
      -29.900146
 31
        0.000000
  0
ARC
  8
0
 10
       60.499919
 20
       40.000000
 30
        0.000000
 40
        3.000000
 50
      180.000020
 51
      270.000000
  0
ARC
  8
0
 10
       62.499919
 20
       40.000000
 30
        0.000000
 40
        3.000000
 50
      270.000000
 51
      360.000000
  0
LINE
  8
0
 10
       60.499919
 20
       37.000000
 30
        0.000000
 11
       62.499919
 21
       37.000000
 31
        0.000000
  0
LINE
  8
0
 10
      -60.500019
 20
      -37.000244
 30
        0.000000
 11
      -62.499531
 21
      -37.000244
 31
        0.000000
  0
ARC
  8
0
 10
      -62.499531
 20
      -40.000244
 30
        0.000000
 40
        3.000000
 50
       90.000000
 51
      180.000020
  0
ARC
  8
0
 10
      -60.500019
 20
      -40.000244
 30
        0.000000
 40
        3.000000
 50
        0.000000
 51
       90.000000
  0
LINE
  8
0
 10
       65.299724
 20
       29.899902
 30
        0.000000
 11
       65.299724
 21
       38.300049
 31
        0.000000
  0
LINE
  8
0
 10
       65.299724
 20
       38.300049
 30
        0.000000
 11
       67.499919
 21
       38.300049
 31
        0.000000
  0
LINE
  8
0
 10
      -67.500019
 20
      -38.300049
 30
        0.000000
 11
      -65.299824
 21
      -38.300049
 31
        0.000000
  0
LINE
  8
0
 10
      -65.299824
 20
      -38.300049
 30
        0.000000
 11
      -65.299824
 21
      -29.900146
 31
        0.000000
  0
LINE
  8
0
 10
      -65.299824
 20
       38.300049
 30
        0.000000
 11
      -67.500019
 21
       38.300049
 31
        0.000000
  0
LINE
  8
0
 10
       67.499919
 20
      -38.300049
 30
        0.000000
 11
       65.300212
 21
      -38.300049
 31
        0.000000
  0
ARC
  8
0
 10
       67.499919
 20
       37.500000
 30
        0.000000
 40
        0.799805
 50
        0.000000
 51
       90.000000
  0
LINE
  8
0
 10
       68.300212
 20
       29.899902
 30
        0.000000
 11
       68.300212
 21
       37.500000
 31
        0.000000
  0
ARC
  8
0
 10
       67.499919
 20
      -37.500000
 30
        0.000000
 40
        0.800049
 50
      270.000000
 51
      360.000000
  0
LINE
  8
0
 10
       68.300212
 20
      -37.500000
 30
        0.000000
 11
       68.300212
 21
      -29.900146
 31
        0.000000
  0
ARC
  8
0
 10
      -67.500019
 20
      -37.500000
 30
        0.000000
 40
        0.799805
 50
      180.000020
 51
      270.000000
  0
LINE
  8
0
 10
      -68.299824
 20
      -37.500000
 30
        0.000000
 11
      -68.299824
 21
      -29.900146
 31
        0.000000
  0
ARC
  8
0
 10
      -67.500019
 20
       37.500000
 30
        0.000000
 40
        0.800049
 50
       90.000000
 51
      180.000020
  0
LINE
  8
0
 10
      -68.299824
 20
       29.899902
 30
        0.000000
 11
      -68.299824
 21
       37.500000
 31
        0.000000
  0
ARC
  8
0
 10
      -67.500019
 20
      -37.500000
 30
        0.000000
 40
        2.500000
 50
      180.000020
 51
      270.000000
  0
LINE
  8
0
 10
      -17.000019
 20
     -127.812256
 30
        0.000000
 11
      -17.000019
 21
     -109.812256
 31
        0.000000
  0
LINE
  8
0
 10
       16.999981
 20
     -127.812256
 30
        0.000000
 11
       16.999981
 21
     -109.812256
 31
        0.000000
  0
LINE
  8
0
 10
       69.999981
 20
     -125.812073
 30
        0.000000
 11
       69.999981
 21
     -123.812073
 31
        0.000000
  0
LINE
  8
0
 10
       69.999981
 20
     -121.812119
 30
        0.000000
 11
       69.999981
 21
     -119.812119
 31
        0.000000
  0
LINE
  8
0
 10
       69.999981
 20
     -117.812164
 30
        0.000000
 11
       69.999981
 21
     -115.812164
 31
        0.000000
  0
LINE
  8
0
 10
       69.999981
 20
     -113.812210
 30
        0.000000
 11
       69.999981
 21
     -111.812210
 31
        0.000000
  0
LINE
  8
0
 10
       69.999981
 20
     -109.812256
 30
        0.000000
 11
       69.999981
 21
     -107.812256
 31
        0.000000
  0
LINE
  8
0
 10
       69.999981
 20
     -135.812256
 30
        0.000000
 11
       69.999981
 21
     -127.812256
 31
        0.000000
  0
LINE
  8
0
 10
       69.999981
 20
     -105.812302
 30
        0.000000
 11
       69.999981
 21
     -103.812302
 31
        0.000000
  0
LINE
  8
0
 10
       69.999981
 20
     -101.812302
 30
        0.000000
 11
       69.999981
 21
      -96.312134
 31
        0.000000
  0
LINE
  8
0
 10
       68.999981
 20
     -103.812256
 30
        0.000000
 11
       68.999981
 21
     -101.812256
 31
        0.000000
  0
LINE
  8
0
 10
       66.499981
 20
     -103.812256
 30
        0.000000
 11
       66.499981
 21
     -101.812256
 31
        0.000000
  0
LINE
  8
0
 10
       68.999981
 20
     -107.812256
 30
        0.000000
 11
       68.999981
 21
     -105.812256
 31
        0.000000
  0
LINE
  8
0
 10
       66.499981
 20
     -107.812256
 30
        0.000000
 11
       66.499981
 21
     -105.812256
 31
        0.000000
  0
LINE
  8
0
 10
       68.999981
 20
     -111.812256
 30
        0.000000
 11
       68.999981
 21
     -109.812256
 31
        0.000000
  0
LINE
  8
0
 10
       66.499981
 20
     -111.812256
 30
        0.000000
 11
       66.499981
 21
     -109.812256
 31
        0.000000
  0
LINE
  8
0
 10
       68.999981
 20
     -115.812256
 30
        0.000000
 11
       68.999981
 21
     -113.812256
 31
        0.000000
  0
LINE
  8
0
 10
       66.499981
 20
     -115.812256
 30
        0.000000
 11
       66.499981
 21
     -113.812256
 31
        0.000000
  0
LINE
  8
0
 10
       68.999981
 20
     -119.812256
 30
        0.000000
 11
       68.999981
 21
     -117.812256
 31
        0.000000
  0
LINE
  8
0
 10
       66.499981
 20
     -119.812256
 30
        0.000000
 11
       66.499981
 21
     -117.812256
 31
        0.000000
  0
LINE
  8
0
 10
       68.999981
 20
     -123.812256
 30
        0.000000
 11
       68.999981
 21
     -121.812256
 31
        0.000000
  0
LINE
  8
0
 10
       66.499981
 20
     -123.812256
 30
        0.000000
 11
       66.499981
 21
     -121.812256
 31
        0.000000
  0
LINE
  8
0
 10
       68.999981
 20
     -127.812256
 30
        0.000000
 11
       68.999981
 21
     -125.812256
 31
        0.000000
  0
LINE
  8
0
 10
       66.499981
 20
     -127.812256
 30
        0.000000
 11
       66.499981
 21
     -125.812256
 31
        0.000000
  0
LINE
  8
0
 10
       54.999981
 20
     -103.812256
 30
        0.000000
 11
       54.999981
 21
     -101.812256
 31
        0.000000
  0
LINE
  8
0
 10
       54.999981
 20
     -107.812256
 30
        0.000000
 11
       54.999981
 21
     -105.812256
 31
        0.000000
  0
LINE
  8
0
 10
       56.999981
 20
     -103.812256
 30
        0.000000
 11
       56.999981
 21
     -101.812256
 31
        0.000000
  0
LINE
  8
0
 10
       56.999981
 20
     -107.812256
 30
        0.000000
 11
       56.999981
 21
     -105.812256
 31
        0.000000
  0
LINE
  8
0
 10
       56.999981
 20
     -111.812256
 30
        0.000000
 11
       56.999981
 21
     -109.812256
 31
        0.000000
  0
LINE
  8
0
 10
       56.999981
 20
     -115.812256
 30
        0.000000
 11
       56.999981
 21
     -113.812256
 31
        0.000000
  0
LINE
  8
0
 10
       56.999981
 20
     -119.812256
 30
        0.000000
 11
       56.999981
 21
     -117.812256
 31
        0.000000
  0
LINE
  8
0
 10
       56.999981
 20
     -123.812256
 30
        0.000000
 11
       56.999981
 21
     -121.812256
 31
        0.000000
  0
LINE
  8
0
 10
       56.999981
 20
     -127.812256
 30
        0.000000
 11
       56.999981
 21
     -125.812256
 31
        0.000000
  0
LINE
  8
0
 10
       24.749981
 20
     -103.812256
 30
        0.000000
 11
       24.749981
 21
     -101.812256
 31
        0.000000
  0
LINE
  8
0
 10
       30.249981
 20
     -103.812256
 30
        0.000000
 11
       30.249981
 21
     -101.812256
 31
        0.000000
  0
LINE
  8
0
 10
      -30.250019
 20
     -103.812256
 30
        0.000000
 11
      -30.250019
 21
     -101.812256
 31
        0.000000
  0
LINE
  8
0
 10
      -24.750019
 20
     -103.812256
 30
        0.000000
 11
      -24.750019
 21
     -101.812256
 31
        0.000000
  0
LINE
  8
0
 10
       24.749981
 20
     -107.812256
 30
        0.000000
 11
       24.749981
 21
     -105.812256
 31
        0.000000
  0
LINE
  8
0
 10
       30.249981
 20
     -107.812256
 30
        0.000000
 11
       30.249981
 21
     -105.812256
 31
        0.000000
  0
LINE
  8
0
 10
      -30.250019
 20
     -107.812256
 30
        0.000000
 11
      -30.250019
 21
     -105.812256
 31
        0.000000
  0
LINE
  8
0
 10
      -24.750019
 20
     -107.812256
 30
        0.000000
 11
      -24.750019
 21
     -105.812256
 31
        0.000000
  0
LINE
  8
0
 10
      -66.500019
 20
     -103.812256
 30
        0.000000
 11
      -66.500019
 21
     -101.812256
 31
        0.000000
  0
LINE
  8
0
 10
      -66.500019
 20
     -107.812256
 30
        0.000000
 11
      -66.500019
 21
     -105.812256
 31
        0.000000
  0
LINE
  8
0
 10
      -66.500019
 20
     -111.812256
 30
        0.000000
 11
      -66.500019
 21
     -109.812256
 31
        0.000000
  0
LINE
  8
0
 10
      -66.500019
 20
     -115.812256
 30
        0.000000
 11
      -66.500019
 21
     -113.812256
 31
        0.000000
  0
LINE
  8
0
 10
      -66.500019
 20
     -119.812256
 30
        0.000000
 11
      -66.500019
 21
     -117.812256
 31
        0.000000
  0
LINE
  8
0
 10
      -66.500019
 20
     -123.812256
 30
        0.000000
 11
      -66.500019
 21
     -121.812256
 31
        0.000000
  0
LINE
  8
0
 10
      -66.500019
 20
     -127.812256
 30
        0.000000
 11
      -66.500019
 21
     -125.812256
 31
        0.000000
  0
LINE
  8
0
 10
      -57.000019
 20
     -103.812256
 30
        0.000000
 11
      -57.000019
 21
     -101.812256
 31
        0.000000
  0
LINE
  8
0
 10
      -55.000019
 20
     -103.812256
 30
        0.000000
 11
      -55.000019
 21
     -101.812256
 31
        0.000000
  0
LINE
  8
0
 10
      -57.000019
 20
     -107.812256
 30
        0.000000
 11
      -57.000019
 21
     -105.812256
 31
        0.000000
  0
LINE
  8
0
 10
      -55.000019
 20
     -107.812256
 30
        0.000000
 11
      -55.000019
 21
     -105.812256
 31
        0.000000
  0
LINE
  8
0
 10
      -57.000019
 20
     -111.812256
 30
        0.000000
 11
      -57.000019
 21
     -109.812256
 31
        0.000000
  0
LINE
  8
0
 10
      -55.000019
 20
     -111.812256
 30
        0.000000
 11
      -55.000019
 21
     -109.812256
 31
        0.000000
  0
LINE
  8
0
 10
      -57.000019
 20
     -115.812256
 30
        0.000000
 11
      -57.000019
 21
     -113.812256
 31
        0.000000
  0
LINE
  8
0
 10
      -55.000019
 20
     -115.812256
 30
        0.000000
 11
      -55.000019
 21
     -113.812256
 31
        0.000000
  0
LINE
  8
0
 10
      -57.000019
 20
     -119.812256
 30
        0.000000
 11
      -57.000019
 21
     -117.812256
 31
        0.000000
  0
LINE
  8
0
 10
      -55.000019
 20
     -119.812256
 30
        0.000000
 11
      -55.000019
 21
     -117.812256
 31
        0.000000
  0
LINE
  8
0
 10
      -57.000019
 20
     -123.812256
 30
        0.000000
 11
      -57.000019
 21
     -121.812256
 31
        0.000000
  0
LINE
  8
0
 10
      -55.000019
 20
     -123.812256
 30
        0.000000
 11
      -55.000019
 21
     -121.812256
 31
        0.000000
  0
LINE
  8
0
 10
      -57.000019
 20
     -127.812256
 30
        0.000000
 11
      -57.000019
 21
     -125.812256
 31
        0.000000
  0
LINE
  8
0
 10
      -69.000019
 20
     -123.812256
 30
        0.000000
 11
      -69.000019
 21
     -121.812256
 31
        0.000000
  0
LINE
  8
0
 10
      -69.000019
 20
     -127.812256
 30
        0.000000
 11
      -69.000019
 21
     -125.812256
 31
        0.000000
  0
LINE
  8
0
 10
      -69.000019
 20
     -119.812256
 30
        0.000000
 11
      -69.000019
 21
     -117.812256
 31
        0.000000
  0
LINE
  8
0
 10
      -69.000019
 20
     -115.812256
 30
        0.000000
 11
      -69.000019
 21
     -113.812256
 31
        0.000000
  0
LINE
  8
0
 10
      -69.000019
 20
     -111.812256
 30
        0.000000
 11
      -69.000019
 21
     -109.812256
 31
        0.000000
  0
LINE
  8
0
 10
      -69.000019
 20
     -107.812302
 30
        0.000000
 11
      -69.000019
 21
     -105.812302
 31
        0.000000
  0
LINE
  8
0
 10
      -69.000019
 20
     -103.812302
 30
        0.000000
 11
      -69.000019
 21
     -101.812302
 31
        0.000000
  0
LINE
  8
0
 10
      -70.000019
 20
     -125.812256
 30
        0.000000
 11
      -70.000019
 21
     -123.812256
 31
        0.000000
  0
LINE
  8
0
 10
      -70.000019
 20
     -121.812256
 30
        0.000000
 11
      -70.000019
 21
     -119.812256
 31
        0.000000
  0
LINE
  8
0
 10
      -70.000019
 20
     -117.812256
 30
        0.000000
 11
      -70.000019
 21
     -115.812256
 31
        0.000000
  0
LINE
  8
0
 10
      -70.000019
 20
     -113.812256
 30
        0.000000
 11
      -70.000019
 21
     -111.812256
 31
        0.000000
  0
LINE
  8
0
 10
      -70.000019
 20
     -109.812256
 30
        0.000000
 11
      -70.000019
 21
     -107.812302
 31
        0.000000
  0
LINE
  8
0
 10
      -70.000019
 20
     -105.812302
 30
        0.000000
 11
      -70.000019
 21
     -103.812302
 31
        0.000000
  0
LINE
  8
0
 10
      -70.000019
 20
     -101.812302
 30
        0.000000
 11
      -70.000019
 21
      -96.312256
 31
        0.000000
  0
LINE
  8
0
 10
      -70.000019
 20
     -135.812256
 30
        0.000000
 11
      -70.000019
 21
     -127.812256
 31
        0.000000
  0
LINE
  8
0
 10
      -70.000019
 20
     -107.812302
 30
        0.000000
 11
       69.999981
 21
     -107.812302
 31
        0.000000
  0
LINE
  8
0
 10
      -70.000019
 20
     -105.812302
 30
        0.000000
 11
       69.999981
 21
     -105.812302
 31
        0.000000
  0
LINE
  8
0
 10
      -70.000019
 20
     -103.812302
 30
        0.000000
 11
       69.999981
 21
     -103.812302
 31
        0.000000
  0
LINE
  8
0
 10
      -70.000019
 20
     -101.812302
 30
        0.000000
 11
       69.999981
 21
     -101.812302
 31
        0.000000
  0
LINE
  8
0
 10
      -54.545185
 20
      -87.512085
 30
        0.000000
 11
       69.564922
 21
      -87.512085
 31
        0.000000
  0
LINE
  8
0
 10
      -18.000019
 20
     -127.812256
 30
        0.000000
 11
      -70.000019
 21
     -127.812256
 31
        0.000000
  0
LINE
  8
0
 10
      -18.000019
 20
     -125.812256
 30
        0.000000
 11
      -70.000019
 21
     -125.812256
 31
        0.000000
  0
LINE
  8
0
 10
      -18.000019
 20
     -123.812256
 30
        0.000000
 11
      -70.000019
 21
     -123.812256
 31
        0.000000
  0
LINE
  8
0
 10
      -18.000019
 20
     -121.812256
 30
        0.000000
 11
      -70.000019
 21
     -121.812256
 31
        0.000000
  0
LINE
  8
0
 10
      -18.000019
 20
     -113.812256
 30
        0.000000
 11
      -70.000019
 21
     -113.812256
 31
        0.000000
  0
LINE
  8
0
 10
      -18.000019
 20
     -115.812256
 30
        0.000000
 11
      -70.000019
 21
     -115.812256
 31
        0.000000
  0
LINE
  8
0
 10
      -18.000019
 20
     -119.812256
 30
        0.000000
 11
      -70.000019
 21
     -119.812256
 31
        0.000000
  0
LINE
  8
0
 10
      -18.000019
 20
     -117.812256
 30
        0.000000
 11
      -70.000019
 21
     -117.812256
 31
        0.000000
  0
LINE
  8
0
 10
      -18.000019
 20
     -111.812256
 30
        0.000000
 11
      -70.000019
 21
     -111.812256
 31
        0.000000
  0
LINE
  8
0
 10
      -18.000019
 20
     -109.812256
 30
        0.000000
 11
      -70.000019
 21
     -109.812256
 31
        0.000000
  0
LINE
  8
0
 10
       69.999981
 20
     -127.812256
 30
        0.000000
 11
      -18.000019
 21
     -127.812256
 31
        0.000000
  0
LINE
  8
0
 10
       69.999981
 20
     -125.812256
 30
        0.000000
 11
       17.999981
 21
     -125.812256
 31
        0.000000
  0
LINE
  8
0
 10
       69.999981
 20
     -123.812256
 30
        0.000000
 11
       17.999981
 21
     -123.812256
 31
        0.000000
  0
LINE
  8
0
 10
       69.999981
 20
     -121.812256
 30
        0.000000
 11
       17.999981
 21
     -121.812256
 31
        0.000000
  0
LINE
  8
0
 10
       69.999981
 20
     -119.812256
 30
        0.000000
 11
       17.999981
 21
     -119.812256
 31
        0.000000
  0
LINE
  8
0
 10
       69.999981
 20
     -115.812256
 30
        0.000000
 11
       17.999981
 21
     -115.812256
 31
        0.000000
  0
LINE
  8
0
 10
       69.999981
 20
     -117.812256
 30
        0.000000
 11
       17.999981
 21
     -117.812256
 31
        0.000000
  0
LINE
  8
0
 10
       69.999981
 20
     -111.812256
 30
        0.000000
 11
       17.999981
 21
     -111.812256
 31
        0.000000
  0
LINE
  8
0
 10
       69.999981
 20
     -113.812256
 30
        0.000000
 11
       17.999981
 21
     -113.812256
 31
        0.000000
  0
LINE
  8
0
 10
       69.999981
 20
     -109.812256
 30
        0.000000
 11
      -18.000019
 21
     -109.812256
 31
        0.000000
  0
LINE
  8
0
 10
       54.399879
 20
      -96.812256
 30
        0.000000
 11
       54.399879
 21
      -95.812134
 31
        0.000000
  0
LINE
  8
0
 10
      -49.000019
 20
      -76.725708
 30
        0.000000
 11
      -49.000019
 21
      -74.611816
 31
        0.000000
  0
LINE
  8
0
 10
      -36.600117
 20
      -96.812256
 30
        0.000000
 11
      -29.200215
 21
      -96.812256
 31
        0.000000
  0
LINE
  8
0
 10
      -29.200215
 20
      -95.812256
 30
        0.000000
 11
      -36.600117
 21
      -95.812256
 31
        0.000000
  0
LINE
  8
0
 10
      -45.500019
 20
      -96.812256
 30
        0.000000
 11
      -38.100117
 21
      -96.812256
 31
        0.000000
  0
LINE
  8
0
 10
      -38.100117
 20
      -95.812256
 30
        0.000000
 11
      -45.500019
 21
      -95.812256
 31
        0.000000
  0
LINE
  8
0
 10
      -54.399922
 20
      -96.812256
 30
        0.000000
 11
      -47.000019
 21
      -96.812256
 31
        0.000000
  0
LINE
  8
0
 10
      -54.399922
 20
      -96.312256
 30
        0.000000
 11
      -70.000019
 21
      -96.312256
 31
        0.000000
  0
LINE
  8
0
 10
      -69.600117
 20
      -96.312256
 30
        0.000000
 11
      -69.600117
 21
      -95.812256
 31
        0.000000
  0
LINE
  8
0
 10
      -30.250019
 20
     -111.812256
 30
        0.000000
 11
      -30.250019
 21
     -109.812256
 31
        0.000000
  0
LINE
  8
0
 10
      -30.250019
 20
     -115.812256
 30
        0.000000
 11
      -30.250019
 21
     -113.812256
 31
        0.000000
  0
LINE
  8
0
 10
      -30.250019
 20
     -119.812256
 30
        0.000000
 11
      -30.250019
 21
     -117.812256
 31
        0.000000
  0
LINE
  8
0
 10
      -30.250019
 20
     -127.812256
 30
        0.000000
 11
      -30.250019
 21
     -125.812256
 31
        0.000000
  0
LINE
  8
0
 10
      -30.250019
 20
     -123.812256
 30
        0.000000
 11
      -30.250019
 21
     -121.812256
 31
        0.000000
  0
LINE
  8
0
 10
      -55.000019
 20
     -127.812256
 30
        0.000000
 11
      -55.000019
 21
     -125.812256
 31
        0.000000
  0
LINE
  8
0
 10
      -24.750019
 20
     -111.812256
 30
        0.000000
 11
      -24.750019
 21
     -109.812256
 31
        0.000000
  0
LINE
  8
0
 10
      -24.750019
 20
     -115.812256
 30
        0.000000
 11
      -24.750019
 21
     -113.812256
 31
        0.000000
  0
LINE
  8
0
 10
      -24.750019
 20
     -119.812256
 30
        0.000000
 11
      -24.750019
 21
     -117.812256
 31
        0.000000
  0
LINE
  8
0
 10
      -24.750019
 20
     -127.812256
 30
        0.000000
 11
      -24.750019
 21
     -125.812256
 31
        0.000000
  0
LINE
  8
0
 10
      -24.750019
 20
     -123.812256
 30
        0.000000
 11
      -24.750019
 21
     -121.812256
 31
        0.000000
  0
LINE
  8
0
 10
       69.999981
 20
     -135.812256
 30
        0.000000
 11
      -70.000019
 21
     -135.812256
 31
        0.000000
  0
LINE
  8
0
 10
       46.999981
 20
      -96.812256
 30
        0.000000
 11
       54.399883
 21
      -96.812256
 31
        0.000000
  0
LINE
  8
0
 10
       54.399883
 20
      -95.812256
 30
        0.000000
 11
       46.999981
 21
      -95.812256
 31
        0.000000
  0
LINE
  8
0
 10
       38.100078
 20
      -96.812256
 30
        0.000000
 11
       45.499981
 21
      -96.812256
 31
        0.000000
  0
LINE
  8
0
 10
       45.499981
 20
      -95.812256
 30
        0.000000
 11
       38.100078
 21
      -95.812256
 31
        0.000000
  0
LINE
  8
0
 10
       29.200176
 20
      -96.812256
 30
        0.000000
 11
       36.600078
 21
      -96.812256
 31
        0.000000
  0
LINE
  8
0
 10
       36.600078
 20
      -95.812256
 30
        0.000000
 11
       29.200176
 21
      -95.812256
 31
        0.000000
  0
LINE
  8
0
 10
       20.299785
 20
      -96.812256
 30
        0.000000
 11
       27.700176
 21
      -96.812256
 31
        0.000000
  0
LINE
  8
0
 10
       27.700176
 20
      -95.812256
 30
        0.000000
 11
       20.299785
 21
      -95.812256
 31
        0.000000
  0
LINE
  8
0
 10
       11.399883
 20
      -96.812256
 30
        0.000000
 11
       18.799785
 21
      -96.812256
 31
        0.000000
  0
LINE
  8
0
 10
       18.799785
 20
      -95.812256
 30
        0.000000
 11
       11.399883
 21
      -95.812256
 31
        0.000000
  0
LINE
  8
0
 10
        2.499981
 20
      -96.812256
 30
        0.000000
 11
        9.899883
 21
      -96.812256
 31
        0.000000
  0
LINE
  8
0
 10
        9.899883
 20
      -95.812256
 30
        0.000000
 11
        2.499981
 21
      -95.812256
 31
        0.000000
  0
LINE
  8
0
 10
       -6.399922
 20
      -96.812256
 30
        0.000000
 11
        0.999981
 21
      -96.812256
 31
        0.000000
  0
LINE
  8
0
 10
        0.999981
 20
      -95.812256
 30
        0.000000
 11
       -6.399922
 21
      -95.812256
 31
        0.000000
  0
LINE
  8
0
 10
      -15.299824
 20
      -96.812256
 30
        0.000000
 11
       -7.899922
 21
      -96.812256
 31
        0.000000
  0
LINE
  8
0
 10
       -7.899922
 20
      -95.812256
 30
        0.000000
 11
      -15.299824
 21
      -95.812256
 31
        0.000000
  0
LINE
  8
0
 10
      -16.799824
 20
      -95.812256
 30
        0.000000
 11
      -24.200215
 21
      -95.812256
 31
        0.000000
  0
LINE
  8
0
 10
      -24.200215
 20
      -96.812256
 30
        0.000000
 11
      -16.799824
 21
      -96.812256
 31
        0.000000
  0
LINE
  8
0
 10
       69.600078
 20
      -96.312134
 30
        0.000000
 11
       69.600078
 21
      -95.812256
 31
        0.000000
  0
LINE
  8
0
 10
       54.999981
 20
     -111.812256
 30
        0.000000
 11
       54.999981
 21
     -109.812256
 31
        0.000000
  0
LINE
  8
0
 10
       24.749981
 20
     -111.812256
 30
        0.000000
 11
       24.749981
 21
     -109.812256
 31
        0.000000
  0
LINE
  8
0
 10
       30.249981
 20
     -111.812256
 30
        0.000000
 11
       30.249981
 21
     -109.812256
 31
        0.000000
  0
LINE
  8
0
 10
       54.999981
 20
     -115.812256
 30
        0.000000
 11
       54.999981
 21
     -113.812256
 31
        0.000000
  0
LINE
  8
0
 10
       30.249981
 20
     -115.812256
 30
        0.000000
 11
       30.249981
 21
     -113.812256
 31
        0.000000
  0
LINE
  8
0
 10
       24.749981
 20
     -115.812256
 30
        0.000000
 11
       24.749981
 21
     -113.812256
 31
        0.000000
  0
LINE
  8
0
 10
       24.749981
 20
     -119.812256
 30
        0.000000
 11
       24.749981
 21
     -117.812256
 31
        0.000000
  0
LINE
  8
0
 10
       30.249981
 20
     -119.812256
 30
        0.000000
 11
       30.249981
 21
     -117.812256
 31
        0.000000
  0
LINE
  8
0
 10
       54.999981
 20
     -119.812256
 30
        0.000000
 11
       54.999981
 21
     -117.812256
 31
        0.000000
  0
LINE
  8
0
 10
       54.999981
 20
     -127.812256
 30
        0.000000
 11
       54.999981
 21
     -125.812256
 31
        0.000000
  0
LINE
  8
0
 10
       54.999981
 20
     -123.812256
 30
        0.000000
 11
       54.999981
 21
     -121.812256
 31
        0.000000
  0
LINE
  8
0
 10
       30.249981
 20
     -127.812256
 30
        0.000000
 11
       30.249981
 21
     -125.812256
 31
        0.000000
  0
LINE
  8
0
 10
       30.249981
 20
     -123.812256
 30
        0.000000
 11
       30.249981
 21
     -121.812256
 31
        0.000000
  0
LINE
  8
0
 10
       24.749981
 20
     -127.812256
 30
        0.000000
 11
       24.749981
 21
     -125.812256
 31
        0.000000
  0
LINE
  8
0
 10
       24.749981
 20
     -123.812256
 30
        0.000000
 11
       24.749981
 21
     -121.812256
 31
        0.000000
  0
LINE
  8
0
 10
       69.999981
 20
      -96.312134
 30
        0.000000
 11
       54.420879
 21
      -96.312134
 31
        0.000000
  0
LINE
  8
0
 10
       46.834453
 20
      -87.512451
 30
        0.000000
 11
       45.665996
 21
      -87.512451
 31
        0.000000
  0
LINE
  8
0
 10
       37.934063
 20
      -87.512451
 30
        0.000000
 11
       36.766094
 21
      -87.512451
 31
        0.000000
  0
LINE
  8
0
 10
       29.034160
 20
      -87.512451
 30
        0.000000
 11
       27.865703
 21
      -87.512451
 31
        0.000000
  0
LINE
  8
0
 10
       20.134258
 20
      -87.512451
 30
        0.000000
 11
       18.965801
 21
      -87.512451
 31
        0.000000
  0
LINE
  8
0
 10
       11.234356
 20
      -87.512451
 30
        0.000000
 11
       10.065898
 21
      -87.512451
 31
        0.000000
  0
LINE
  8
0
 10
        2.334453
 20
      -87.512451
 30
        0.000000
 11
        1.165996
 21
      -87.512451
 31
        0.000000
  0
LINE
  8
0
 10
       -6.565937
 20
      -87.512451
 30
        0.000000
 11
       -7.733906
 21
      -87.512451
 31
        0.000000
  0
LINE
  8
0
 10
      -15.465840
 20
      -87.512451
 30
        0.000000
 11
      -16.634297
 21
      -87.512451
 31
        0.000000
  0
LINE
  8
0
 10
      -24.365742
 20
      -87.512451
 30
        0.000000
 11
      -29.034199
 21
      -87.512451
 31
        0.000000
  0
LINE
  8
0
 10
      -36.765644
 20
      -87.512451
 30
        0.000000
 11
      -37.934102
 21
      -87.512451
 31
        0.000000
  0
LINE
  8
0
 10
      -45.665547
 20
      -87.512451
 30
        0.000000
 11
      -46.834492
 21
      -87.512451
 31
        0.000000
  0
LINE
  8
0
 10
       46.987773
 20
      -96.812256
 30
        0.000000
 11
       46.825664
 21
      -87.512451
 31
        0.000000
  0
LINE
  8
0
 10
       45.512676
 20
      -96.812256
 30
        0.000000
 11
       45.674785
 21
      -87.512451
 31
        0.000000
  0
LINE
  8
0
 10
       38.087871
 20
      -96.812256
 30
        0.000000
 11
       37.925273
 21
      -87.512451
 31
        0.000000
  0
LINE
  8
0
 10
       36.612285
 20
      -96.812256
 30
        0.000000
 11
       36.774883
 21
      -87.512451
 31
        0.000000
  0
LINE
  8
0
 10
       29.187969
 20
      -96.812256
 30
        0.000000
 11
       29.025371
 21
      -87.512451
 31
        0.000000
  0
LINE
  8
0
 10
       27.712383
 20
      -96.812256
 30
        0.000000
 11
       27.874492
 21
      -87.512451
 31
        0.000000
  0
LINE
  8
0
 10
       18.812481
 20
      -96.812256
 30
        0.000000
 11
       18.974590
 21
      -87.512451
 31
        0.000000
  0
LINE
  8
0
 10
       20.287578
 20
      -96.812256
 30
        0.000000
 11
       20.125469
 21
      -87.512451
 31
        0.000000
  0
LINE
  8
0
 10
       11.387676
 20
      -96.812256
 30
        0.000000
 11
       11.225566
 21
      -87.512451
 31
        0.000000
  0
LINE
  8
0
 10
        9.912090
 20
      -96.812256
 30
        0.000000
 11
       10.074688
 21
      -87.512451
 31
        0.000000
  0
LINE
  8
0
 10
        2.487773
 20
      -96.812256
 30
        0.000000
 11
        2.325664
 21
      -87.512451
 31
        0.000000
  0
LINE
  8
0
 10
        1.012676
 20
      -96.812256
 30
        0.000000
 11
        1.174785
 21
      -87.512451
 31
        0.000000
  0
LINE
  8
0
 10
       -7.887715
 20
      -96.812256
 30
        0.000000
 11
       -7.725117
 21
      -87.512451
 31
        0.000000
  0
LINE
  8
0
 10
       -6.412129
 20
      -96.812256
 30
        0.000000
 11
       -6.574727
 21
      -87.512451
 31
        0.000000
  0
LINE
  8
0
 10
      -15.312031
 20
      -96.812256
 30
        0.000000
 11
      -15.474629
 21
      -87.512451
 31
        0.000000
  0
LINE
  8
0
 10
      -16.787617
 20
      -96.812256
 30
        0.000000
 11
      -16.625508
 21
      -87.512451
 31
        0.000000
  0
LINE
  8
0
 10
      -24.212422
 20
      -96.812256
 30
        0.000000
 11
      -24.374531
 21
      -87.512451
 31
        0.000000
  0
LINE
  8
0
 10
      -29.187519
 20
      -96.812256
 30
        0.000000
 11
      -29.025410
 21
      -87.512451
 31
        0.000000
  0
LINE
  8
0
 10
      -36.612324
 20
      -96.812256
 30
        0.000000
 11
      -36.774434
 21
      -87.512451
 31
        0.000000
  0
LINE
  8
0
 10
      -38.087422
 20
      -96.812256
 30
        0.000000
 11
      -37.925312
 21
      -87.512451
 31
        0.000000
  0
LINE
  8
0
 10
      -45.512227
 20
      -96.812256
 30
        0.000000
 11
      -45.674336
 21
      -87.512451
 31
        0.000000
  0
LINE
  8
0
 10
      -46.987812
 20
      -96.812256
 30
        0.000000
 11
      -46.825703
 21
      -87.512451
 31
        0.000000
  0
LINE
  8
0
 10
      -47.350117
 20
      -95.812500
 30
        0.000000
 11
      -47.350117
 21
      -94.412598
 31
        0.000000
  0
LINE
  8
0
 10
      -54.050312
 20
      -95.812500
 30
        0.000000
 11
      -54.050312
 21
      -94.412598
 31
        0.000000
  0
LINE
  8
0
 10
      -53.449727
 20
      -94.412598
 30
        0.000000
 11
      -53.375508
 21
      -93.565308
 31
        0.000000
  0
ARC
  8
0
 10
      -52.379414
 20
      -93.652588
 30
        0.000000
 40
        1.000020
 50
      106.247046
 51
      174.999513
  0
LINE
  8
0
 10
      -47.350117
 20
      -94.412598
 30
        0.000000
 11
      -54.050312
 21
      -94.412598
 31
        0.000000
  0
LINE
  8
0
 10
      -47.949727
 20
      -94.412598
 30
        0.000000
 11
      -48.023945
 21
      -93.565308
 31
        0.000000
  0
ARC
  8
0
 10
      -49.020039
 20
      -93.652588
 30
        0.000000
 40
        0.999900
 50
        5.000644
 51
       73.735486
  0
ARC
  8
0
 10
      -50.699727
 20
      -99.412598
 30
        0.000000
 40
        7.000010
 50
       73.742227
 51
      106.257756
  0
LINE
  8
0
 10
      -38.450215
 20
      -95.812500
 30
        0.000000
 11
      -38.450215
 21
      -94.412598
 31
        0.000000
  0
LINE
  8
0
 10
      -45.150410
 20
      -95.812500
 30
        0.000000
 11
      -45.150410
 21
      -94.412598
 31
        0.000000
  0
LINE
  8
0
 10
      -44.549824
 20
      -94.412598
 30
        0.000000
 11
      -44.475605
 21
      -93.565308
 31
        0.000000
  0
ARC
  8
0
 10
      -43.479512
 20
      -93.652588
 30
        0.000000
 40
        1.000020
 50
      106.247046
 51
      174.999513
  0
LINE
  8
0
 10
      -38.450215
 20
      -94.412598
 30
        0.000000
 11
      -45.150410
 21
      -94.412598
 31
        0.000000
  0
LINE
  8
0
 10
      -39.049824
 20
      -94.412598
 30
        0.000000
 11
      -39.124043
 21
      -93.565308
 31
        0.000000
  0
ARC
  8
0
 10
      -40.120137
 20
      -93.652588
 30
        0.000000
 40
        0.999900
 50
        5.000644
 51
       73.736326
  0
ARC
  8
0
 10
      -41.799824
 20
      -99.412598
 30
        0.000000
 40
        7.000010
 50
       73.742227
 51
      106.257756
  0
LINE
  8
0
 10
      -17.149922
 20
      -95.812134
 30
        0.000000
 11
      -17.149922
 21
      -94.412109
 31
        0.000000
  0
LINE
  8
0
 10
      -23.850117
 20
      -95.812134
 30
        0.000000
 11
      -23.850117
 21
      -94.412109
 31
        0.000000
  0
LINE
  8
0
 10
      -23.249531
 20
      -94.412109
 30
        0.000000
 11
      -23.175312
 21
      -93.564941
 31
        0.000000
  0
ARC
  8
0
 10
      -22.179219
 20
      -93.652100
 30
        0.000000
 40
        1.000020
 50
      106.247046
 51
      174.999513
  0
LINE
  8
0
 10
      -17.149922
 20
      -94.412109
 30
        0.000000
 11
      -23.850117
 21
      -94.412109
 31
        0.000000
  0
LINE
  8
0
 10
      -17.749531
 20
      -94.412109
 30
        0.000000
 11
      -17.823750
 21
      -93.564941
 31
        0.000000
  0
ARC
  8
0
 10
      -18.819844
 20
      -93.652100
 30
        0.000000
 40
        0.999900
 50
        5.000644
 51
       73.736326
  0
ARC
  8
0
 10
      -20.499531
 20
      -99.412109
 30
        0.000000
 40
        7.000010
 50
       73.742227
 51
      106.257756
  0
LINE
  8
0
 10
      -29.550312
 20
      -95.812500
 30
        0.000000
 11
      -29.550312
 21
      -94.412598
 31
        0.000000
  0
LINE
  8
0
 10
      -36.250019
 20
      -95.812500
 30
        0.000000
 11
      -36.250019
 21
      -94.412598
 31
        0.000000
  0
LINE
  8
0
 10
      -35.649922
 20
      -94.412598
 30
        0.000000
 11
      -35.575703
 21
      -93.565308
 31
        0.000000
  0
ARC
  8
0
 10
      -34.579609
 20
      -93.652588
 30
        0.000000
 40
        1.000020
 50
      106.247046
 51
      174.999513
  0
LINE
  8
0
 10
      -29.550312
 20
      -94.412598
 30
        0.000000
 11
      -36.250019
 21
      -94.412598
 31
        0.000000
  0
LINE
  8
0
 10
      -30.149922
 20
      -94.412598
 30
        0.000000
 11
      -30.223652
 21
      -93.565308
 31
        0.000000
  0
ARC
  8
0
 10
      -31.220234
 20
      -93.652588
 30
        0.000000
 40
        0.999900
 50
        5.000644
 51
       73.736326
  0
ARC
  8
0
 10
      -32.899922
 20
      -99.412598
 30
        0.000000
 40
        7.000010
 50
       73.742227
 51
      106.257756
  0
LINE
  8
0
 10
       -8.250019
 20
      -95.812256
 30
        0.000000
 11
       -8.250019
 21
      -94.412109
 31
        0.000000
  0
LINE
  8
0
 10
      -14.950215
 20
      -95.812256
 30
        0.000000
 11
      -14.950215
 21
      -94.412109
 31
        0.000000
  0
LINE
  8
0
 10
      -14.349629
 20
      -94.412231
 30
        0.000000
 11
      -14.275410
 21
      -93.564941
 31
        0.000000
  0
ARC
  8
0
 10
      -13.279316
 20
      -93.652100
 30
        0.000000
 40
        1.000020
 50
      106.247046
 51
      174.992546
  0
LINE
  8
0
 10
       -8.250019
 20
      -94.412109
 30
        0.000000
 11
      -14.950215
 21
      -94.412109
 31
        0.000000
  0
LINE
  8
0
 10
       -8.849629
 20
      -94.412231
 30
        0.000000
 11
       -8.923848
 21
      -93.564941
 31
        0.000000
  0
ARC
  8
0
 10
       -9.919941
 20
      -93.652100
 30
        0.000000
 40
        1.000143
 50
        4.999425
 51
       73.740369
  0
ARC
  8
0
 10
      -11.599629
 20
      -99.412231
 30
        0.000000
 40
        7.000010
 50
       73.742227
 51
      106.255659
  0
LINE
  8
0
 10
        0.649883
 20
      -95.812256
 30
        0.000000
 11
        0.649883
 21
      -94.412231
 31
        0.000000
  0
LINE
  8
0
 10
       -6.050312
 20
      -95.812256
 30
        0.000000
 11
       -6.050312
 21
      -94.412231
 31
        0.000000
  0
LINE
  8
0
 10
       -5.449727
 20
      -94.412354
 30
        0.000000
 11
       -5.375508
 21
      -93.564941
 31
        0.000000
  0
ARC
  8
0
 10
       -4.379414
 20
      -93.652222
 30
        0.000000
 40
        1.000020
 50
      106.247046
 51
      174.999513
  0
LINE
  8
0
 10
        0.649883
 20
      -94.412231
 30
        0.000000
 11
       -6.050312
 21
      -94.412231
 31
        0.000000
  0
LINE
  8
0
 10
        0.050273
 20
      -94.412354
 30
        0.000000
 11
       -0.023945
 21
      -93.564941
 31
        0.000000
  0
ARC
  8
0
 10
       -1.020039
 20
      -93.652222
 30
        0.000000
 40
        0.999900
 50
        5.000644
 51
       73.736326
  0
ARC
  8
0
 10
       -2.699727
 20
      -99.412354
 30
        0.000000
 40
        7.000010
 50
       73.742227
 51
      106.257756
  0
LINE
  8
0
 10
        9.549785
 20
      -95.812256
 30
        0.000000
 11
        9.549785
 21
      -94.412354
 31
        0.000000
  0
LINE
  8
0
 10
        2.849590
 20
      -95.812256
 30
        0.000000
 11
        2.849590
 21
      -94.412354
 31
        0.000000
  0
LINE
  8
0
 10
        3.450176
 20
      -94.412354
 30
        0.000000
 11
        3.524395
 21
      -93.565063
 31
        0.000000
  0
ARC
  8
0
 10
        4.520488
 20
      -93.652344
 30
        0.000000
 40
        1.000088
 50
      106.260475
 51
      174.993721
  0
LINE
  8
0
 10
        9.549785
 20
      -94.412354
 30
        0.000000
 11
        2.849590
 21
      -94.412354
 31
        0.000000
  0
LINE
  8
0
 10
        8.950176
 20
      -94.412354
 30
        0.000000
 11
        8.875957
 21
      -93.565063
 31
        0.000000
  0
ARC
  8
0
 10
        7.879863
 20
      -93.652344
 30
        0.000000
 40
        0.999900
 50
        5.000644
 51
       73.750983
  0
ARC
  8
0
 10
        6.200176
 20
      -99.412354
 30
        0.000000
 40
        7.000010
 50
       73.742227
 51
      106.257756
  0
LINE
  8
0
 10
       18.449688
 20
      -95.812378
 30
        0.000000
 11
       18.449688
 21
      -94.412354
 31
        0.000000
  0
LINE
  8
0
 10
       11.749492
 20
      -95.812378
 30
        0.000000
 11
       11.749492
 21
      -94.412354
 31
        0.000000
  0
LINE
  8
0
 10
       12.350078
 20
      -94.412354
 30
        0.000000
 11
       12.424297
 21
      -93.565186
 31
        0.000000
  0
ARC
  8
0
 10
       13.420391
 20
      -93.652344
 30
        0.000000
 40
        1.000020
 50
      106.247046
 51
      174.999513
  0
LINE
  8
0
 10
       18.449688
 20
      -94.412354
 30
        0.000000
 11
       11.749492
 21
      -94.412354
 31
        0.000000
  0
LINE
  8
0
 10
       17.850078
 20
      -94.412354
 30
        0.000000
 11
       17.775859
 21
      -93.565186
 31
        0.000000
  0
ARC
  8
0
 10
       16.779766
 20
      -93.652344
 30
        0.000000
 40
        0.999900
 50
        5.000644
 51
       73.736326
  0
ARC
  8
0
 10
       15.100078
 20
      -99.412354
 30
        0.000000
 40
        7.000010
 50
       73.742227
 51
      106.257756
  0
LINE
  8
0
 10
       27.349590
 20
      -95.812500
 30
        0.000000
 11
       27.349590
 21
      -94.412354
 31
        0.000000
  0
LINE
  8
0
 10
       20.649883
 20
      -95.812500
 30
        0.000000
 11
       20.649883
 21
      -94.412354
 31
        0.000000
  0
LINE
  8
0
 10
       21.249981
 20
      -94.412476
 30
        0.000000
 11
       21.324199
 21
      -93.565186
 31
        0.000000
  0
ARC
  8
0
 10
       22.320293
 20
      -93.652344
 30
        0.000000
 40
        1.000020
 50
      106.247046
 51
      174.992546
  0
LINE
  8
0
 10
       27.349590
 20
      -94.412354
 30
        0.000000
 11
       20.649883
 21
      -94.412354
 31
        0.000000
  0
LINE
  8
0
 10
       26.749981
 20
      -94.412476
 30
        0.000000
 11
       26.676250
 21
      -93.565186
 31
        0.000000
  0
ARC
  8
0
 10
       25.679668
 20
      -93.652344
 30
        0.000000
 40
        1.000143
 50
        4.999425
 51
       73.740369
  0
ARC
  8
0
 10
       23.999981
 20
      -99.412476
 30
        0.000000
 40
        7.000010
 50
       73.742227
 51
      106.255659
  0
LINE
  8
0
 10
       36.249492
 20
      -95.812500
 30
        0.000000
 11
       36.249492
 21
      -94.412476
 31
        0.000000
  0
LINE
  8
0
 10
       29.549785
 20
      -95.812500
 30
        0.000000
 11
       29.549785
 21
      -94.412476
 31
        0.000000
  0
LINE
  8
0
 10
       30.149883
 20
      -94.412598
 30
        0.000000
 11
       30.224102
 21
      -93.565186
 31
        0.000000
  0
ARC
  8
0
 10
       31.220195
 20
      -93.652466
 30
        0.000000
 40
        1.000020
 50
      106.247046
 51
      174.999513
  0
LINE
  8
0
 10
       36.249492
 20
      -94.412476
 30
        0.000000
 11
       29.549785
 21
      -94.412476
 31
        0.000000
  0
LINE
  8
0
 10
       35.649883
 20
      -94.412598
 30
        0.000000
 11
       35.576152
 21
      -93.565186
 31
        0.000000
  0
ARC
  8
0
 10
       34.579570
 20
      -93.652466
 30
        0.000000
 40
        0.999900
 50
        5.000644
 51
       73.736326
  0
ARC
  8
0
 10
       32.899883
 20
      -99.412598
 30
        0.000000
 40
        7.000010
 50
       73.742227
 51
      106.257756
  0
LINE
  8
0
 10
       45.149395
 20
      -95.812500
 30
        0.000000
 11
       45.149395
 21
      -94.412598
 31
        0.000000
  0
LINE
  8
0
 10
       38.449688
 20
      -95.812500
 30
        0.000000
 11
       38.449688
 21
      -94.412598
 31
        0.000000
  0
LINE
  8
0
 10
       39.050273
 20
      -94.412598
 30
        0.000000
 11
       39.124004
 21
      -93.565308
 31
        0.000000
  0
ARC
  8
0
 10
       40.120586
 20
      -93.652588
 30
        0.000000
 40
        1.000088
 50
      106.260475
 51
      174.993721
  0
LINE
  8
0
 10
       45.149395
 20
      -94.412598
 30
        0.000000
 11
       38.449688
 21
      -94.412598
 31
        0.000000
  0
LINE
  8
0
 10
       44.550273
 20
      -94.412598
 30
        0.000000
 11
       44.476055
 21
      -93.565308
 31
        0.000000
  0
ARC
  8
0
 10
       43.479961
 20
      -93.652588
 30
        0.000000
 40
        0.999900
 50
        5.000644
 51
       73.750983
  0
ARC
  8
0
 10
       41.800273
 20
      -99.412598
 30
        0.000000
 40
        7.000010
 50
       73.742227
 51
      106.257756
  0
LINE
  8
0
 10
       54.049785
 20
      -95.812622
 30
        0.000000
 11
       54.049785
 21
      -94.412598
 31
        0.000000
  0
LINE
  8
0
 10
       47.349590
 20
      -95.812622
 30
        0.000000
 11
       47.349590
 21
      -94.412598
 31
        0.000000
  0
LINE
  8
0
 10
       47.950176
 20
      -94.412598
 30
        0.000000
 11
       48.024395
 21
      -93.565430
 31
        0.000000
  0
ARC
  8
0
 10
       49.020488
 20
      -93.652588
 30
        0.000000
 40
        1.000020
 50
      106.247046
 51
      174.999513
  0
LINE
  8
0
 10
       54.049785
 20
      -94.412598
 30
        0.000000
 11
       47.349590
 21
      -94.412598
 31
        0.000000
  0
LINE
  8
0
 10
       53.450176
 20
      -94.412598
 30
        0.000000
 11
       53.375957
 21
      -93.565430
 31
        0.000000
  0
ARC
  8
0
 10
       52.379863
 20
      -93.652588
 30
        0.000000
 40
        0.999900
 50
        5.000644
 51
       73.736326
  0
ARC
  8
0
 10
       50.700176
 20
      -99.412598
 30
        0.000000
 40
        7.000010
 50
       73.742227
 51
      106.257756
  0
LINE
  8
0
 10
      -65.300312
 20
      -87.512085
 30
        0.000000
 11
      -65.352559
 21
      -84.512085
 31
        0.000000
  0
LINE
  8
0
 10
       65.300273
 20
      -87.512085
 30
        0.000000
 11
       65.352520
 21
      -84.512085
 31
        0.000000
  0
LINE
  8
0
 10
      -67.862568
 20
      -87.512085
 30
        0.000000
 11
      -67.705342
 21
      -84.512085
 31
        0.000000
  0
LINE
  8
0
 10
       67.862529
 20
      -87.512085
 30
        0.000000
 11
       67.705303
 21
      -84.512085
 31
        0.000000
  0
LINE
  8
0
 10
      -60.500019
 20
      -90.512085
 30
        0.000000
 11
      -62.499775
 21
      -90.512085
 31
        0.000000
  0
ARC
  8
0
 10
      -60.500019
 20
      -87.512085
 30
        0.000000
 40
        3.000000
 50
      270.000000
 51
      360.000000
  0
ARC
  8
0
 10
      -62.499775
 20
      -87.512085
 30
        0.000000
 40
        3.000000
 50
      180.000020
 51
      270.000000
  0
LINE
  8
0
 10
      -68.176289
 20
      -85.912354
 30
        0.000000
 11
      -67.805195
 21
      -86.412354
 31
        0.000000
  0
LINE
  8
0
 10
      -67.752705
 20
      -85.412354
 30
        0.000000
 11
      -68.176289
 21
      -85.912354
 31
        0.000000
  0
LINE
  8
0
 10
       68.176006
 20
      -85.912354
 30
        0.000000
 11
       67.804912
 21
      -86.412354
 31
        0.000000
  0
LINE
  8
0
 10
       67.752422
 20
      -85.412354
 30
        0.000000
 11
       68.176006
 21
      -85.912354
 31
        0.000000
  0
ARC
  8
0
 10
      -66.516865
 20
      -77.111816
 30
        0.000000
 40
        2.500000
 50
       90.000000
 51
      176.999529
  0
LINE
  8
0
 10
       66.516338
 20
      -74.611816
 30
        0.000000
 11
      -66.516865
 21
      -74.611816
 31
        0.000000
  0
LINE
  8
0
 10
      -70.000019
 20
      -95.812500
 30
        0.000000
 11
      -69.013447
 21
      -76.982544
 31
        0.000000
  0
ARC
  8
0
 10
       66.516338
 20
      -77.111816
 30
        0.000000
 40
        2.500009
 50
        3.000436
 51
       90.000000
  0
LINE
  8
0
 10
       69.999981
 20
      -95.812500
 30
        0.000000
 11
       69.012920
 21
      -76.982178
 31
        0.000000
  0
ARC
  8
0
 10
       66.627178
 20
      -79.225708
 30
        0.000000
 40
        2.500009
 50
        3.000436
 51
       90.000000
  0
LINE
  8
0
 10
       66.627178
 20
      -76.725708
 30
        0.000000
 11
      -66.627461
 21
      -76.725708
 31
        0.000000
  0
ARC
  8
0
 10
      -66.627461
 20
      -79.225708
 30
        0.000000
 40
        2.500000
 50
       90.000000
 51
      176.999529
  0
LINE
  8
0
 10
      -68.000019
 20
      -95.812500
 30
        0.000000
 11
      -68.000019
 21
      -95.812134
 31
        0.000000
  0
LINE
  8
0
 10
      -70.000019
 20
      -95.812134
 30
        0.000000
 11
      -68.000019
 21
      -95.812134
 31
        0.000000
  0
LINE
  8
0
 10
       54.400371
 20
      -95.812134
 30
        0.000000
 11
       54.545391
 21
      -87.513306
 31
        0.000000
  0
LINE
  8
0
 10
      -54.545185
 20
      -87.512085
 30
        0.000000
 11
      -69.564961
 21
      -87.512085
 31
        0.000000
  0
LINE
  8
0
 10
      -54.400166
 20
      -95.812134
 30
        0.000000
 11
      -54.545185
 21
      -87.512085
 31
        0.000000
  0
LINE
  8
0
 10
      -65.352559
 20
      -84.512085
 30
        0.000000
 11
      -67.705342
 21
      -84.512085
 31
        0.000000
  0
LINE
  8
0
 10
       65.352520
 20
      -84.512085
 30
        0.000000
 11
       67.705303
 21
      -84.512085
 31
        0.000000
  0
LINE
  8
0
 10
       17.999981
 20
     -127.812256
 30
        0.000000
 11
       17.999981
 21
     -109.812256
 31
        0.000000
  0
LINE
  8
0
 10
      -18.000019
 20
     -127.812256
 30
        0.000000
 11
      -18.000019
 21
     -109.812256
 31
        0.000000
  0
LINE
  8
0
 10
        9.499981
 20
     -135.812256
 30
        0.000000
 11
        9.499981
 21
     -131.812256
 31
        0.000000
  0
LINE
  8
0
 10
       -9.500019
 20
     -135.812256
 30
        0.000000
 11
       -9.500019
 21
     -131.812134
 31
        0.000000
  0
LINE
  8
0
 10
        9.499981
 20
     -131.812256
 30
        0.000000
 11
       -9.500019
 21
     -131.812256
 31
        0.000000
  0
DIMENSION
  8
11
 62
  3
  2
BLK0015
 10
      169.999985
 20
      -56.669308
 11
      135.202469
 21
      -55.669308
 13
      169.999985
 23
      -43.499611
 14
      108.799942
 24
        0.000000
 50
        0.0
 70
  0
  0
LINE
  8
0
 10
      113.288711
 20
      -39.123756
 30
        0.000000
 11
      121.600013
 21
      -39.559547
 31
        0.000000
  0
ARC
  8
0
 10
       20.942882
 20
      -31.999977
 30
        0.000000
 40
       90.000031
 50
        1.613561
 51
        7.662272
  0
ARC
  8
0
 10
      113.419693
 20
      -36.627174
 30
        0.000000
 40
        2.500000
 50
      180.000020
 51
      266.999562
  0
LINE
  8
0
 10
      110.919693
 20
      -36.627174
 30
        0.000000
 11
      110.919693
 21
      -29.612038
 31
        0.000000
  0
LINE
  8
0
 10
      110.913711
 20
      -29.465797
 30
        0.000000
 11
      120.226111
 21
      -29.628395
 31
        0.000000
  0
LINE
  8
0
 10
      110.919693
 20
      -29.612038
 30
        0.000000
 11
      120.226478
 21
      -29.774391
 31
        0.000000
  0
ARC
  8
0
 10
      258.800049
 20
        0.000015
 30
        0.000000
 40
      150.000107
 50
      172.337734
 51
      180.000011
  0
ARC
  8
0
 10
      258.800049
 20
       -0.000015
 30
        0.000000
 40
      150.000107
 50
      179.999989
 51
      187.662266
  0
LINE
  8
0
 10
      120.299973
 20
       21.400383
 30
        0.000000
 11
      110.336921
 21
       21.574287
 31
        0.000000
  0
LINE
  8
0
 10
      120.299973
 20
       -1.499611
 30
        0.000000
 11
      108.809547
 21
       -1.700172
 31
        0.000000
  0
ARC
  8
0
 10
       20.942848
 20
       32.000267
 30
        0.000000
 40
       90.000000
 50
      352.337795
 51
      358.387594
  0
LINE
  8
0
 10
      110.919655
 20
       36.627464
 30
        0.000000
 11
      110.919655
 21
       29.612328
 31
        0.000000
  0
LINE
  8
0
 10
      110.919693
 20
       29.612038
 30
        0.000000
 11
      120.226478
 21
       29.774391
 31
        0.000000
  0
LINE
  8
0
 10
      110.913711
 20
       29.465797
 30
        0.000000
 11
      120.226111
 21
       29.628395
 31
        0.000000
  0
ARC
  8
0
 10
      113.419655
 20
       36.627464
 30
        0.000000
 40
        2.500009
 50
       93.000428
 51
      180.000020
  0
LINE
  8
0
 10
      113.288673
 20
       39.124046
 30
        0.000000
 11
      121.599975
 21
       39.559837
 31
        0.000000
  0
LINE
  8
0
 10
      120.299973
 20
       -1.499611
 30
        0.000000
 11
      120.299973
 21
       21.400383
 31
        0.000000
  0
LINE
  8
0
 10
      119.299973
 20
       -1.517067
 30
        0.000000
 11
      119.299973
 21
       21.417839
 31
        0.000000
  0
LINE
  8
0
 10
      121.599975
 20
       39.559837
 30
        0.000000
 11
      129.999699
 21
       40.000023
 31
        0.000000
  0
ARC
  8
0
 10
      120.199950
 20
       31.174583
 30
        0.000000
 40
        1.400115
 50
      270.999127
 51
      360.000000
  0
LINE
  8
0
 10
      121.599975
 20
       36.550316
 30
        0.000000
 11
      113.474675
 21
       36.550316
 31
        0.000000
  0
LINE
  8
0
 10
      121.599975
 20
       37.300316
 30
        0.000000
 11
      113.474675
 21
       37.300316
 31
        0.000000
  0
LINE
  8
0
 10
      121.600013
 20
       36.550026
 30
        0.000000
 11
      121.600013
 21
       31.174294
 31
        0.000000
  0
LINE
  8
0
 10
      121.600013
 20
       39.564674
 30
        0.000000
 11
      121.600013
 21
       37.300026
 31
        0.000000
  0
ARC
  8
0
 10
      120.199988
 20
       31.128151
 30
        0.000000
 40
        1.500000
 50
      271.002546
 51
      360.000000
  0
LINE
  8
0
 10
      121.600013
 20
       36.550026
 30
        0.000000
 11
      121.600013
 21
       31.174294
 31
        0.000000
  0
LINE
  8
0
 10
      121.600013
 20
       39.564674
 30
        0.000000
 11
      121.600013
 21
       37.300026
 31
        0.000000
  0
LINE
  8
0
 10
      121.699988
 20
       39.564674
 30
        0.000000
 11
      121.699988
 21
       31.128151
 31
        0.000000
  0
LINE
  8
0
 10
      121.699988
 20
      -39.564674
 30
        0.000000
 11
      129.999737
 21
      -39.999733
 31
        0.000000
  0
ARC
  8
0
 10
      120.199988
 20
      -31.128151
 30
        0.000000
 40
        1.500000
 50
        0.000000
 51
       88.997454
  0
LINE
  8
0
 10
      121.699988
 20
      -39.564674
 30
        0.000000
 11
      121.699988
 21
      -31.128151
 31
        0.000000
  0
LINE
  8
0
 10
      121.600013
 20
      -37.300026
 30
        0.000000
 11
      113.474713
 21
      -37.300026
 31
        0.000000
  0
LINE
  8
0
 10
      121.600013
 20
      -36.550026
 30
        0.000000
 11
      113.474713
 21
      -36.550026
 31
        0.000000
  0
LINE
  8
0
 10
      121.600013
 20
      -39.564674
 30
        0.000000
 11
      121.600013
 21
      -37.300026
 31
        0.000000
  0
LINE
  8
0
 10
      121.600013
 20
      -36.550026
 30
        0.000000
 11
      121.600013
 21
      -31.174294
 31
        0.000000
  0
ARC
  8
0
 10
      120.199988
 20
      -31.174294
 30
        0.000000
 40
        1.400024
 50
        0.000000
 51
       89.000801
  0
LINE
  8
0
 10
      129.999981
 20
       40.000023
 30
        0.000000
 11
      129.999981
 21
      -39.999977
 31
        0.000000
  0
LINE
  8
0
 10
      130.499981
 20
       40.000024
 30
        0.000000
 11
      130.499981
 21
      -39.999977
 31
        0.000000
  0
LINE
  8
0
 10
      135.999966
 20
       40.000031
 30
        0.000000
 11
      130.499981
 21
       40.000024
 31
        0.000000
  0
LINE
  8
0
 10
      135.999981
 20
      -39.999977
 30
        0.000000
 11
      130.499981
 21
      -39.999977
 31
        0.000000
  0
ARC
  8
0
 10
      162.291714
 20
       15.300323
 30
        0.000000
 40
        4.000142
 50
      337.976532
 51
      382.023490
  0
LINE
  8
0
 10
      165.999691
 20
       17.750031
 30
        0.000000
 11
      169.999935
 21
       17.889679
 31
        0.000000
  0
LINE
  8
0
 10
      169.108624
 20
      -17.858368
 30
        0.000000
 11
      165.999981
 21
      -17.749969
 31
        0.000000
  0
LINE
  8
0
 10
      165.999935
 20
       17.750031
 30
        0.000000
 11
      165.999981
 21
      -17.749969
 31
        0.000000
  0
LINE
  8
0
 10
      130.499699
 20
       39.600121
 30
        0.000000
 11
      129.999699
 21
       39.600121
 31
        0.000000
  0
LINE
  8
0
 10
      130.499737
 20
      -39.599586
 30
        0.000000
 11
      129.999737
 21
      -39.599586
 31
        0.000000
  0
LINE
  8
0
 10
      143.999935
 20
       40.000031
 30
        0.000000
 11
      143.999935
 21
       39.000031
 31
        0.000000
  0
LINE
  8
0
 10
      161.999935
 20
       40.000031
 30
        0.000000
 11
      161.999935
 21
       39.000031
 31
        0.000000
  0
LINE
  8
0
 10
      147.999935
 20
       40.000031
 30
        0.000000
 11
      147.999935
 21
       39.000031
 31
        0.000000
  0
LINE
  8
0
 10
      145.999935
 20
       40.000031
 30
        0.000000
 11
      145.999935
 21
       39.000031
 31
        0.000000
  0
LINE
  8
0
 10
      149.999935
 20
       40.000031
 30
        0.000000
 11
      149.999935
 21
       39.000031
 31
        0.000000
  0
LINE
  8
0
 10
      151.999935
 20
       40.000031
 30
        0.000000
 11
      151.999935
 21
       39.000031
 31
        0.000000
  0
LINE
  8
0
 10
      153.999935
 20
       40.000031
 30
        0.000000
 11
      153.999935
 21
       39.000031
 31
        0.000000
  0
LINE
  8
0
 10
      155.999935
 20
       40.000031
 30
        0.000000
 11
      155.999935
 21
       39.000031
 31
        0.000000
  0
LINE
  8
0
 10
      157.999935
 20
       40.000031
 30
        0.000000
 11
      157.999935
 21
       39.000031
 31
        0.000000
  0
LINE
  8
0
 10
      159.999935
 20
       40.000031
 30
        0.000000
 11
      159.999935
 21
       39.000031
 31
        0.000000
  0
LINE
  8
0
 10
      157.999935
 20
       39.000031
 30
        0.000000
 11
      155.999935
 21
       39.000031
 31
        0.000000
  0
LINE
  8
0
 10
      161.999935
 20
       39.000031
 30
        0.000000
 11
      159.999935
 21
       39.000031
 31
        0.000000
  0
LINE
  8
0
 10
      153.999935
 20
       39.000031
 30
        0.000000
 11
      151.999935
 21
       39.000031
 31
        0.000000
  0
LINE
  8
0
 10
      149.999935
 20
       39.000031
 30
        0.000000
 11
      147.999935
 21
       39.000031
 31
        0.000000
  0
LINE
  8
0
 10
      145.999935
 20
       39.000031
 30
        0.000000
 11
      143.999935
 21
       39.000031
 31
        0.000000
  0
LINE
  8
0
 10
      143.999981
 20
      -39.999977
 30
        0.000000
 11
      143.999981
 21
      -38.999977
 31
        0.000000
  0
LINE
  8
0
 10
      147.999981
 20
      -39.999977
 30
        0.000000
 11
      147.999981
 21
      -38.999977
 31
        0.000000
  0
LINE
  8
0
 10
      145.999981
 20
      -39.999977
 30
        0.000000
 11
      145.999981
 21
      -38.999977
 31
        0.000000
  0
LINE
  8
0
 10
      149.999981
 20
      -39.999977
 30
        0.000000
 11
      149.999981
 21
      -38.999977
 31
        0.000000
  0
LINE
  8
0
 10
      151.999981
 20
      -39.999977
 30
        0.000000
 11
      151.999981
 21
      -38.999977
 31
        0.000000
  0
LINE
  8
0
 10
      153.999981
 20
      -39.999977
 30
        0.000000
 11
      153.999981
 21
      -38.999977
 31
        0.000000
  0
LINE
  8
0
 10
      155.999981
 20
      -39.999977
 30
        0.000000
 11
      155.999981
 21
      -38.999977
 31
        0.000000
  0
LINE
  8
0
 10
      157.999981
 20
      -39.999977
 30
        0.000000
 11
      157.999981
 21
      -38.999977
 31
        0.000000
  0
LINE
  8
0
 10
      159.999981
 20
      -39.999977
 30
        0.000000
 11
      159.999981
 21
      -38.999977
 31
        0.000000
  0
LINE
  8
0
 10
      161.999981
 20
      -39.999977
 30
        0.000000
 11
      161.999981
 21
      -38.999977
 31
        0.000000
  0
LINE
  8
0
 10
      147.999981
 20
      -39.999977
 30
        0.000000
 11
      145.999981
 21
      -39.999977
 31
        0.000000
  0
LINE
  8
0
 10
      151.999981
 20
      -39.999977
 30
        0.000000
 11
      149.999981
 21
      -39.999977
 31
        0.000000
  0
LINE
  8
0
 10
      159.999981
 20
      -39.999977
 30
        0.000000
 11
      157.999981
 21
      -39.999977
 31
        0.000000
  0
LINE
  8
0
 10
      157.999981
 20
      -38.999977
 30
        0.000000
 11
      155.999981
 21
      -38.999977
 31
        0.000000
  0
LINE
  8
0
 10
      161.999981
 20
      -38.999977
 30
        0.000000
 11
      159.999981
 21
      -38.999977
 31
        0.000000
  0
LINE
  8
0
 10
      153.999981
 20
      -38.999977
 30
        0.000000
 11
      151.999981
 21
      -38.999977
 31
        0.000000
  0
LINE
  8
0
 10
      149.999981
 20
      -38.999977
 30
        0.000000
 11
      147.999981
 21
      -38.999977
 31
        0.000000
  0
LINE
  8
0
 10
      145.999981
 20
      -38.999977
 30
        0.000000
 11
      143.999981
 21
      -38.999977
 31
        0.000000
  0
LINE
  8
0
 10
      147.999935
 20
       40.000031
 30
        0.000000
 11
      145.999935
 21
       40.000031
 31
        0.000000
  0
LINE
  8
0
 10
      151.999935
 20
       40.000031
 30
        0.000000
 11
      149.999935
 21
       40.000031
 31
        0.000000
  0
LINE
  8
0
 10
      155.999935
 20
       40.000031
 30
        0.000000
 11
      153.999935
 21
       40.000031
 31
        0.000000
  0
LINE
  8
0
 10
      169.999935
 20
       40.000031
 30
        0.000000
 11
      161.999935
 21
       40.000031
 31
        0.000000
  0
LINE
  8
0
 10
      159.999935
 20
       40.000031
 30
        0.000000
 11
      157.999935
 21
       40.000031
 31
        0.000000
  0
LINE
  8
0
 10
      155.999981
 20
      -39.999977
 30
        0.000000
 11
      153.999981
 21
      -39.999977
 31
        0.000000
  0
LINE
  8
0
 10
      169.999981
 20
      -39.999977
 30
        0.000000
 11
      161.999981
 21
      -39.999977
 31
        0.000000
  0
ARC
  8
0
 10
      113.474713
 20
      -36.925026
 30
        0.000000
 40
        0.375000
 50
      180.000020
 51
      270.000000
  0
ARC
  8
0
 10
      113.474713
 20
      -36.925026
 30
        0.000000
 40
        0.375000
 50
       90.000000
 51
      180.000020
  0
ARC
  8
0
 10
      113.474675
 20
       36.925316
 30
        0.000000
 40
        0.375000
 50
      180.000020
 51
      270.000000
  0
ARC
  8
0
 10
      113.474675
 20
       36.925316
 30
        0.000000
 40
        0.375000
 50
       90.000000
 51
      180.000020
  0
LINE
  8
0
 10
      143.999981
 20
      -39.999977
 30
        0.000000
 11
      143.999966
 21
       40.000031
 31
        0.000000
  0
LINE
  8
0
 10
      145.999981
 20
      -39.999977
 30
        0.000000
 11
      145.999966
 21
       40.000031
 31
        0.000000
  0
LINE
  8
0
 10
      147.999981
 20
      -39.999977
 30
        0.000000
 11
      147.999966
 21
       40.000031
 31
        0.000000
  0
LINE
  8
0
 10
      149.999981
 20
      -39.999977
 30
        0.000000
 11
      149.999966
 21
       40.000031
 31
        0.000000
  0
LINE
  8
0
 10
      151.999981
 20
      -39.999977
 30
        0.000000
 11
      151.999966
 21
       40.000031
 31
        0.000000
  0
LINE
  8
0
 10
      153.999981
 20
      -39.999977
 30
        0.000000
 11
      153.999966
 21
       40.000031
 31
        0.000000
  0
LINE
  8
0
 10
      155.999981
 20
      -39.999977
 30
        0.000000
 11
      155.999966
 21
       40.000031
 31
        0.000000
  0
LINE
  8
0
 10
      157.999981
 20
      -39.999977
 30
        0.000000
 11
      157.999966
 21
       40.000031
 31
        0.000000
  0
LINE
  8
0
 10
      159.999981
 20
      -39.999977
 30
        0.000000
 11
      159.999966
 21
       40.000031
 31
        0.000000
  0
LINE
  8
0
 10
      161.999981
 20
      -39.999977
 30
        0.000000
 11
      161.999966
 21
       40.000031
 31
        0.000000
  0
LINE
  8
0
 10
      165.999981
 20
      -43.499611
 30
        0.000000
 11
      165.999981
 21
      -39.999977
 31
        0.000000
  0
LINE
  8
0
 10
      165.999981
 20
      -43.499611
 30
        0.000000
 11
      169.999981
 21
      -43.499611
 31
        0.000000
  0
LINE
  8
0
 10
      141.999981
 20
      -39.999977
 30
        0.000000
 11
      141.999966
 21
       40.000031
 31
        0.000000
  0
LINE
  8
0
 10
      139.999981
 20
      -39.999977
 30
        0.000000
 11
      139.999966
 21
       40.000031
 31
        0.000000
  0
LINE
  8
0
 10
      137.999981
 20
      -39.999977
 30
        0.000000
 11
      137.999966
 21
       40.000031
 31
        0.000000
  0
LINE
  8
0
 10
      135.999981
 20
      -39.999977
 30
        0.000000
 11
      135.999966
 21
       40.000031
 31
        0.000000
  0
LINE
  8
0
 10
      141.999966
 20
       39.000031
 30
        0.000000
 11
      139.999966
 21
       39.000031
 31
        0.000000
  0
LINE
  8
0
 10
      137.999966
 20
       39.000031
 30
        0.000000
 11
      135.999966
 21
       39.000031
 31
        0.000000
  0
LINE
  8
0
 10
      143.999935
 20
       40.000031
 30
        0.000000
 11
      141.999966
 21
       40.000031
 31
        0.000000
  0
LINE
  8
0
 10
      139.999966
 20
       40.000031
 30
        0.000000
 11
      137.999966
 21
       40.000031
 31
        0.000000
  0
LINE
  8
0
 10
      143.999981
 20
      -39.999977
 30
        0.000000
 11
      141.999981
 21
      -39.999977
 31
        0.000000
  0
LINE
  8
0
 10
      139.999981
 20
      -39.999977
 30
        0.000000
 11
      137.999981
 21
      -39.999977
 31
        0.000000
  0
LINE
  8
0
 10
      141.999981
 20
      -38.999977
 30
        0.000000
 11
      139.999981
 21
      -38.999977
 31
        0.000000
  0
LINE
  8
0
 10
      137.999981
 20
      -38.999977
 30
        0.000000
 11
      135.999981
 21
      -38.999977
 31
        0.000000
  0
LINE
  8
0
 10
      161.999966
 20
       27.500031
 30
        0.000000
 11
      159.999966
 21
       27.500031
 31
        0.000000
  0
LINE
  8
0
 10
      161.999966
 20
        8.000031
 30
        0.000000
 11
      159.999966
 21
        8.000031
 31
        0.000000
  0
LINE
  8
0
 10
      161.999966
 20
        6.500031
 30
        0.000000
 11
      159.999966
 21
        6.500031
 31
        0.000000
  0
LINE
  8
0
 10
      161.999966
 20
        2.500031
 30
        0.000000
 11
      159.999966
 21
        2.500031
 31
        0.000000
  0
LINE
  8
0
 10
      161.999966
 20
       -2.499969
 30
        0.000000
 11
      159.999966
 21
       -2.499969
 31
        0.000000
  0
LINE
  8
0
 10
      161.999966
 20
       -6.499969
 30
        0.000000
 11
      159.999966
 21
       -6.499969
 31
        0.000000
  0
LINE
  8
0
 10
      161.999966
 20
       -7.999969
 30
        0.000000
 11
      159.999966
 21
       -7.999969
 31
        0.000000
  0
LINE
  8
0
 10
      161.999981
 20
      -27.499977
 30
        0.000000
 11
      159.999981
 21
      -27.499977
 31
        0.000000
  0
LINE
  8
0
 10
      157.999966
 20
       27.500031
 30
        0.000000
 11
      155.999966
 21
       27.500031
 31
        0.000000
  0
LINE
  8
0
 10
      157.999966
 20
        8.000031
 30
        0.000000
 11
      155.999966
 21
        8.000031
 31
        0.000000
  0
LINE
  8
0
 10
      157.999966
 20
        6.500031
 30
        0.000000
 11
      155.999966
 21
        6.500031
 31
        0.000000
  0
LINE
  8
0
 10
      157.999966
 20
        2.500031
 30
        0.000000
 11
      155.999966
 21
        2.500031
 31
        0.000000
  0
LINE
  8
0
 10
      157.999966
 20
       -2.499969
 30
        0.000000
 11
      155.999966
 21
       -2.499969
 31
        0.000000
  0
LINE
  8
0
 10
      157.999966
 20
       -6.499969
 30
        0.000000
 11
      155.999966
 21
       -6.499969
 31
        0.000000
  0
LINE
  8
0
 10
      157.999966
 20
       -7.999969
 30
        0.000000
 11
      155.999966
 21
       -7.999969
 31
        0.000000
  0
LINE
  8
0
 10
      157.999981
 20
      -27.499977
 30
        0.000000
 11
      155.999981
 21
      -27.499977
 31
        0.000000
  0
LINE
  8
0
 10
      153.999966
 20
       27.500031
 30
        0.000000
 11
      151.999966
 21
       27.500031
 31
        0.000000
  0
LINE
  8
0
 10
      153.999966
 20
        8.000031
 30
        0.000000
 11
      151.999966
 21
        8.000031
 31
        0.000000
  0
LINE
  8
0
 10
      153.999966
 20
        6.500031
 30
        0.000000
 11
      151.999966
 21
        6.500031
 31
        0.000000
  0
LINE
  8
0
 10
      153.999966
 20
        2.500031
 30
        0.000000
 11
      151.999966
 21
        2.500031
 31
        0.000000
  0
LINE
  8
0
 10
      153.999966
 20
       -2.499969
 30
        0.000000
 11
      151.999966
 21
       -2.499969
 31
        0.000000
  0
LINE
  8
0
 10
      153.999966
 20
       -6.499969
 30
        0.000000
 11
      151.999966
 21
       -6.499969
 31
        0.000000
  0
LINE
  8
0
 10
      153.999966
 20
       -7.999969
 30
        0.000000
 11
      151.999966
 21
       -7.999969
 31
        0.000000
  0
LINE
  8
0
 10
      153.999981
 20
      -27.499977
 30
        0.000000
 11
      151.999981
 21
      -27.499977
 31
        0.000000
  0
LINE
  8
0
 10
      149.999966
 20
       27.500031
 30
        0.000000
 11
      147.999966
 21
       27.500031
 31
        0.000000
  0
LINE
  8
0
 10
      149.999966
 20
        8.000031
 30
        0.000000
 11
      147.999966
 21
        8.000031
 31
        0.000000
  0
LINE
  8
0
 10
      149.999966
 20
        6.500031
 30
        0.000000
 11
      147.999966
 21
        6.500031
 31
        0.000000
  0
LINE
  8
0
 10
      149.999966
 20
        2.500031
 30
        0.000000
 11
      147.999966
 21
        2.500031
 31
        0.000000
  0
LINE
  8
0
 10
      149.999966
 20
       -2.499969
 30
        0.000000
 11
      147.999966
 21
       -2.499969
 31
        0.000000
  0
LINE
  8
0
 10
      149.999966
 20
       -6.499969
 30
        0.000000
 11
      147.999966
 21
       -6.499969
 31
        0.000000
  0
LINE
  8
0
 10
      149.999966
 20
       -7.999969
 30
        0.000000
 11
      147.999966
 21
       -7.999969
 31
        0.000000
  0
LINE
  8
0
 10
      149.999981
 20
      -27.499977
 30
        0.000000
 11
      147.999981
 21
      -27.499977
 31
        0.000000
  0
LINE
  8
0
 10
      145.999966
 20
       27.500031
 30
        0.000000
 11
      143.999966
 21
       27.500031
 31
        0.000000
  0
LINE
  8
0
 10
      145.999966
 20
        8.000031
 30
        0.000000
 11
      143.999966
 21
        8.000031
 31
        0.000000
  0
LINE
  8
0
 10
      145.999966
 20
        6.500031
 30
        0.000000
 11
      143.999966
 21
        6.500031
 31
        0.000000
  0
LINE
  8
0
 10
      145.999966
 20
        2.500031
 30
        0.000000
 11
      143.999966
 21
        2.500031
 31
        0.000000
  0
LINE
  8
0
 10
      145.999966
 20
       -2.499969
 30
        0.000000
 11
      143.999966
 21
       -2.499969
 31
        0.000000
  0
LINE
  8
0
 10
      145.999966
 20
       -6.499969
 30
        0.000000
 11
      143.999966
 21
       -6.499969
 31
        0.000000
  0
LINE
  8
0
 10
      145.999966
 20
       -7.999969
 30
        0.000000
 11
      143.999966
 21
       -7.999969
 31
        0.000000
  0
LINE
  8
0
 10
      145.999981
 20
      -27.499977
 30
        0.000000
 11
      143.999981
 21
      -27.499977
 31
        0.000000
  0
LINE
  8
0
 10
      141.999966
 20
       27.500031
 30
        0.000000
 11
      139.999966
 21
       27.500031
 31
        0.000000
  0
LINE
  8
0
 10
      141.999966
 20
        8.000031
 30
        0.000000
 11
      139.999966
 21
        8.000031
 31
        0.000000
  0
LINE
  8
0
 10
      141.999966
 20
        6.500031
 30
        0.000000
 11
      139.999966
 21
        6.500031
 31
        0.000000
  0
LINE
  8
0
 10
      141.999966
 20
        2.500031
 30
        0.000000
 11
      139.999966
 21
        2.500031
 31
        0.000000
  0
LINE
  8
0
 10
      141.999966
 20
       -2.499969
 30
        0.000000
 11
      139.999966
 21
       -2.499969
 31
        0.000000
  0
LINE
  8
0
 10
      141.999966
 20
       -6.499969
 30
        0.000000
 11
      139.999966
 21
       -6.499969
 31
        0.000000
  0
LINE
  8
0
 10
      141.999966
 20
       -7.999969
 30
        0.000000
 11
      139.999966
 21
       -7.999969
 31
        0.000000
  0
LINE
  8
0
 10
      141.999981
 20
      -27.499977
 30
        0.000000
 11
      139.999981
 21
      -27.499977
 31
        0.000000
  0
LINE
  8
0
 10
      137.999966
 20
       24.500031
 30
        0.000000
 11
      135.999966
 21
       24.500031
 31
        0.000000
  0
LINE
  8
0
 10
      137.999981
 20
      -24.499977
 30
        0.000000
 11
      135.999981
 21
      -24.499977
 31
        0.000000
  0
LINE
  8
0
 10
      137.999966
 20
       14.500031
 30
        0.000000
 11
      135.999966
 21
       14.500031
 31
        0.000000
  0
LINE
  8
0
 10
      137.999981
 20
      -14.499969
 30
        0.000000
 11
      135.999981
 21
      -14.499969
 31
        0.000000
  0
LINE
  8
0
 10
      136.999981
 20
      -24.499977
 30
        0.000000
 11
      136.999981
 21
      -14.499969
 31
        0.000000
  0
LINE
  8
0
 10
      136.999966
 20
       14.500031
 30
        0.000000
 11
      136.999966
 21
       24.500031
 31
        0.000000
  0
LINE
  8
0
 10
      169.999981
 20
      -18.749969
 30
        0.000000
 11
      169.999981
 21
      -39.999977
 31
        0.000000
  0
LINE
  8
0
 10
      167.199887
 20
       17.750031
 30
        0.000000
 11
      166.600277
 21
       17.771027
 31
        0.000000
  0
LINE
  8
0
 10
      167.199887
 20
       17.750031
 30
        0.000000
 11
      167.499966
 21
       14.750031
 31
        0.000000
  0
LINE
  8
0
 10
      169.999966
 20
       14.837433
 30
        0.000000
 11
      167.499966
 21
       14.750031
 31
        0.000000
  0
LINE
  8
0
 10
      169.999935
 20
       40.000031
 30
        0.000000
 11
      169.999966
 21
       14.837433
 31
        0.000000
  0
LINE
  8
0
 10
      169.108624
 20
      -17.858368
 30
        0.000000
 11
      169.999981
 21
      -18.749969
 31
        0.000000
  0
LINE
  8
0
 10
      169.999981
 20
      -43.499611
 30
        0.000000
 11
      169.999981
 21
      -39.999977
 31
        0.000000
  0
LINE
  8
0
 10
       47.350372
 20
      -30.849902
 30
        0.000000
 11
       54.050567
 21
      -30.849902
 31
        0.000000
  0
LINE
  8
0
 10
       49.745879
 20
      -32.679492
 30
        0.000000
 11
       49.180450
 21
      -33.245166
 31
        0.000000
  0
ARC
  8
0
 10
       50.699981
 20
      -32.220019
 30
        0.000000
 40
        1.000066
 50
      225.004956
 51
      314.990112
  0
ARC
  8
0
 10
       52.680450
 20
      -34.200000
 30
        0.000000
 40
        0.999893
 50
      134.980198
 51
      225.000011
  0
ARC
  8
0
 10
       50.699981
 20
      -36.179736
 30
        0.000000
 40
        1.000066
 50
       44.990088
 51
      134.990088
  0
ARC
  8
0
 10
       48.720489
 20
      -34.200000
 30
        0.000000
 40
        0.999893
 50
      314.995057
 51
      404.999978
  0
LINE
  8
0
 10
       49.745879
 20
      -32.679492
 30
        0.000000
 11
       49.992950
 21
      -32.927050
 31
        0.000000
  0
LINE
  8
0
 10
       49.180450
 20
      -33.245166
 30
        0.000000
 11
       49.427520
 21
      -33.492724
 31
        0.000000
  0
LINE
  8
0
 10
       51.973418
 20
      -34.907031
 30
        0.000000
 11
       52.220489
 21
      -35.154589
 31
        0.000000
  0
LINE
  8
0
 10
       52.341582
 20
      -31.993212
 30
        0.000000
 11
       51.407500
 21
      -32.927050
 31
        0.000000
  0
LINE
  8
0
 10
       52.907012
 20
      -32.558886
 30
        0.000000
 11
       51.973418
 21
      -33.492724
 31
        0.000000
  0
LINE
  8
0
 10
      -54.049628
 20
      -30.849902
 30
        0.000000
 11
      -47.349433
 21
      -30.849902
 31
        0.000000
  0
LINE
  8
0
 10
      -51.654121
 20
      -32.679492
 30
        0.000000
 11
      -52.219550
 21
      -33.245166
 31
        0.000000
  0
ARC
  8
0
 10
      -50.700019
 20
      -32.220019
 30
        0.000000
 40
        1.000066
 50
      225.004956
 51
      314.990112
  0
ARC
  8
0
 10
      -48.719550
 20
      -34.200000
 30
        0.000000
 40
        0.999893
 50
      134.980198
 51
      225.000011
  0
ARC
  8
0
 10
      -50.700019
 20
      -36.179736
 30
        0.000000
 40
        1.000066
 50
       44.990088
 51
      134.990088
  0
ARC
  8
0
 10
      -52.679511
 20
      -34.200000
 30
        0.000000
 40
        0.999893
 50
      314.995057
 51
      404.999978
  0
LINE
  8
0
 10
      -51.654121
 20
      -32.679492
 30
        0.000000
 11
      -51.407050
 21
      -32.927050
 31
        0.000000
  0
LINE
  8
0
 10
      -52.219550
 20
      -33.245166
 30
        0.000000
 11
      -51.972480
 21
      -33.492724
 31
        0.000000
  0
LINE
  8
0
 10
      -49.426582
 20
      -34.907031
 30
        0.000000
 11
      -49.179511
 21
      -35.154589
 31
        0.000000
  0
LINE
  8
0
 10
      -49.058418
 20
      -31.993212
 30
        0.000000
 11
      -49.992500
 21
      -32.927050
 31
        0.000000
  0
LINE
  8
0
 10
      -48.492988
 20
      -32.558886
 30
        0.000000
 11
      -49.426582
 21
      -33.492724
 31
        0.000000
  0
LINE
  8
0
 10
       45.499981
 20
      -39.000000
 30
        0.000000
 11
       38.099981
 21
      -39.000000
 31
        0.000000
  0
LINE
  8
0
 10
       45.499981
 20
      -38.399902
 30
        0.000000
 11
       38.099981
 21
      -38.399902
 31
        0.000000
  0
LINE
  8
0
 10
       36.599981
 20
      -39.000000
 30
        0.000000
 11
       29.199981
 21
      -39.000000
 31
        0.000000
  0
LINE
  8
0
 10
       36.599981
 20
      -38.399902
 30
        0.000000
 11
       29.199981
 21
      -38.399902
 31
        0.000000
  0
LINE
  8
0
 10
       27.699981
 20
      -39.000000
 30
        0.000000
 11
       20.299981
 21
      -39.000000
 31
        0.000000
  0
LINE
  8
0
 10
       27.699981
 20
      -38.399902
 30
        0.000000
 11
       20.299981
 21
      -38.399902
 31
        0.000000
  0
LINE
  8
0
 10
       18.799981
 20
      -39.000000
 30
        0.000000
 11
       11.399981
 21
      -39.000000
 31
        0.000000
  0
LINE
  8
0
 10
       18.799981
 20
      -38.399902
 30
        0.000000
 11
       11.399981
 21
      -38.399902
 31
        0.000000
  0
LINE
  8
0
 10
        9.899981
 20
      -39.000000
 30
        0.000000
 11
        2.499981
 21
      -39.000000
 31
        0.000000
  0
LINE
  8
0
 10
        9.899981
 20
      -38.399902
 30
        0.000000
 11
        2.499981
 21
      -38.399902
 31
        0.000000
  0
LINE
  8
0
 10
        0.999981
 20
      -39.000000
 30
        0.000000
 11
       -6.400019
 21
      -39.000000
 31
        0.000000
  0
LINE
  8
0
 10
        0.999981
 20
      -38.399902
 30
        0.000000
 11
       -6.400019
 21
      -38.399902
 31
        0.000000
  0
LINE
  8
0
 10
       -7.900019
 20
      -39.000000
 30
        0.000000
 11
      -15.300019
 21
      -39.000000
 31
        0.000000
  0
LINE
  8
0
 10
       -7.900019
 20
      -38.399902
 30
        0.000000
 11
      -15.300019
 21
      -38.399902
 31
        0.000000
  0
LINE
  8
0
 10
      -29.200019
 20
      -38.399902
 30
        0.000000
 11
      -36.600019
 21
      -38.399902
 31
        0.000000
  0
LINE
  8
0
 10
      -29.200019
 20
      -39.000000
 30
        0.000000
 11
      -36.600019
 21
      -39.000000
 31
        0.000000
  0
LINE
  8
0
 10
      -38.100019
 20
      -39.000000
 30
        0.000000
 11
      -45.500019
 21
      -39.000000
 31
        0.000000
  0
LINE
  8
0
 10
      -38.100019
 20
      -38.399902
 30
        0.000000
 11
      -45.500019
 21
      -38.399902
 31
        0.000000
  0
LINE
  8
0
 10
      -47.000019
 20
      -38.399902
 30
        0.000000
 11
      -54.315542
 21
      -38.399902
 31
        0.000000
  0
LINE
  8
0
 10
      -47.000019
 20
      -39.000000
 30
        0.000000
 11
      -54.347005
 21
      -39.000000
 31
        0.000000
  0
LINE
  8
0
 10
       54.347905
 20
      -39.000000
 30
        0.000000
 11
       47.000225
 21
      -39.000000
 31
        0.000000
  0
LINE
  8
0
 10
       54.316457
 20
      -38.399902
 30
        0.000000
 11
       47.000225
 21
      -38.399902
 31
        0.000000
  0
LINE
  8
0
 10
      -47.000019
 20
      -29.900002
 30
        0.000000
 11
      -47.000019
 21
      -40.000000
 31
        0.000000
  0
LINE
  8
0
 10
      -45.500019
 20
      -29.900002
 30
        0.000000
 11
      -45.500019
 21
      -40.000000
 31
        0.000000
  0
LINE
  8
0
 10
      -36.600019
 20
      -29.900002
 30
        0.000000
 11
      -36.600019
 21
      -40.000000
 31
        0.000000
  0
LINE
  8
0
 10
      -38.100019
 20
      -29.900002
 30
        0.000000
 11
      -38.100019
 21
      -40.000000
 31
        0.000000
  0
LINE
  8
0
 10
      -29.200019
 20
      -29.900002
 30
        0.000000
 11
      -29.200019
 21
      -40.000000
 31
        0.000000
  0
LINE
  8
0
 10
      -24.200019
 20
      -29.900002
 30
        0.000000
 11
      -24.200019
 21
      -40.000000
 31
        0.000000
  0
LINE
  8
0
 10
      -16.800019
 20
      -29.900002
 30
        0.000000
 11
      -16.800019
 21
      -40.000000
 31
        0.000000
  0
LINE
  8
0
 10
       -7.900019
 20
      -29.900002
 30
        0.000000
 11
       -7.900019
 21
      -40.000000
 31
        0.000000
  0
LINE
  8
0
 10
      -15.300019
 20
      -29.900002
 30
        0.000000
 11
      -15.300019
 21
      -40.000000
 31
        0.000000
  0
LINE
  8
0
 10
       -6.400019
 20
      -29.900002
 30
        0.000000
 11
       -6.400019
 21
      -40.000000
 31
        0.000000
  0
LINE
  8
0
 10
        0.999981
 20
      -29.900002
 30
        0.000000
 11
        0.999981
 21
      -40.000000
 31
        0.000000
  0
LINE
  8
0
 10
        9.899981
 20
      -29.900002
 30
        0.000000
 11
        9.899981
 21
      -40.000000
 31
        0.000000
  0
LINE
  8
0
 10
        2.499981
 20
      -29.900002
 30
        0.000000
 11
        2.499981
 21
      -40.000000
 31
        0.000000
  0
LINE
  8
0
 10
       11.399981
 20
      -29.900002
 30
        0.000000
 11
       11.399981
 21
      -40.000000
 31
        0.000000
  0
LINE
  8
0
 10
       18.799981
 20
      -29.900002
 30
        0.000000
 11
       18.799981
 21
      -40.000000
 31
        0.000000
  0
LINE
  8
0
 10
       27.699981
 20
      -29.900002
 30
        0.000000
 11
       27.699981
 21
      -40.000000
 31
        0.000000
  0
LINE
  8
0
 10
       20.299981
 20
      -29.900002
 30
        0.000000
 11
       20.299981
 21
      -40.000000
 31
        0.000000
  0
LINE
  8
0
 10
       29.199981
 20
      -29.900002
 30
        0.000000
 11
       29.199981
 21
      -40.000000
 31
        0.000000
  0
LINE
  8
0
 10
       36.599981
 20
      -29.900002
 30
        0.000000
 11
       36.599981
 21
      -40.000000
 31
        0.000000
  0
LINE
  8
0
 10
       45.499981
 20
      -29.900002
 30
        0.000000
 11
       45.499981
 21
      -40.000000
 31
        0.000000
  0
LINE
  8
0
 10
       38.099981
 20
      -29.900002
 30
        0.000000
 11
       38.099981
 21
      -40.000000
 31
        0.000000
  0
LINE
  8
0
 10
       46.999981
 20
      -29.900002
 30
        0.000000
 11
       46.999981
 21
      -40.000000
 31
        0.000000
  0
LINE
  8
0
 10
      -54.049628
 20
      -30.849902
 30
        0.000000
 11
      -54.049628
 21
      -37.549853
 31
        0.000000
  0
LINE
  8
0
 10
      -47.349433
 20
      -30.849902
 30
        0.000000
 11
      -47.349433
 21
      -37.549853
 31
        0.000000
  0
LINE
  8
0
 10
      -54.049628
 20
      -37.549853
 30
        0.000000
 11
      -47.349433
 21
      -37.549853
 31
        0.000000
  0
LINE
  8
0
 10
      -51.407050
 20
      -35.472705
 30
        0.000000
 11
      -52.340644
 21
      -36.406543
 31
        0.000000
  0
LINE
  8
0
 10
      -51.972480
 20
      -34.907031
 30
        0.000000
 11
      -52.906074
 21
      -35.840869
 31
        0.000000
  0
LINE
  8
0
 10
      -49.992500
 20
      -35.472705
 30
        0.000000
 11
      -49.744941
 21
      -35.720263
 31
        0.000000
  0
LINE
  8
0
 10
      -49.179511
 20
      -35.154589
 30
        0.000000
 11
      -49.744941
 21
      -35.720263
 31
        0.000000
  0
CIRCLE
  8
0
 10
      -50.700019
 20
      -34.200000
 30
        0.000000
 40
        2.750000
  0
LINE
  8
0
 10
       47.350372
 20
      -30.849902
 30
        0.000000
 11
       47.350372
 21
      -37.549853
 31
        0.000000
  0
LINE
  8
0
 10
       54.050567
 20
      -30.849902
 30
        0.000000
 11
       54.050567
 21
      -37.549853
 31
        0.000000
  0
LINE
  8
0
 10
       47.350372
 20
      -37.549853
 30
        0.000000
 11
       54.050567
 21
      -37.549853
 31
        0.000000
  0
LINE
  8
0
 10
       49.992950
 20
      -35.472705
 30
        0.000000
 11
       49.059356
 21
      -36.406543
 31
        0.000000
  0
LINE
  8
0
 10
       49.427520
 20
      -34.907031
 30
        0.000000
 11
       48.493926
 21
      -35.840869
 31
        0.000000
  0
LINE
  8
0
 10
       51.407500
 20
      -35.472705
 30
        0.000000
 11
       51.655059
 21
      -35.720263
 31
        0.000000
  0
LINE
  8
0
 10
       52.220489
 20
      -35.154589
 30
        0.000000
 11
       51.655059
 21
      -35.720263
 31
        0.000000
  0
CIRCLE
  8
0
 10
       50.699981
 20
      -34.200000
 30
        0.000000
 40
        2.750000
  0
INSERT
  8
0
 62
  2
  2
BLK0016
 10
        0.000000
 20
        0.000000
  0
INSERT
  8
0
 62
  2
  2
BLK0017
 10
        0.000000
 20
        0.000000
  0
INSERT
  8
0
 62
  2
  2
BLK0018
 10
        0.000000
 20
        0.000000
  0
INSERT
  8
0
 62
  2
  2
BLK0019
 10
        0.000000
 20
        0.000000
  0
INSERT
  8
0
 62
  2
  2
BLK0020
 10
        0.000000
 20
        0.000000
  0
INSERT
  8
0
 62
  2
  2
BLK0021
 10
        0.000000
 20
        0.000000
  0
INSERT
  8
0
 62
  2
  2
BLK0022
 10
        0.000000
 20
        0.000000
  0
INSERT
  8
0
 62
  2
  2
BLK0023
 10
        0.000000
 20
        0.000000
  0
INSERT
  8
0
 62
  2
  2
BLK0024
 10
        0.000000
 20
        0.000000
  0
INSERT
  8
0
 62
  2
  2
BLK0025
 10
        0.000000
 20
        0.000000
  0
LINE
  8
0
 10
      -16.799824
 20
      -38.399902
 30
        0.000000
 11
      -24.199727
 21
      -38.399902
 31
        0.000000
  0
ENDSEC
  0
EOF
