  0
SECTION
  2
HEADER
  9
$ACADVER
  1
AC1006
  9
$INSBASE
 10
0.0
 20
0.0
 30
0.0
  9
$EXTMIN
 10
      -43.250000
 20
      -32.632870
  9
$EXTMAX
 10
       67.016487
 20
        7.800000
  9
$LIMMIN
 10
      -43.250000
 20
      -32.632870
  9
$LIMMAX
 10
       67.016487
 20
        7.800000
  9
$VIEWCTR
 10
       11.883244
 20
       11.883244
  9
$ORTHOMODE
 70
     0
  9
$ANGBASE
 50
0.0
  9
$ANGDIR
 70
     0
  9
$SPLINETYPE
 70
     6
  9
$SPLINESEGS
 70
     8
9
$DIMASZ
 40
        3.500000
9
$DIMEXE
 40
        0.700000
9
$DIMEXO
 40
        1.000000
9
$DIMTXT
 40
        3.000000
9
$DIMGAP
 40
        0.700000
9
$DIMTAD
 70
1
9
$DIMTIH
 70
0
9
$DIMTOH
 70
0
  0
ENDSEC
  0
SECTION
  2
TABLES
  0
TABLE
  2
LTYPE
 70
     5
  0
LTYPE
  2
CONTINUOUS
 70
    64
  3
SOLID LINE
 72
    65
 73
     0
 40
0.0
  0
LTYPE
  2
DASHED
 70
    64
  3
-- -- -- -- -- --
 72
    65
 73
     2
 40
  0.75  
 49
  0.50  
 49
 -0.25  
  0
LTYPE
  2
DOT
 70
    64
  3
....................
 72
    65
 73
     2
 40
  0.25  
 49
  0.02  
 49
 -0.23  
  0
LTYPE
  2
CENTER
 70
    64
  3
-- . -- . -- . -- .
 72
    65
 73
    4
 40
  2.00  
 49
  1.25  
 49
 -0.25  
 49
  0.25  
 49
 -0.25  
  0
LTYPE
  2
PHANTOM
 70
    64
  3
-- .. -- .. -- ..
 72
    65
 73
    6
 40
  2.50  
 49
  1.25  
 49
 -0.25  
 49
  0.25  
 49
 -0.25  
 49
  0.25  
 49
 -0.25  
  0
ENDTAB
  0
TABLE
  2
LAYER
 70
     1
  0
LAYER
  2
LVL0000
 70
    64
 62
     3
  6
CONTINUOUS
  0
ENDTAB
  0
TABLE
  2
STYLE
 70
     2
  0
STYLE
  2
STANDARD
 70
    64
 40
0.0
 41
1.0
 50
0.0
 71
     0
 42
5.0
  3
ROMANS
  4
BIGFONT
  0
STYLE
  2
BIGFONT
 70
    64
 40
0.0
 41
1.0
 50
0.0
 71
     0
 42
5.0
  3
ROMANS
  4
BIGFONT
  0
ENDTAB
  0
TABLE
  2
VIEW
 70
     0
  0
ENDTAB
  0
TABLE
  2
UCS
 70
     0
  0
ENDTAB
  0
TABLE
  2
DWGMGR
 70
     0
  0
ENDTAB
  0
ENDSEC
  0
SECTION
  2
BLOCKS
  0
BLOCK
  8
0
  2
BLK0001
 70
    64
 10
        0.000000
 20
        0.000000
  0
TEXT
  8
LVL0000
 62
  4
 10
       65.273041
 20
      -14.005651
 30
        0.000000
 40
        3.000000
  1
７．９
 50
        0.000000
 41
        0.835000
 51
        0.000000
  7
BIGFONT
  0
LINE
  8
LVL0000
 62
  4
 10
       56.700001
 20
       -1.000000
 30
        0.000000
 11
       56.700001
 21
      -15.405651
 31
        0.000000
  0
LINE
  8
LVL0000
 62
  4
 10
       64.599998
 20
       -4.750000
 30
        0.000000
 11
       64.599998
 21
      -15.405651
 31
        0.000000
  0
LINE
  8
LVL0000
 62
  4
 10
       60.200001
 20
      -14.155872
 30
        0.000000
 11
       56.700001
 21
      -14.705651
 31
        0.000000
  0
LINE
  8
LVL0000
 62
  4
 10
       56.700001
 20
      -14.705651
 30
        0.000000
 11
       60.200001
 21
      -15.255430
 31
        0.000000
  0
LINE
  8
LVL0000
 62
  4
 10
       61.099998
 20
      -15.255430
 30
        0.000000
 11
       64.599998
 21
      -14.705651
 31
        0.000000
  0
LINE
  8
LVL0000
 62
  4
 10
       64.599998
 20
      -14.705651
 30
        0.000000
 11
       61.099998
 21
      -14.155872
 31
        0.000000
  0
LINE
  8
LVL0000
 62
  4
 10
       56.700001
 20
      -14.705651
 30
        0.000000
 11
       74.273041
 21
      -14.705651
 31
        0.000000
  0
ENDBLK
  0
BLOCK
  8
0
  2
BLK0002
 70
    64
 10
        0.000000
 20
        0.000000
  0
TEXT
  8
LVL0000
 62
  4
 10
       -2.936633
 20
       15.238486
 30
        0.000000
 40
        3.000000
  1
７４．５
 50
        0.000000
 41
        0.835000
 51
        0.000000
  7
BIGFONT
  0
LINE
  8
LVL0000
 62
  4
 10
      -37.250000
 20
        5.846302
 30
        0.000000
 11
      -37.250000
 21
       15.238486
 31
        0.000000
  0
LINE
  8
LVL0000
 62
  4
 10
       37.250000
 20
        5.846302
 30
        0.000000
 11
       37.250000
 21
       15.238486
 31
        0.000000
  0
LINE
  8
LVL0000
 62
  4
 10
      -33.750000
 20
       15.088265
 30
        0.000000
 11
      -37.250000
 21
       14.538486
 31
        0.000000
  0
LINE
  8
LVL0000
 62
  4
 10
      -37.250000
 20
       14.538486
 30
        0.000000
 11
      -33.750000
 21
       13.988708
 31
        0.000000
  0
LINE
  8
LVL0000
 62
  4
 10
       33.750000
 20
       13.988708
 30
        0.000000
 11
       37.250000
 21
       14.538486
 31
        0.000000
  0
LINE
  8
LVL0000
 62
  4
 10
       37.250000
 20
       14.538486
 30
        0.000000
 11
       33.750000
 21
       15.088265
 31
        0.000000
  0
LINE
  8
LVL0000
 62
  4
 10
      -37.250000
 20
       14.538486
 30
        0.000000
 11
       37.250000
 21
       14.538486
 31
        0.000000
  0
ENDBLK
  0
BLOCK
  8
0
  2
BLK0003
 70
    64
 10
        0.000000
 20
        0.000000
  0
TEXT
  8
LVL0000
 62
  4
 10
       50.491753
 20
       -6.084178
 30
        0.000000
 40
        3.000000
  1
１５．６
 50
       90.000000
 41
        0.835000
 51
        0.000000
  7
BIGFONT
  0
LINE
  8
LVL0000
 62
  4
 10
       36.450001
 20
       -7.800000
 30
        0.000000
 11
       51.891754
 21
       -7.800000
 31
        0.000000
  0
LINE
  8
LVL0000
 62
  4
 10
       36.450001
 20
        7.800000
 30
        0.000000
 11
       51.891754
 21
        7.800000
 31
        0.000000
  0
LINE
  8
LVL0000
 62
  4
 10
       50.641975
 20
       -4.300000
 30
        0.000000
 11
       51.191753
 21
       -7.800000
 31
        0.000000
  0
LINE
  8
LVL0000
 62
  4
 10
       51.191753
 20
       -7.800000
 30
        0.000000
 11
       51.741531
 21
       -4.300000
 31
        0.000000
  0
LINE
  8
LVL0000
 62
  4
 10
       51.741531
 20
        4.300000
 30
        0.000000
 11
       51.191753
 21
        7.800000
 31
        0.000000
  0
LINE
  8
LVL0000
 62
  4
 10
       51.191753
 20
        7.800000
 30
        0.000000
 11
       50.641975
 21
        4.300000
 31
        0.000000
  0
LINE
  8
LVL0000
 62
  4
 10
       51.191753
 20
       -7.800000
 30
        0.000000
 11
       51.191753
 21
        7.800000
 31
        0.000000
  0
ENDBLK
  0
BLOCK
  8
0
  2
BLK0004
 70
    64
 10
        0.000000
 20
        0.000000
  0
TEXT
  8
LVL0000
 62
  4
 10
       -6.698236
 20
      -15.325764
 30
        0.000000
 40
        3.000000
  1
８６．５
 50
        0.000000
 41
        0.835000
 51
        0.000000
  7
BIGFONT
  0
LINE
  8
LVL0000
 62
  4
 10
      -43.250000
 20
       -1.000000
 30
        0.000000
 11
      -43.250000
 21
      -16.725763
 31
        0.000000
  0
LINE
  8
LVL0000
 62
  4
 10
       43.250000
 20
       -1.000000
 30
        0.000000
 11
       43.250000
 21
      -16.725763
 31
        0.000000
  0
LINE
  8
LVL0000
 62
  4
 10
      -39.750000
 20
      -15.475984
 30
        0.000000
 11
      -43.250000
 21
      -16.025763
 31
        0.000000
  0
LINE
  8
LVL0000
 62
  4
 10
      -43.250000
 20
      -16.025763
 30
        0.000000
 11
      -39.750000
 21
      -16.575541
 31
        0.000000
  0
LINE
  8
LVL0000
 62
  4
 10
       39.750000
 20
      -16.575541
 30
        0.000000
 11
       43.250000
 21
      -16.025763
 31
        0.000000
  0
LINE
  8
LVL0000
 62
  4
 10
       43.250000
 20
      -16.025763
 30
        0.000000
 11
       39.750000
 21
      -15.475984
 31
        0.000000
  0
LINE
  8
LVL0000
 62
  4
 10
      -43.250000
 20
      -16.025763
 30
        0.000000
 11
       43.250000
 21
      -16.025763
 31
        0.000000
  0
ENDBLK
  0
ENDSEC
  0
SECTION
  2
ENTITIES
  0
LINE
  8
LVL0000
 10
       33.500000
 20
      -32.100000
 30
        0.000000
 11
       41.000000
 21
      -32.100000
 31
        0.000000
  0
ARC
  8
LVL0000
 10
      -42.576368
 20
      -28.500000
 30
        0.000000
 40
        0.500000
 50
       90.000000
 51
      176.999995
  0
LINE
  8
LVL0000
 10
      -43.075683
 20
      -28.473832
 30
        0.000000
 11
      -43.250000
 21
      -31.800000
 31
        0.000000
  0
LINE
  8
LVL0000
 10
      -43.250000
 20
      -31.800000
 30
        0.000000
 11
       43.250000
 21
      -31.800000
 31
        0.000000
  0
LINE
  8
LVL0000
 10
       43.075683
 20
      -28.473832
 30
        0.000000
 11
       43.250000
 21
      -31.800000
 31
        0.000000
  0
ARC
  8
LVL0000
 10
       42.576368
 20
      -28.500000
 30
        0.000000
 40
        0.500000
 50
        3.000000
 51
       90.000000
  0
DIMENSION
  8
LVL0000
 62
  4
  2
BLK0001
 10
       56.700001
 20
      -14.705651
 11
       65.273041
 21
      -14.005651
 13
       56.700001
 23
        0.000000
 14
       64.599998
 24
       -3.750000
 50
        0.0
 70
  0
  0
CIRCLE
  8
LVL0000
 10
      -35.250000
 20
       -5.800000
 30
        0.000000
 40
        1.000000
  0
CIRCLE
  8
LVL0000
 10
        0.000000
 20
        0.000000
 30
        0.000000
 40
        1.000000
  0
CIRCLE
  8
LVL0000
 10
       35.250000
 20
        5.800000
 30
        0.000000
 40
        1.000000
  0
LINE
  8
LVL0000
 10
       -6.126883
 20
        0.516006
 30
        0.000000
 11
       -6.122269
 21
        0.726294
 31
        0.000000
  0
LINE
  8
LVL0000
 10
       -9.993079
 20
        0.516006
 30
        0.000000
 11
       -9.988465
 21
        0.726294
 31
        0.000000
  0
LINE
  8
LVL0000
 10
      -25.876177
 20
        0.577637
 30
        0.000000
 11
      -25.868562
 21
        0.774925
 31
        0.000000
  0
LINE
  8
LVL0000
 10
      -22.006729
 20
       -0.709271
 30
        0.000000
 11
      -21.976706
 21
       -0.459573
 31
        0.000000
  0
LINE
  8
LVL0000
 10
       -7.200678
 20
        0.367252
 30
        0.000000
 11
       -7.153284
 21
        0.534824
 31
        0.000000
  0
LINE
  8
LVL0000
 10
      -11.064789
 20
        0.385804
 30
        0.000000
 11
      -11.028636
 21
        0.513302
 31
        0.000000
  0
LINE
  8
LVL0000
 10
      -23.065924
 20
       -0.744275
 30
        0.000000
 11
      -23.023495
 21
       -0.625914
 31
        0.000000
  0
LINE
  8
LVL0000
 10
      -25.868562
 20
        0.774925
 30
        0.000000
 11
      -25.796631
 21
        0.958780
 31
        0.000000
  0
LINE
  8
LVL0000
 10
      -10.070682
 20
        0.320685
 30
        0.000000
 11
       -9.993079
 21
        0.516006
 31
        0.000000
  0
LINE
  8
LVL0000
 10
       -6.204582
 20
        0.320540
 30
        0.000000
 11
       -6.126883
 21
        0.516006
 31
        0.000000
  0
LINE
  8
LVL0000
 10
      -22.420266
 20
        0.574607
 30
        0.000000
 11
      -22.163121
 21
        1.187644
 31
        0.000000
  0
LINE
  8
LVL0000
 10
      -24.793109
 20
        0.801769
 30
        0.000000
 11
      -24.749110
 21
        0.901941
 31
        0.000000
  0
LINE
  8
LVL0000
 10
      -25.950287
 20
       -0.967900
 30
        0.000000
 11
      -25.623992
 21
       -0.325183
 31
        0.000000
  0
LINE
  8
LVL0000
 10
      -22.123993
 20
       -0.931762
 30
        0.000000
 11
      -22.006729
 21
       -0.709271
 31
        0.000000
  0
LINE
  8
LVL0000
 10
      -16.656466
 20
       -0.107653
 30
        0.000000
 11
      -16.102954
 21
        0.797774
 31
        0.000000
  0
LINE
  8
LVL0000
 10
      -17.357651
 20
       -1.254654
 30
        0.000000
 11
      -16.988924
 21
       -0.651490
 31
        0.000000
  0
LINE
  8
LVL0000
 10
      -18.049809
 20
       -1.254654
 30
        0.000000
 11
      -16.447959
 21
        1.365656
 31
        0.000000
  0
LINE
  8
LVL0000
 10
       -6.292300
 20
        0.197846
 30
        0.000000
 11
       -6.204488
 21
        0.320697
 31
        0.000000
  0
LINE
  8
LVL0000
 10
      -10.158496
 20
        0.197834
 30
        0.000000
 11
      -10.070682
 21
        0.320685
 31
        0.000000
  0
LINE
  8
LVL0000
 10
      -11.145080
 20
        0.280358
 30
        0.000000
 11
      -11.064789
 21
        0.385804
 31
        0.000000
  0
LINE
  8
LVL0000
 10
      -12.601542
 20
       -0.087869
 30
        0.000000
 11
      -12.403783
 21
        0.169215
 31
        0.000000
  0
LINE
  8
LVL0000
 10
      -25.796631
 20
        0.958780
 30
        0.000000
 11
      -25.668348
 21
        1.108861
 31
        0.000000
  0
LINE
  8
LVL0000
 10
       -6.394999
 20
        0.087149
 30
        0.000000
 11
       -6.292300
 21
        0.197846
 31
        0.000000
  0
LINE
  8
LVL0000
 10
      -10.261196
 20
        0.087137
 30
        0.000000
 11
      -10.158496
 21
        0.197834
 31
        0.000000
  0
LINE
  8
LVL0000
 10
       -7.321893
 20
        0.242204
 30
        0.000000
 11
       -7.200678
 21
        0.367252
 31
        0.000000
  0
LINE
  8
LVL0000
 10
      -22.313014
 20
       -1.097668
 30
        0.000000
 11
      -22.123993
 21
       -0.931762
 31
        0.000000
  0
LINE
  8
LVL0000
 10
       -6.510931
 20
       -0.009606
 30
        0.000000
 11
       -6.394999
 21
        0.087149
 31
        0.000000
  0
LINE
  8
LVL0000
 10
      -10.377125
 20
       -0.009618
 30
        0.000000
 11
      -10.261196
 21
        0.087137
 31
        0.000000
  0
LINE
  8
LVL0000
 10
      -25.668237
 20
        1.108958
 30
        0.000000
 11
      -25.566773
 21
        1.184795
 31
        0.000000
  0
LINE
  8
LVL0000
 10
      -23.171127
 20
       -0.813135
 30
        0.000000
 11
      -23.065924
 21
       -0.744275
 31
        0.000000
  0
LINE
  8
LVL0000
 10
       -6.638209
 20
       -0.090863
 30
        0.000000
 11
       -6.510931
 21
       -0.009606
 31
        0.000000
  0
LINE
  8
LVL0000
 10
      -10.504403
 20
       -0.090875
 30
        0.000000
 11
      -10.377125
 21
       -0.009618
 31
        0.000000
  0
LINE
  8
LVL0000
 10
      -11.258378
 20
        0.211594
 30
        0.000000
 11
      -11.145080
 21
        0.280358
 31
        0.000000
  0
LINE
  8
LVL0000
 10
      -25.566773
 20
        1.184795
 30
        0.000000
 11
      -25.457685
 21
        1.249178
 31
        0.000000
  0
LINE
  8
LVL0000
 10
      -22.398040
 20
       -1.144440
 30
        0.000000
 11
      -22.312193
 21
       -1.097173
 31
        0.000000
  0
LINE
  8
LVL0000
 10
       -7.481163
 20
        0.159281
 30
        0.000000
 11
       -7.322581
 21
        0.241782
 31
        0.000000
  0
LINE
  8
LVL0000
 10
      -10.622166
 20
       -0.151950
 30
        0.000000
 11
      -10.504403
 21
       -0.090875
 31
        0.000000
  0
LINE
  8
LVL0000
 10
      -24.749110
 20
        0.901941
 30
        0.000000
 11
      -24.650644
 21
        0.949606
 31
        0.000000
  0
LINE
  8
LVL0000
 10
       -6.917880
 20
       -0.223708
 30
        0.000000
 11
       -6.638209
 21
       -0.090863
 31
        0.000000
  0
LINE
  8
LVL0000
 10
      -22.487017
 20
       -1.185515
 30
        0.000000
 11
      -22.398040
 21
       -1.144440
 31
        0.000000
  0
LINE
  8
LVL0000
 10
      -10.742966
 20
       -0.206774
 30
        0.000000
 11
      -10.622166
 21
       -0.151950
 31
        0.000000
  0
LINE
  8
LVL0000
 10
      -25.457685
 20
        1.249178
 30
        0.000000
 11
      -25.342261
 21
        1.301370
 31
        0.000000
  0
LINE
  8
LVL0000
 10
      -10.866475
 20
       -0.255187
 30
        0.000000
 11
      -10.742966
 21
       -0.206774
 31
        0.000000
  0
LINE
  8
LVL0000
 10
      -22.578676
 20
       -1.220193
 30
        0.000000
 11
      -22.487017
 21
       -1.185515
 31
        0.000000
  0
LINE
  8
LVL0000
 10
       -7.650063
 20
        0.100716
 30
        0.000000
 11
       -7.481163
 21
        0.159281
 31
        0.000000
  0
LINE
  8
LVL0000
 10
      -10.992346
 20
       -0.297071
 30
        0.000000
 11
      -10.866475
 21
       -0.255187
 31
        0.000000
  0
LINE
  8
LVL0000
 10
       -7.211680
 20
       -0.321417
 30
        0.000000
 11
       -6.917880
 21
       -0.223708
 31
        0.000000
  0
LINE
  8
LVL0000
 10
      -25.342261
 20
        1.301370
 30
        0.000000
 11
      -25.221859
 21
        1.340731
 31
        0.000000
  0
LINE
  8
LVL0000
 10
      -11.359533
 20
        0.178799
 30
        0.000000
 11
      -11.258055
 21
        0.211715
 31
        0.000000
  0
LINE
  8
LVL0000
 10
      -22.672560
 20
       -1.248293
 30
        0.000000
 11
      -22.578676
 21
       -1.220193
 31
        0.000000
  0
LINE
  8
LVL0000
 10
      -25.222504
 20
        1.340562
 30
        0.000000
 11
      -24.897849
 21
        1.414311
 31
        0.000000
  0
LINE
  8
LVL0000
 10
      -11.463557
 20
        0.155165
 30
        0.000000
 11
      -11.359533
 21
        0.178799
 31
        0.000000
  0
LINE
  8
LVL0000
 10
      -22.975769
 20
       -1.315717
 30
        0.000000
 11
      -22.672563
 21
       -1.248305
 31
        0.000000
  0
LINE
  8
LVL0000
 10
      -23.275476
 20
       -0.835852
 30
        0.000000
 11
      -23.171143
 21
       -0.813135
 31
        0.000000
  0
LINE
  8
LVL0000
 10
       -7.515211
 20
       -0.382529
 30
        0.000000
 11
       -7.211680
 21
       -0.321417
 31
        0.000000
  0
LINE
  8
LVL0000
 10
       -7.825679
 20
        0.067342
 30
        0.000000
 11
       -7.650063
 21
        0.100716
 31
        0.000000
  0
LINE
  8
LVL0000
 10
      -24.897849
 20
        1.414311
 30
        0.000000
 11
      -24.568504
 21
        1.463015
 31
        0.000000
  0
LINE
  8
LVL0000
 10
      -23.283087
 20
       -1.360800
 30
        0.000000
 11
      -22.975769
 21
       -1.315717
 31
        0.000000
  0
LINE
  8
LVL0000
 10
      -11.569287
 20
        0.140959
 30
        0.000000
 11
      -11.463557
 21
        0.155165
 31
        0.000000
  0
LINE
  8
LVL0000
 10
       -9.753810
 20
        1.365656
 30
        0.000000
 11
       -9.321019
 21
        1.423014
 31
        0.000000
  0
LINE
  8
LVL0000
 10
      -13.620007
 20
        1.365656
 30
        0.000000
 11
      -13.187212
 21
        1.423014
 31
        0.000000
  0
LINE
  8
LVL0000
 10
      -23.381332
 20
       -0.849829
 30
        0.000000
 11
      -23.275476
 21
       -0.835852
 31
        0.000000
  0
LINE
  8
LVL0000
 10
      -12.700422
 20
        0.970150
 30
        0.000000
 11
      -12.449179
 21
        1.002691
 31
        0.000000
  0
LINE
  8
LVL0000
 10
       -8.834231
 20
        0.960264
 30
        0.000000
 11
       -8.550776
 21
        0.995847
 31
        0.000000
  0
LINE
  8
LVL0000
 10
       -9.321019
 20
        1.423014
 30
        0.000000
 11
       -8.886182
 21
        1.461953
 31
        0.000000
  0
LINE
  8
LVL0000
 10
      -13.187212
 20
        1.423014
 30
        0.000000
 11
      -12.752375
 21
        1.461953
 31
        0.000000
  0
LINE
  8
LVL0000
 10
      -24.650659
 20
        0.949606
 30
        0.000000
 11
      -24.447402
 21
        0.965104
 31
        0.000000
  0
LINE
  8
LVL0000
 10
       -7.823935
 20
       -0.406126
 30
        0.000000
 11
       -7.515211
 21
       -0.382529
 31
        0.000000
  0
LINE
  8
LVL0000
 10
      -23.592878
 20
       -1.383347
 30
        0.000000
 11
      -23.283087
 21
       -1.360800
 31
        0.000000
  0
LINE
  8
LVL0000
 10
      -24.568504
 20
        1.463015
 30
        0.000000
 11
      -24.236398
 21
        1.486383
 31
        0.000000
  0
LINE
  8
LVL0000
 10
      -12.449179
 20
        1.002691
 30
        0.000000
 11
      -12.196425
 21
        1.019855
 31
        0.000000
  0
LINE
  8
LVL0000
 10
       -8.550776
 20
        0.995847
 30
        0.000000
 11
       -8.265547
 21
        1.011877
 31
        0.000000
  0
LINE
  8
LVL0000
 10
      -23.487983
 20
       -0.854995
 30
        0.000000
 11
      -23.381332
 21
       -0.849829
 31
        0.000000
  0
LINE
  8
LVL0000
 10
       -8.886182
 20
        1.461953
 30
        0.000000
 11
       -8.450083
 21
        1.482388
 31
        0.000000
  0
LINE
  8
LVL0000
 10
      -12.752375
 20
        1.461953
 30
        0.000000
 11
      -12.316276
 21
        1.482388
 31
        0.000000
  0
LINE
  8
LVL0000
 10
      -11.792880
 20
        0.130204
 30
        0.000000
 11
      -11.588835
 21
        0.139390
 31
        0.000000
  0
LINE
  8
LVL0000
 10
      -11.675861
 20
        0.136300
 30
        0.000000
 11
      -11.569287
 21
        0.140959
 31
        0.000000
  0
LINE
  8
LVL0000
 10
       -8.004286
 20
        0.059834
 30
        0.000000
 11
       -7.825679
 21
        0.067342
 31
        0.000000
  0
LINE
  8
LVL0000
 10
      -12.196425
 20
        1.019855
 30
        0.000000
 11
      -11.943091
 21
        1.021569
 31
        0.000000
  0
LINE
  8
LVL0000
 10
       -8.450083
 20
        1.482388
 30
        0.000000
 11
       -8.013507
 21
        1.484319
 31
        0.000000
  0
LINE
  8
LVL0000
 10
      -12.316276
 20
        1.482388
 30
        0.000000
 11
      -11.879704
 21
        1.484319
 31
        0.000000
  0
LINE
  8
LVL0000
 10
      -23.903485
 20
       -1.383202
 30
        0.000000
 11
      -23.592878
 21
       -1.383347
 31
        0.000000
  0
LINE
  8
LVL0000
 10
       -9.753807
 20
       -1.254642
 30
        0.000000
 11
       -8.834228
 21
       -1.254642
 31
        0.000000
  0
LINE
  8
LVL0000
 10
      -11.237002
 20
       -1.254654
 30
        0.000000
 11
       -9.872464
 21
       -1.254654
 31
        0.000000
  0
LINE
  8
LVL0000
 10
      -13.620004
 20
       -1.254654
 30
        0.000000
 11
      -12.700419
 21
       -1.254654
 31
        0.000000
  0
LINE
  8
LVL0000
 10
      -14.855999
 20
       -1.254654
 30
        0.000000
 11
      -13.708992
 21
       -1.254654
 31
        0.000000
  0
LINE
  8
LVL0000
 10
      -18.049809
 20
       -1.254654
 30
        0.000000
 11
      -17.357651
 21
       -1.254654
 31
        0.000000
  0
LINE
  8
LVL0000
 10
      -19.058383
 20
       -1.254654
 30
        0.000000
 11
      -18.138798
 21
       -1.254654
 31
        0.000000
  0
LINE
  8
LVL0000
 10
      -21.757801
 20
       -1.254654
 30
        0.000000
 11
      -20.838216
 21
       -1.254654
 31
        0.000000
  0
LINE
  8
LVL0000
 10
      -16.988924
 20
       -0.651490
 30
        0.000000
 11
      -15.222446
 21
       -0.651490
 31
        0.000000
  0
LINE
  8
LVL0000
 10
      -20.838216
 20
       -0.176863
 30
        0.000000
 11
      -19.058383
 21
       -0.176863
 31
        0.000000
  0
LINE
  8
LVL0000
 10
      -16.656466
 20
       -0.107653
 30
        0.000000
 11
      -15.552858
 21
       -0.107653
 31
        0.000000
  0
LINE
  8
LVL0000
 10
      -20.838216
 20
        0.376860
 30
        0.000000
 11
      -19.058383
 21
        0.376860
 31
        0.000000
  0
LINE
  8
LVL0000
 10
      -24.447402
 20
        0.965104
 30
        0.000000
 11
      -24.243675
 21
        0.965104
 31
        0.000000
  0
LINE
  8
LVL0000
 10
      -16.447959
 20
        1.365656
 30
        0.000000
 11
      -15.300957
 21
        1.365656
 31
        0.000000
  0
LINE
  8
LVL0000
 10
      -19.058383
 20
        1.365656
 30
        0.000000
 11
      -18.138804
 21
        1.365656
 31
        0.000000
  0
LINE
  8
LVL0000
 10
      -21.757801
 20
        1.365656
 30
        0.000000
 11
      -20.838216
 21
        1.365656
 31
        0.000000
  0
LINE
  8
LVL0000
 10
      -24.236398
 20
        1.486383
 30
        0.000000
 11
      -23.903479
 21
        1.484319
 31
        0.000000
  0
LINE
  8
LVL0000
 10
       -8.077655
 20
       -0.403929
 30
        0.000000
 11
       -7.823917
 21
       -0.406138
 31
        0.000000
  0
LINE
  8
LVL0000
 10
      -11.997127
 20
        0.132123
 30
        0.000000
 11
      -11.792880
 21
        0.130204
 31
        0.000000
  0
LINE
  8
LVL0000
 10
       -8.265547
 20
        1.011877
 30
        0.000000
 11
       -7.979889
 21
        1.008256
 31
        0.000000
  0
LINE
  8
LVL0000
 10
      -23.594695
 20
       -0.851253
 30
        0.000000
 11
      -23.487983
 21
       -0.854995
 31
        0.000000
  0
LINE
  8
LVL0000
 10
      -24.248917
 20
       -1.361089
 30
        0.000000
 11
      -23.665845
 21
       -1.387596
 31
        0.000000
  0
LINE
  8
LVL0000
 10
       -8.013528
 20
        1.484319
 30
        0.000000
 11
       -7.686681
 21
        1.468398
 31
        0.000000
  0
LINE
  8
LVL0000
 10
      -11.879719
 20
        1.484319
 30
        0.000000
 11
      -11.552868
 21
        1.468398
 31
        0.000000
  0
LINE
  8
LVL0000
 10
      -24.243675
 20
        0.965104
 30
        0.000000
 11
      -24.040230
 21
        0.954350
 31
        0.000000
  0
LINE
  8
LVL0000
 10
      -11.943091
 20
        1.021569
 30
        0.000000
 11
      -11.690125
 21
        1.007833
 31
        0.000000
  0
LINE
  8
LVL0000
 10
       -8.330998
 20
       -0.389686
 30
        0.000000
 11
       -8.077655
 21
       -0.403929
 31
        0.000000
  0
LINE
  8
LVL0000
 10
       -8.214133
 20
        0.072219
 30
        0.000000
 11
       -8.004533
 21
        0.059834
 31
        0.000000
  0
LINE
  8
LVL0000
 10
      -12.200960
 20
        0.145147
 30
        0.000000
 11
      -11.997127
 21
        0.132123
 31
        0.000000
  0
LINE
  8
LVL0000
 10
      -23.903479
 20
        1.484307
 30
        0.000000
 11
      -23.462310
 21
        1.450884
 31
        0.000000
  0
LINE
  8
LVL0000
 10
       -7.979889
 20
        1.008256
 30
        0.000000
 11
       -7.695157
 21
        0.984996
 31
        0.000000
  0
LINE
  8
LVL0000
 10
       -8.583381
 20
       -0.363409
 30
        0.000000
 11
       -8.330998
 21
       -0.389686
 31
        0.000000
  0
LINE
  8
LVL0000
 10
       -7.686681
 20
        1.468398
 30
        0.000000
 11
       -7.361508
 21
        1.431717
 31
        0.000000
  0
LINE
  8
LVL0000
 10
      -11.552868
 20
        1.468398
 30
        0.000000
 11
      -11.227698
 21
        1.431717
 31
        0.000000
  0
LINE
  8
LVL0000
 10
      -24.040230
 20
        0.954350
 30
        0.000000
 11
      -23.837807
 21
        0.931283
 31
        0.000000
  0
LINE
  8
LVL0000
 10
       -8.422717
 20
        0.096275
 30
        0.000000
 11
       -8.214133
 21
        0.072219
 31
        0.000000
  0
LINE
  8
LVL0000
 10
      -12.403792
 20
        0.169215
 30
        0.000000
 11
      -12.200960
 21
        0.145147
 31
        0.000000
  0
LINE
  8
LVL0000
 10
      -24.117283
 20
       -0.788017
 30
        0.000000
 11
      -23.594318
 21
       -0.851290
 31
        0.000000
  0
LINE
  8
LVL0000
 10
      -24.827182
 20
       -1.281800
 30
        0.000000
 11
      -24.248917
 21
       -1.361089
 31
        0.000000
  0
LINE
  8
LVL0000
 10
      -23.462310
 20
        1.450884
 30
        0.000000
 11
      -23.024067
 21
        1.390135
 31
        0.000000
  0
LINE
  8
LVL0000
 10
      -11.690949
 20
        1.007905
 30
        0.000000
 11
      -11.563071
 21
        0.989824
 31
        0.000000
  0
LINE
  8
LVL0000
 10
       -8.834228
 20
       -0.325171
 30
        0.000000
 11
       -8.583381
 21
       -0.363409
 31
        0.000000
  0
LINE
  8
LVL0000
 10
      -23.527522
 20
        0.408231
 30
        0.000000
 11
      -23.143623
 21
        0.347300
 31
        0.000000
  0
LINE
  8
LVL0000
 10
      -23.776328
 20
       -0.318351
 30
        0.000000
 11
      -23.353754
 21
       -0.388866
 31
        0.000000
  0
LINE
  8
LVL0000
 10
      -23.839754
 20
        0.931561
 30
        0.000000
 11
      -23.478457
 21
        0.869870
 31
        0.000000
  0
LINE
  8
LVL0000
 10
       -8.629634
 20
        0.131942
 30
        0.000000
 11
       -8.422717
 21
        0.096275
 31
        0.000000
  0
LINE
  8
LVL0000
 10
       -7.361508
 20
        1.431717
 30
        0.000000
 11
       -7.039325
 21
        1.374431
 31
        0.000000
  0
LINE
  8
LVL0000
 10
      -11.227698
 20
        1.431717
 30
        0.000000
 11
      -10.905519
 21
        1.374431
 31
        0.000000
  0
LINE
  8
LVL0000
 10
      -23.910095
 20
        0.476995
 30
        0.000000
 11
      -23.527522
 21
        0.408231
 31
        0.000000
  0
LINE
  8
LVL0000
 10
       -7.694596
 20
        0.984936
 30
        0.000000
 11
       -7.590967
 21
        0.966275
 31
        0.000000
  0
LINE
  8
LVL0000
 10
      -23.143297
 20
        0.347252
 30
        0.000000
 11
      -22.950027
 21
        0.312031
 31
        0.000000
  0
LINE
  8
LVL0000
 10
      -24.197498
 20
       -0.239882
 30
        0.000000
 11
      -23.776328
 21
       -0.318351
 31
        0.000000
  0
LINE
  8
LVL0000
 10
      -23.353652
 20
       -0.388890
 30
        0.000000
 11
      -23.257666
 21
       -0.407466
 31
        0.000000
  0
LINE
  8
LVL0000
 10
      -24.291179
 20
        0.553581
 30
        0.000000
 11
      -23.910095
 21
        0.476995
 31
        0.000000
  0
LINE
  8
LVL0000
 10
      -23.024067
 20
        1.390135
 30
        0.000000
 11
      -22.590444
 21
        1.302275
 31
        0.000000
  0
LINE
  8
LVL0000
 10
      -24.617114
 20
       -0.153495
 30
        0.000000
 11
      -24.197498
 21
       -0.239882
 31
        0.000000
  0
LINE
  8
LVL0000
 10
      -24.632576
 20
       -0.678612
 30
        0.000000
 11
      -24.117283
 21
       -0.788017
 31
        0.000000
  0
LINE
  8
LVL0000
 10
      -24.670616
 20
        0.637964
 30
        0.000000
 11
      -24.291179
 21
        0.553581
 31
        0.000000
  0
LINE
  8
LVL0000
 10
      -23.478457
 20
        0.869870
 30
        0.000000
 11
      -23.120813
 21
        0.789663
 31
        0.000000
  0
LINE
  8
LVL0000
 10
      -25.035031
 20
       -0.059227
 30
        0.000000
 11
      -24.617114
 21
       -0.153495
 31
        0.000000
  0
LINE
  8
LVL0000
 10
      -25.395870
 20
       -1.150379
 30
        0.000000
 11
      -24.827182
 21
       -1.281800
 31
        0.000000
  0
LINE
  8
LVL0000
 10
       -8.834231
 20
        0.179101
 30
        0.000000
 11
       -8.629634
 21
        0.131942
 31
        0.000000
  0
LINE
  8
LVL0000
 10
       -7.039325
 20
        1.374431
 30
        0.000000
 11
       -6.721443
 21
        1.296771
 31
        0.000000
  0
LINE
  8
LVL0000
 10
      -10.905519
 20
        1.374431
 30
        0.000000
 11
      -10.587633
 21
        1.296771
 31
        0.000000
  0
LINE
  8
LVL0000
 10
      -23.257666
 20
       -0.407466
 30
        0.000000
 11
      -23.210225
 21
       -0.419283
 31
        0.000000
  0
LINE
  8
LVL0000
 10
      -22.950027
 20
        0.312031
 30
        0.000000
 11
      -22.759511
 21
        0.264087
 31
        0.000000
  0
LINE
  8
LVL0000
 10
      -11.563071
 20
        0.989824
 30
        0.000000
 11
      -11.438038
 21
        0.957476
 31
        0.000000
  0
LINE
  8
LVL0000
 10
      -25.164898
 20
       -0.025080
 30
        0.000000
 11
      -25.035512
 21
       -0.059106
 31
        0.000000
  0
LINE
  8
LVL0000
 10
      -22.590444
 20
        1.302275
 30
        0.000000
 11
      -22.163119
 21
        1.187644
 31
        0.000000
  0
LINE
  8
LVL0000
 10
      -23.120813
 20
        0.789663
 30
        0.000000
 11
      -22.767772
 21
        0.691146
 31
        0.000000
  0
LINE
  8
LVL0000
 10
      -23.210225
 20
       -0.419283
 30
        0.000000
 11
      -23.163230
 21
       -0.432765
 31
        0.000000
  0
LINE
  8
LVL0000
 10
      -25.136134
 20
       -0.523932
 30
        0.000000
 11
      -24.632576
 21
       -0.678612
 31
        0.000000
  0
LINE
  8
LVL0000
 10
       -7.590967
 20
        0.966275
 30
        0.000000
 11
       -7.490439
 21
        0.934965
 31
        0.000000
  0
LINE
  8
LVL0000
 10
      -25.292337
 20
        0.015669
 30
        0.000000
 11
      -25.164898
 21
       -0.025080
 31
        0.000000
  0
LINE
  8
LVL0000
 10
      -22.759511
 20
        0.264087
 30
        0.000000
 11
      -22.572585
 21
        0.203652
 31
        0.000000
  0
LINE
  8
LVL0000
 10
      -25.950290
 20
       -0.967900
 30
        0.000000
 11
      -25.395870
 21
       -1.150379
 31
        0.000000
  0
LINE
  8
LVL0000
 10
      -22.767772
 20
        0.691146
 30
        0.000000
 11
      -22.420267
 21
        0.574607
 31
        0.000000
  0
LINE
  8
LVL0000
 10
       -6.721941
 20
        1.296904
 30
        0.000000
 11
       -6.614814
 21
        1.260826
 31
        0.000000
  0
LINE
  8
LVL0000
 10
      -10.588131
 20
        1.296904
 30
        0.000000
 11
      -10.481002
 21
        1.260826
 31
        0.000000
  0
LINE
  8
LVL0000
 10
      -25.417483
 20
        0.062973
 30
        0.000000
 11
      -25.292337
 21
        0.015669
 31
        0.000000
  0
LINE
  8
LVL0000
 10
      -11.438038
 20
        0.957476
 30
        0.000000
 11
      -11.317435
 21
        0.911283
 31
        0.000000
  0
LINE
  8
LVL0000
 10
      -22.572585
 20
        0.203652
 30
        0.000000
 11
      -22.390072
 21
        0.130952
 31
        0.000000
  0
LINE
  8
LVL0000
 10
      -25.623986
 20
       -0.325207
 30
        0.000000
 11
      -25.136134
 21
       -0.523932
 31
        0.000000
  0
LINE
  8
LVL0000
 10
      -25.540001
 20
        0.116722
 30
        0.000000
 11
      -25.417483
 21
        0.062973
 31
        0.000000
  0
LINE
  8
LVL0000
 10
       -7.490439
 20
        0.934965
 30
        0.000000
 11
       -7.394553
 21
        0.891464
 31
        0.000000
  0
LINE
  8
LVL0000
 10
       -6.614814
 20
        1.260826
 30
        0.000000
 11
       -6.512196
 21
        1.213414
 31
        0.000000
  0
LINE
  8
LVL0000
 10
      -10.481002
 20
        1.260826
 30
        0.000000
 11
      -10.378386
 21
        1.213414
 31
        0.000000
  0
LINE
  8
LVL0000
 10
      -11.317435
 20
        0.911283
 30
        0.000000
 11
      -11.202788
 21
        0.851825
 31
        0.000000
  0
LINE
  8
LVL0000
 10
       -6.512196
 20
        1.213414
 30
        0.000000
 11
       -6.415283
 21
        1.155223
 31
        0.000000
  0
LINE
  8
LVL0000
 10
      -10.378386
 20
        1.213414
 30
        0.000000
 11
      -10.281471
 21
        1.155223
 31
        0.000000
  0
LINE
  8
LVL0000
 10
       -7.394553
 20
        0.891464
 30
        0.000000
 11
       -7.304778
 21
        0.836447
 31
        0.000000
  0
LINE
  8
LVL0000
 10
      -24.761601
 20
        0.697012
 30
        0.000000
 11
      -24.669655
 21
        0.637735
 31
        0.000000
  0
LINE
  8
LVL0000
 10
      -22.390573
 20
        0.131182
 30
        0.000000
 11
      -22.182193
 21
       -0.009642
 31
        0.000000
  0
LINE
  8
LVL0000
 10
      -25.702296
 20
        0.229253
 30
        0.000000
 11
      -25.540057
 21
        0.116734
 31
        0.000000
  0
LINE
  8
LVL0000
 10
      -23.163255
 20
       -0.432741
 30
        0.000000
 11
      -23.060991
 21
       -0.505899
 31
        0.000000
  0
LINE
  8
LVL0000
 10
       -6.415283
 20
        1.155223
 30
        0.000000
 11
       -6.325194
 21
        1.086942
 31
        0.000000
  0
LINE
  8
LVL0000
 10
      -10.281471
 20
        1.155223
 30
        0.000000
 11
      -10.191385
 21
        1.086942
 31
        0.000000
  0
LINE
  8
LVL0000
 10
      -10.992343
 20
       -0.297071
 30
        0.000000
 11
       -9.872464
 21
       -1.254654
 31
        0.000000
  0
LINE
  8
LVL0000
 10
      -12.601542
 20
       -0.087869
 30
        0.000000
 11
      -11.237002
 21
       -1.254654
 31
        0.000000
  0
LINE
  8
LVL0000
 10
      -11.201289
 20
        0.850944
 30
        0.000000
 11
      -11.101965
 21
        0.763193
 31
        0.000000
  0
LINE
  8
LVL0000
 10
       -7.304959
 20
        0.836568
 30
        0.000000
 11
       -7.191058
 21
        0.704833
 31
        0.000000
  0
LINE
  8
LVL0000
 10
       -6.325366
 20
        1.087086
 30
        0.000000
 11
       -6.191326
 21
        0.924983
 31
        0.000000
  0
LINE
  8
LVL0000
 10
      -10.191560
 20
        1.087086
 30
        0.000000
 11
      -10.057522
 21
        0.924983
 31
        0.000000
  0
LINE
  8
LVL0000
 10
      -25.818629
 20
        0.388773
 30
        0.000000
 11
      -25.702296
 21
        0.229253
 31
        0.000000
  0
LINE
  8
LVL0000
 10
      -22.182193
 20
       -0.009642
 30
        0.000000
 11
      -22.037886
 21
       -0.215621
 31
        0.000000
  0
LINE
  8
LVL0000
 10
      -15.222446
 20
       -0.651490
 30
        0.000000
 11
      -14.855993
 21
       -1.254654
 31
        0.000000
  0
LINE
  8
LVL0000
 10
      -16.102954
 20
        0.797774
 30
        0.000000
 11
      -15.552858
 21
       -0.107653
 31
        0.000000
  0
LINE
  8
LVL0000
 10
      -15.300957
 20
        1.365656
 30
        0.000000
 11
      -13.708992
 21
       -1.254654
 31
        0.000000
  0
LINE
  8
LVL0000
 10
      -11.101965
 20
        0.763193
 30
        0.000000
 11
      -11.041626
 21
        0.645194
 31
        0.000000
  0
LINE
  8
LVL0000
 10
       -6.191326
 20
        0.924983
 30
        0.000000
 11
       -6.122269
 21
        0.726294
 31
        0.000000
  0
LINE
  8
LVL0000
 10
      -10.057522
 20
        0.924983
 30
        0.000000
 11
       -9.988465
 21
        0.726294
 31
        0.000000
  0
LINE
  8
LVL0000
 10
      -23.060991
 20
       -0.505899
 30
        0.000000
 11
      -23.023495
 21
       -0.625914
 31
        0.000000
  0
LINE
  8
LVL0000
 10
      -25.876177
 20
        0.577637
 30
        0.000000
 11
      -25.818629
 21
        0.388773
 31
        0.000000
  0
LINE
  8
LVL0000
 10
      -24.793109
 20
        0.801769
 30
        0.000000
 11
      -24.761601
 21
        0.697012
 31
        0.000000
  0
LINE
  8
LVL0000
 10
      -22.037886
 20
       -0.215621
 30
        0.000000
 11
      -21.976706
 21
       -0.459573
 31
        0.000000
  0
LINE
  8
LVL0000
 10
       -7.191058
 20
        0.704833
 30
        0.000000
 11
       -7.153284
 21
        0.534824
 31
        0.000000
  0
LINE
  8
LVL0000
 10
      -11.041626
 20
        0.645194
 30
        0.000000
 11
      -11.028636
 21
        0.513302
 31
        0.000000
  0
LINE
  8
LVL0000
 10
       -8.834231
 20
        0.179113
 30
        0.000000
 11
       -8.834231
 21
        0.960264
 31
        0.000000
  0
LINE
  8
LVL0000
 10
       -8.834228
 20
       -1.254642
 30
        0.000000
 11
       -8.834228
 21
       -0.325183
 31
        0.000000
  0
LINE
  8
LVL0000
 10
       -9.753813
 20
       -1.254654
 30
        0.000000
 11
       -9.753807
 21
        1.365668
 31
        0.000000
  0
LINE
  8
LVL0000
 10
      -12.700425
 20
       -1.254654
 30
        0.000000
 11
      -12.700419
 21
        0.970138
 31
        0.000000
  0
LINE
  8
LVL0000
 10
      -13.620004
 20
       -1.254654
 30
        0.000000
 11
      -13.620004
 21
        1.365656
 31
        0.000000
  0
LINE
  8
LVL0000
 10
      -18.138804
 20
       -1.254654
 30
        0.000000
 11
      -18.138798
 21
        1.365656
 31
        0.000000
  0
LINE
  8
LVL0000
 10
      -19.058383
 20
        0.376860
 30
        0.000000
 11
      -19.058383
 21
        1.365656
 31
        0.000000
  0
LINE
  8
LVL0000
 10
      -19.058383
 20
       -1.254654
 30
        0.000000
 11
      -19.058383
 21
       -0.176863
 31
        0.000000
  0
LINE
  8
LVL0000
 10
      -20.838216
 20
        0.376860
 30
        0.000000
 11
      -20.838216
 21
        1.365656
 31
        0.000000
  0
LINE
  8
LVL0000
 10
      -20.838216
 20
       -1.254654
 30
        0.000000
 11
      -20.838216
 21
       -0.176863
 31
        0.000000
  0
LINE
  8
LVL0000
 10
      -21.757801
 20
       -1.254654
 30
        0.000000
 11
      -21.757801
 21
        1.365656
 31
        0.000000
  0
DIMENSION
  8
LVL0000
 62
  4
  2
BLK0002
 10
      -37.250000
 20
       14.538486
 11
       -2.936633
 21
       15.238486
 13
      -37.250000
 23
        4.846302
 14
       37.250000
 24
        4.846302
 50
        0.0
 70
  0
  0
LINE
  8
LVL0000
 10
      -35.450000
 20
       -7.800000
 30
        0.000000
 11
       35.450000
 21
       -7.800000
 31
        0.000000
  0
LINE
  8
LVL0000
 10
      -35.450000
 20
        7.800000
 30
        0.000000
 11
       35.450000
 21
        7.800000
 31
        0.000000
  0
LINE
  8
LVL0000
 10
       27.500000
 20
        0.000000
 30
        0.000000
 11
       27.500000
 21
       -5.300000
 31
        0.000000
  0
LINE
  8
LVL0000
 10
        6.500000
 20
       -5.300000
 30
        0.000000
 11
       27.500000
 21
       -5.300000
 31
        0.000000
  0
LINE
  8
LVL0000
  6
CENTER
 62
  1
 10
      -46.598028
 20
        0.000000
 30
        0.000000
 11
       45.413546
 21
        0.000000
 31
        0.000000
  0
LINE
  8
LVL0000
  6
CENTER
 62
  1
 10
       55.194695
 20
        0.000000
 30
        0.000000
 11
       67.016484
 21
        0.000000
 31
        0.000000
  0
LINE
  8
LVL0000
 10
       64.300000
 20
        7.800000
 30
        0.000000
 11
       64.300000
 21
       -7.800000
 31
        0.000000
  0
CIRCLE
  8
LVL0000
 10
      -37.250000
 20
        0.000000
 30
        0.000000
 40
        2.675000
  0
CIRCLE
  8
LVL0000
 10
       37.250000
 20
        0.000000
 30
        0.000000
 40
        2.675000
  0
ARC
  8
LVL0000
 10
      -35.450000
 20
        0.000000
 30
        0.000000
 40
        7.800000
 50
       90.000000
 51
      270.000000
  0
ARC
  8
LVL0000
 10
       35.450000
 20
        0.000000
 30
        0.000000
 40
        7.800000
 50
      270.000000
 51
      450.000000
  0
ARC
  8
LVL0000
 10
       60.262795
 20
        5.585674
 30
        0.000000
 40
        2.000000
 50
       92.999997
 51
      168.492953
  0
ARC
  8
LVL0000
 10
       87.700000
 20
        0.000000
 30
        0.000000
 40
       30.000000
 50
      168.492953
 51
      191.507047
  0
ARC
  8
LVL0000
 10
       60.262795
 20
       -5.585674
 30
        0.000000
 40
        2.000000
 50
      191.507047
 51
      267.000003
  0
ARC
  8
LVL0000
 10
       65.700000
 20
        0.000000
 30
        0.000000
 40
        9.000000
 50
      147.774891
 51
      212.225109
  0
CIRCLE
  8
LVL0000
 10
        0.000000
 20
        0.000000
 30
        0.000000
 40
        4.799223
  0
TEXT
  8
LVL0000
 10
        8.581895
 20
        1.277563
 30
        0.000000
 40
        2.800000
  1
ＤＳ－１ＴＧ
 50
        0.000000
 41
        0.835000
 51
        0.000000
  7
BIGFONT
  0
LINE
  8
LVL0000
 10
        6.500000
 20
        0.000000
 30
        0.000000
 11
        6.500000
 21
       -5.300000
 31
        0.000000
  0
LINE
  8
LVL0000
 10
        6.500000
 20
        0.000000
 30
        0.000000
 11
       27.500000
 21
        0.000000
 31
        0.000000
  0
LINE
  8
LVL0000
  6
CENTER
 62
  1
 10
       37.250000
 20
        4.846302
 30
        0.000000
 11
       37.250000
 21
       -4.304290
 31
        0.000000
  0
LINE
  8
LVL0000
  6
CENTER
 62
  1
 10
      -37.250000
 20
        4.846302
 30
        0.000000
 11
      -37.250000
 21
       -4.304290
 31
        0.000000
  0
ARC
  8
LVL0000
 10
       30.100850
 20
       -5.800000
 30
        0.000000
 40
        2.000000
 50
      270.000000
 51
      360.000000
  0
LINE
  8
LVL0000
 10
       32.100850
 20
        5.800000
 30
        0.000000
 11
       32.100850
 21
       -5.800000
 31
        0.000000
  0
ARC
  8
LVL0000
 10
       30.100850
 20
        5.800000
 30
        0.000000
 40
        2.000000
 50
        0.000000
 51
       90.000000
  0
ARC
  8
LVL0000
 10
      -30.100850
 20
        5.800000
 30
        0.000000
 40
        2.000000
 50
       90.000000
 51
      179.999995
  0
LINE
  8
LVL0000
 10
      -32.100850
 20
        5.800000
 30
        0.000000
 11
      -32.100850
 21
       -5.800000
 31
        0.000000
  0
ARC
  8
LVL0000
 10
      -30.100850
 20
       -5.800000
 30
        0.000000
 40
        2.000000
 50
      179.999995
 51
      270.000000
  0
LINE
  8
LVL0000
 10
       60.158123
 20
        7.582933
 30
        0.000000
 11
       64.300000
 21
        7.800000
 31
        0.000000
  0
ARC
  8
LVL0000
 10
       61.000000
 20
        7.126368
 30
        0.000000
 40
        0.500000
 50
       92.999997
 51
      179.999995
  0
LINE
  8
LVL0000
 10
       60.500000
 20
        7.126368
 30
        0.000000
 11
       60.500000
 21
       -7.126368
 31
        0.000000
  0
LINE
  8
LVL0000
 10
       60.158123
 20
       -7.582933
 30
        0.000000
 11
       64.300000
 21
       -7.800000
 31
        0.000000
  0
ARC
  8
LVL0000
 10
       61.000000
 20
       -7.126368
 30
        0.000000
 40
        0.500000
 50
      179.999995
 51
      267.000003
  0
LINE
  8
LVL0000
 10
       64.600000
 20
       -3.750000
 30
        0.000000
 11
       64.600000
 21
        3.750000
 31
        0.000000
  0
LINE
  8
LVL0000
 10
       64.300000
 20
       -3.750000
 30
        0.000000
 11
       64.600000
 21
       -3.750000
 31
        0.000000
  0
LINE
  8
LVL0000
 10
       64.300000
 20
        3.750000
 30
        0.000000
 11
       64.600000
 21
        3.750000
 31
        0.000000
  0
LINE
  8
LVL0000
  6
CENTER
 62
  1
 10
        0.000000
 20
        8.699956
 30
        0.000000
 11
        0.000000
 21
       -9.439078
 31
        0.000000
  0
DIMENSION
  8
LVL0000
 62
  4
  2
BLK0003
 10
       51.191753
 20
       -7.800000
 11
       50.491753
 21
       -6.084178
 13
       35.450001
 23
       -7.800000
 14
       35.450001
 24
        7.800000
 50
       90.0
 70
  0
  0
DIMENSION
  8
LVL0000
 62
  4
  2
BLK0004
 10
      -43.250000
 20
      -16.025763
 11
       -6.698236
 21
      -15.325764
 13
      -43.250000
 23
        0.000000
 14
       43.250000
 24
        0.000000
 50
        0.0
 70
  0
  0
LINE
  8
LVL0000
  6
CENTER
 62
  1
 10
        0.000000
 20
      -23.070889
 30
        0.000000
 11
        0.000000
 21
      -32.632869
 31
        0.000000
  0
LINE
  8
LVL0000
 10
       33.500000
 20
      -31.800000
 30
        0.000000
 11
       33.500000
 21
      -32.100000
 31
        0.000000
  0
LINE
  8
LVL0000
 10
       41.000000
 20
      -31.800000
 30
        0.000000
 11
       41.000000
 21
      -32.100000
 31
        0.000000
  0
LINE
  8
LVL0000
 10
      -33.500000
 20
      -31.800000
 30
        0.000000
 11
      -33.500000
 21
      -32.100000
 31
        0.000000
  0
LINE
  8
LVL0000
 10
      -41.000000
 20
      -31.800000
 30
        0.000000
 11
      -41.000000
 21
      -32.100000
 31
        0.000000
  0
LINE
  8
LVL0000
 10
      -32.103439
 20
      -27.095328
 30
        0.000000
 11
      -32.126018
 21
      -27.526168
 31
        0.000000
  0
ARC
  8
LVL0000
 10
      -32.625333
 20
      -27.500000
 30
        0.000000
 40
        0.500000
 50
      270.000000
 51
      357.000000
  0
LINE
  8
LVL0000
 10
      -32.625333
 20
      -28.000000
 30
        0.000000
 11
      -42.576368
 21
      -28.000000
 31
        0.000000
  0
LINE
  8
LVL0000
 10
      -30.106180
 20
      -25.200000
 30
        0.000000
 11
       30.106180
 21
      -25.200000
 31
        0.000000
  0
ARC
  8
LVL0000
 10
      -30.106180
 20
      -27.200000
 30
        0.000000
 40
        2.000000
 50
       90.000000
 51
      176.999995
  0
ARC
  8
LVL0000
 10
       30.106180
 20
      -27.200000
 30
        0.000000
 40
        2.000000
 50
        3.000000
 51
       90.000000
  0
LINE
  8
LVL0000
 10
       32.103439
 20
      -27.095328
 30
        0.000000
 11
       32.126018
 21
      -27.526168
 31
        0.000000
  0
LINE
  8
LVL0000
 10
       32.625333
 20
      -28.000000
 30
        0.000000
 11
       42.576368
 21
      -28.000000
 31
        0.000000
  0
ARC
  8
LVL0000
 10
       32.625333
 20
      -27.500000
 30
        0.000000
 40
        0.500000
 50
      183.000005
 51
      270.000000
  0
ARC
  8
LVL0000
 10
        0.000000
 20
      -33.200000
 30
        0.000000
 40
        9.000000
 50
       62.733954
 51
      117.266041
  0
LINE
  8
LVL0000
 10
      -33.500000
 20
      -32.100000
 30
        0.000000
 11
      -41.000000
 21
      -32.100000
 31
        0.000000
  0
ENDSEC
  0
EOF
